<?xml version="1.0" standalone="no"?>
<!DOCTYPE svg PUBLIC "-//W3C//DTD SVG 1.1//EN" "http://www.w3.org/Graphics/SVG/1.1/DTD/svg11.dtd" >
<svg xmlns="http://www.w3.org/2000/svg" xmlns:xlink="http://www.w3.org/1999/xlink" version="1.1">
<metadata>
Created by FontForge 20170731 at Thu Jan 27 16:36:04 2022
 By Aleksey,,,
Copyright (c) 2014, Cooper Hewitt Smithsonian Design Museum (cooperhewitt.org)
</metadata>
<defs>
<font id="CooperHewitt-BoldItalic" horiz-adv-x="614" >
  <font-face 
    font-family="Cooper Hewitt"
    font-weight="712"
    font-style="italic"
    font-stretch="normal"
    units-per-em="2048"
    panose-1="0 0 0 0 0 0 0 0 0 0"
    ascent="1536"
    descent="-512"
    x-height="1085"
    cap-height="1597"
    bbox="-623 -463 2830 1985"
    underline-thickness="40"
    underline-position="-224"
    unicode-range="U+0020-F222"
  />
<missing-glyph horiz-adv-x="1970" 
d="M186 0v1597h1598v-1597h-1598zM985 707l-571 -572h1142zM414 1462l571 -571l571 571h-1142zM893 799l-563 563v-1126zM1077 799l563 -563v1126z" />
    <glyph glyph-name=".notdef" horiz-adv-x="1970" 
d="M186 0v1597h1598v-1597h-1598zM985 707l-571 -572h1142zM414 1462l571 -571l571 571h-1142zM893 799l-563 563v-1126zM1077 799l563 -563v1126z" />
    <glyph glyph-name=".null" horiz-adv-x="0" 
 />
    <glyph glyph-name="nonmarkingreturn" horiz-adv-x="682" 
 />
    <glyph glyph-name="space" unicode=" " horiz-adv-x="409" 
 />
    <glyph glyph-name="exclam" unicode="!" horiz-adv-x="542" 
d="M180 1597h402l-234 -1130h-229zM389 342l-45 -342h-342l45 342h342z" />
    <glyph glyph-name="quotedbl" unicode="&#x22;" horiz-adv-x="913" 
d="M205 1597h317l-104 -661h-248zM610 1597h316l-138 -661h-247z" />
    <glyph glyph-name="numbersign" unicode="#" horiz-adv-x="1228" 
d="M786 1597l-124 -395h165l125 395h281l-125 -395h131l-37 -282h-182l-76 -242h135l-37 -283h-188l-123 -395h-280l122 395h-165l-123 -395h-281l123 395h-129l37 283h182l76 242h-135l37 282h186l125 395h280zM573 920l-75 -242h166l75 242h-166z" />
    <glyph glyph-name="dollar" unicode="$" horiz-adv-x="1228" 
d="M539 682q-224 41 -320 130t-76 257l4 35q22 184 167.5 288.5t371.5 104.5q47 0 70 -2l84 225h247l-104 -282q219 -108 180 -410l-4 -22h-321q37 225 -170 225h-11q-88 0 -138 -43t-50 -115q0 -62 51 -92.5t189 -52.5q209 -32 315.5 -126.5t87.5 -260.5l-4 -35
q-23 -195 -168 -298.5t-391 -103.5q-42 0 -60 2l-83 -229h-248l102 281q-119 55 -170 157.5t-27 245.5l3 14h325q-15 -96 33 -151t149 -55h11q94 0 145 40.5t51 114.5q0 68 -56.5 101t-184.5 57z" />
    <glyph glyph-name="percent" unicode="%" horiz-adv-x="2009" 
d="M1901 385l-3 -23q-8 -90 -48 -165t-98 -123t-126.5 -74.5t-136.5 -26.5q-188 0 -284 105.5t-81 279.5l2 23q8 90 48 165t98 123t127 74.5t137 26.5q188 0 284 -105.5t81 -279.5zM1661 360l2 23q6 64 -32 105.5t-97 41.5h-21q-58 0 -100.5 -39.5t-48.5 -107.5l-2 -23
q-6 -64 32 -105.5t97 -41.5h20q58 0 101 39.5t49 107.5zM356 1237l-2 -23q-6 -64 32 -105.5t97 -41.5h21q58 0 100.5 39.5t48.5 107.5l2 23q6 64 -32 105.5t-97 41.5h-20q-58 0 -101 -39.5t-49 -107.5zM117 1212l2 23q8 90 48 165t98 123t126.5 74.5t136.5 26.5
q86 0 174 -31q152 -55 363 -55q138 0 265 21.5t198 44.5l-21 -154l-794 -1450h-283l711 1296q-62 -16 -148 -16q-53 0 -98 6q0 -7 -1 -23t-1 -24l-2 -22q-8 -90 -48 -165t-98 -123.5t-127 -75t-137 -26.5q-188 0 -283.5 105.5t-80.5 279.5z" />
    <glyph glyph-name="ampersand" unicode="&#x26;" horiz-adv-x="1415" 
d="M418 -27q-224 0 -336.5 121.5t-87.5 329.5l4 35q18 149 90 247.5t188 161.5q-61 84 -86.5 170.5t-9.5 194.5l4 29q23 159 146 260.5t338 101.5q117 0 204 -31t134 -84t65 -119.5t6 -142.5l-4 -26q-10 -65 -36.5 -120.5t-57.5 -94t-81.5 -76t-90.5 -60.5t-102 -55
l206 -289q88 134 107 269l2 14h340q-52 -337 -260 -545l190 -264h-389l-57 76q-204 -103 -426 -103zM496 252h12q48 0 102 16.5t72 34.5l-250 350q-89 -76 -102 -178l-2 -16q-12 -100 30 -153.5t138 -53.5zM510 1245l-2 -16q-6 -51 9.5 -106t41.5 -93q47 27 72.5 43.5
t56 41.5t45.5 51.5t19 58.5l2 16q6 50 -21.5 83.5t-79.5 33.5h-12q-52 0 -88.5 -31.5t-42.5 -81.5z" />
    <glyph glyph-name="quotesingle" unicode="'" horiz-adv-x="542" 
d="M205 1597h350l-137 -661h-248z" />
    <glyph glyph-name="parenleft" unicode="(" horiz-adv-x="747" 
d="M74 709l6 59q58 550 422 952h332q-385 -456 -437 -952l-6 -59q-8 -103 -9 -188t12 -175.5t29 -164t42.5 -152.5t52 -142.5t57.5 -132.5h-327q-28 58 -48 104t-44 109.5t-39.5 120t-29.5 130t-19.5 146.5t-4.5 162t11 183z" />
    <glyph glyph-name="parenright" unicode=")" horiz-adv-x="747" 
d="M668 766l-6 -59q-58 -551 -422 -953h-332q383 455 436 953l6 59q8 103 9 188t-12 175.5t-29 163.5t-42.5 152t-52 142t-57.5 133h328q28 -58 48 -104t44 -109t39.5 -120t29.5 -130t19.5 -146t4.5 -162t-11 -183z" />
    <glyph glyph-name="asterisk" unicode="*" horiz-adv-x="845" 
d="M446 1638h183l-47 -274h-162zM76 1272l78 174l245 -96l-71 -154zM268 850l-133 106l199 215l119 -94zM866 1446l35 -174l-274 -76l-29 154zM758 956l-160 -106l-125 227l143 94z" />
    <glyph glyph-name="plus" unicode="+" horiz-adv-x="1228" 
d="M543 1327h286l-51 -385h385l-37 -287h-385l-51 -385h-287l52 385h-385l36 287h386z" />
    <glyph glyph-name="comma" unicode="," horiz-adv-x="544" 
d="M389 342l-35 -266q-48 -369 -399 -369l20 156q78 0 131 34.5t70 102.5h-174l45 342h342z" />
    <glyph glyph-name="hyphen" unicode="-" horiz-adv-x="722" 
d="M55 575l37 283h559l-37 -283h-559z" />
    <glyph glyph-name="period" unicode="." horiz-adv-x="544" 
d="M389 342l-45 -342h-342l45 342h342z" />
    <glyph glyph-name="slash" unicode="/" horiz-adv-x="847" 
d="M942 1720l-729 -1966h-313l729 1966h313z" />
    <glyph glyph-name="zero" unicode="0" horiz-adv-x="1228" 
d="M1184 1143l-90 -688q-33 -249 -162.5 -365.5t-394.5 -116.5q-263 0 -390.5 130t-97.5 352l90 688q33 248 162.5 364.5t394.5 116.5q263 0 390.5 -129.5t97.5 -351.5zM766 457l90 686q12 92 -30 143t-138 51h-8q-100 0 -150 -45.5t-63 -150.5l-90 -686q-12 -92 30 -143.5
t138 -51.5h8q100 0 150 46t63 151z" />
    <glyph glyph-name="one" unicode="1" horiz-adv-x="1228" 
d="M1049 0h-1029l37 287h351l118 905l-274 -168l-131 238l545 337h241l-172 -1312h352z" />
    <glyph glyph-name="two" unicode="2" horiz-adv-x="1228" 
d="M635 287h440l-37 -287h-1048l26 207l703 678q71 68 100.5 114t36.5 107l2 16q13 105 -30 160t-126 55h-20q-97 0 -151 -62t-74 -210h-328l6 45q36 260 172 387t389 127q140 0 244 -39.5t160.5 -105.5t79 -146t10.5 -168l-6 -45q-16 -121 -64.5 -198t-165.5 -189
l-465 -448z" />
    <glyph glyph-name="three" unicode="3" horiz-adv-x="1228" 
d="M373 512q-11 -61 -4.5 -105t19.5 -72.5t38.5 -45t52.5 -23t62 -6.5h20q85 0 144.5 48t72.5 149l2 16q24 199 -168 199h-217l37 286h213q91 0 147 47t66 138l2 16q10 80 -33.5 129t-119.5 49h-21q-95 0 -152.5 -63t-76.5 -209h-328l6 45q69 514 561 514q113 0 203.5 -25.5
t148 -68.5t94 -100.5t48 -119.5t2.5 -128l-6 -45q-17 -128 -82 -212t-166 -112q96 -29 142.5 -127.5t27.5 -232.5l-6 -45q-11 -81 -46 -154t-98 -138t-168 -104t-239 -39q-282 0 -413 132.5t-99 361.5l6 45h328z" />
    <glyph glyph-name="four" unicode="4" horiz-adv-x="1228" 
d="M899 0h-328l47 348h-620l31 238l770 1011h311l-127 -962h174l-39 -287h-172zM715 1075l-338 -444l106 4h172l43 319z" />
    <glyph glyph-name="five" unicode="5" horiz-adv-x="1228" 
d="M45 512h328q-11 -61 -4.5 -105t19.5 -72.5t38.5 -45t52.5 -23t62 -6.5h20q85 0 146 58t77 180l2 16q14 118 -40 178t-140 60h-20q-67 0 -130.5 -32t-101.5 -93l-270 96l154 874h999l-39 -286h-723l-63 -357q101 82 274 82q227 0 344 -143t86 -367l-6 -45
q-33 -240 -177.5 -374t-381.5 -134q-282 0 -413 132.5t-99 361.5z" />
    <glyph glyph-name="six" unicode="6" horiz-adv-x="1228" 
d="M1184 1624l-37 -291q-359 0 -545 -186q-95 -95 -137 -234q50 46 122.5 71.5t153.5 25.5q199 0 304.5 -132t74.5 -352l-6 -45q-33 -243 -175.5 -375.5t-389.5 -132.5q-141 0 -244.5 45t-162 126.5t-79 191t-2.5 242.5l7 45q64 469 313 718q161 161 352 222t451 61z
M387 600q-16 -77 -16 -117q0 -111 46 -167t122 -56h20q197 0 229 238l3 16q13 100 -36.5 153.5t-131.5 53.5h-21q-58 0 -116 -31.5t-99 -89.5z" />
    <glyph glyph-name="seven" unicode="7" horiz-adv-x="1228" 
d="M106 1024l76 573h1086l-27 -206l-747 -1391h-355l723 1315l-194 -4h-236l-37 -287h-289z" />
    <glyph glyph-name="eight" unicode="8" horiz-adv-x="1228" 
d="M541 -27q-135 0 -239.5 37t-165.5 100.5t-87.5 145t-13.5 172.5l6 45q36 261 268 340q-85 25 -136 123.5t-34 214.5l6 45q9 63 29.5 120t63 114.5t101.5 99.5t150 68t203 26q113 0 204 -25.5t149 -68.5t95 -100.5t49 -120t3 -127.5l-6 -45q-17 -128 -82 -212t-164 -112
q95 -29 141 -127.5t27 -232.5l-6 -45q-9 -63 -32 -122.5t-68.5 -117t-107 -100.5t-152.5 -69t-201 -26zM612 672h-28q-83 0 -143 -54t-72 -153l-2 -16q-12 -90 37.5 -139.5t136.5 -49.5h20q85 0 144.5 48t72.5 149l2 16q12 98 -32.5 148.5t-135.5 50.5zM707 1337h-21
q-92 0 -150.5 -48.5t-68.5 -137.5l-2 -16q-10 -80 37.5 -128.5t120.5 -48.5h22q91 0 147 47t66 138l2 16q10 80 -34.5 129t-118.5 49z" />
    <glyph glyph-name="nine" unicode="9" horiz-adv-x="1228" 
d="M53 -27l37 291q358 0 545 187q95 95 137 233q-104 -96 -276 -96q-200 0 -305 131.5t-74 351.5l6 45q33 243 175.5 375.5t389.5 132.5q141 0 244.5 -45t162 -126t79 -190.5t2.5 -242.5l-7 -45q-64 -470 -313 -719q-161 -161 -352 -222t-451 -61zM850 997q16 77 16 117
q0 111 -46 167t-122 56h-20q-197 0 -229 -237l-3 -17q-13 -100 36.5 -153t131.5 -53h21q58 0 116 31t99 89z" />
    <glyph glyph-name="colon" unicode=":" horiz-adv-x="544" 
d="M389 342l-45 -342h-342l45 342h342zM473 971l-45 -342h-342l45 342h342z" />
    <glyph glyph-name="semicolon" unicode=";" horiz-adv-x="544" 
d="M473 971l-45 -342h-342l45 342h342zM389 342l-35 -266q-48 -369 -399 -369l20 156q78 0 131 34.5t70 102.5h-174l45 342h342z" />
    <glyph glyph-name="less" unicode="&#x3c;" horiz-adv-x="1228" 
d="M109 956l1112 420l-41 -313l-736 -266l666 -267l-41 -309l-1001 420z" />
    <glyph glyph-name="equal" unicode="=" horiz-adv-x="1228" 
d="M98 879l37 286h1057l-37 -286h-1057zM41 432l37 287h1057l-37 -287h-1057z" />
    <glyph glyph-name="greater" unicode="&#x3e;" horiz-adv-x="1228" 
d="M1124 641l-1112 -420l41 314l735 266l-665 266l41 309l1001 -420z" />
    <glyph glyph-name="question" unicode="?" horiz-adv-x="1017" 
d="M594 1339q-84 0 -125.5 -64.5t-62.5 -217.5h-326l6 47q35 262 158 391t360 129q125 0 214 -26.5t136.5 -75.5t68.5 -108t21 -134q0 -86 -23 -159t-61 -126t-84 -101t-94.5 -93.5t-90.5 -92.5t-73.5 -109t-42.5 -132h-229q0 87 27 169.5t68 143t88.5 122.5t88.5 111
t68 105t27 107q0 114 -119 114zM616 342l-45 -342h-342l45 342h342z" />
    <glyph glyph-name="at" unicode="@" horiz-adv-x="2029" 
d="M950 -225h21q355 0 663 225l107 -168q-355 -268 -780 -268q-186 0 -344 43.5t-278 128.5t-198.5 205.5t-108.5 280.5t-5 347l10 78q25 191 92 350t165 274t225 195t274.5 119t310.5 39q161 0 300.5 -29.5t256 -93.5t195 -157.5t112.5 -227.5t12 -297l-10 -78
q-19 -144 -64 -253t-105.5 -177.5t-141.5 -111.5t-165 -59.5t-185 -16.5h-195l-6 121q-114 -148 -289 -148q-194 0 -277.5 129.5t-54.5 343.5l11 78q29 213 140.5 339t293.5 126q199 0 276 -147l33 120h250l-53 -280l-62 -473q119 0 193 36.5t120 126t66 246.5l10 78
q17 132 -12.5 236.5t-91 170.5t-152.5 109t-188 60.5t-207 17.5h-20q-345 0 -568.5 -194t-273.5 -572l-10 -78q-21 -153 2.5 -282.5t84.5 -223t153.5 -159t211 -97.5t256.5 -32zM1153 766q-19 37 -61 66.5t-105 29.5q-166 0 -194 -215l-11 -78q-14 -106 21.5 -164.5
t122.5 -58.5q59 0 106.5 29t77.5 67z" />
    <glyph glyph-name="A" unicode="A" horiz-adv-x="1312" 
d="M537 1602h456l191 -1602h-357l-30 344h-389l-123 -344h-357zM719 1231l-211 -600h262z" />
    <glyph glyph-name="B" unicode="B" horiz-adv-x="1292" 
d="M223 1597h529q81 0 148 -10.5t132 -40.5t106 -77.5t60.5 -127t5.5 -184.5l-6 -47q-15 -119 -63.5 -185.5t-141.5 -99.5q95 -32 137 -120t25 -220l-6 -47q-11 -82 -35.5 -147.5t-56.5 -110.5t-77.5 -78.5t-91.5 -52.5t-105 -30.5t-110.5 -15t-115.5 -3.5h-543zM659 672
h-227l-49 -385h219q43 0 75 6.5t63 23.5t51 52.5t26 87.5l4 30q13 98 -32.5 141.5t-129.5 43.5zM713 1311h-195l-47 -350h197q177 0 196 157l4 31q11 86 -34 124t-121 38z" />
    <glyph glyph-name="C" unicode="C" horiz-adv-x="1331" 
d="M424 834l-8 -68q-31 -252 11 -379t175 -127h21q60 0 103.5 13t70.5 34.5t46 60t28.5 78t17.5 99.5h334l-4 -31q-39 -286 -191.5 -413.5t-423.5 -127.5q-626 0 -526 793l8 65q52 414 214 603.5t460 189.5q309 0 437.5 -140t92.5 -427l-8 -66h-334q23 179 -17.5 262.5
t-168.5 83.5h-21q-256 0 -317 -503z" />
    <glyph glyph-name="D" unicode="D" horiz-adv-x="1357" 
d="M1286 831l-8 -65q-27 -214 -85 -360.5t-154.5 -236.5t-225 -129.5t-305.5 -39.5h-494l209 1597h467q235 0 375.5 -73.5t198 -244t22.5 -448.5zM383 287h129q204 0 299.5 110t128.5 369l8 65q31 249 -28.5 364.5t-245.5 115.5h-156z" />
    <glyph glyph-name="E" unicode="E" horiz-adv-x="1173" 
d="M223 1597h977l-37 -286h-645l-47 -353h543l-37 -286h-543l-51 -385h645l-37 -287h-977z" />
    <glyph glyph-name="F" unicode="F" horiz-adv-x="1124" 
d="M223 1597h969l-37 -286h-637l-47 -353h535l-37 -286h-535l-88 -672h-332z" />
    <glyph glyph-name="G" unicode="G" horiz-adv-x="1378" 
d="M643 -27q-120 0 -217 29t-172.5 89.5t-120.5 154.5t-61 223.5t6 296.5l8 65q52 413 218.5 603t465.5 190q311 0 443.5 -140.5t97.5 -426.5l-8 -66h-334q22 176 -23 261t-174 85h-20q-134 0 -216 -129.5t-112 -373.5l-8 -68q-61 -506 229 -506h21q142 0 217 55l35 263
h-211l36 286h543l-92 -706q-83 -76 -227 -130.5t-324 -54.5z" />
    <glyph glyph-name="H" unicode="H" horiz-adv-x="1357" 
d="M1020 1597h332l-209 -1597h-332l88 672h-465l-88 -672h-332l209 1597h332l-84 -639h465z" />
    <glyph glyph-name="I" unicode="I" horiz-adv-x="579" 
d="M565 1597l-209 -1597h-331l208 1597h332z" />
    <glyph glyph-name="J" unicode="J" horiz-adv-x="1099" 
d="M772 1597h332l-143 -1108q-35 -263 -156 -389.5t-361 -126.5q-259 0 -363.5 129t-72.5 377l8 66h316q-19 -154 5.5 -219.5t111.5 -65.5q88 0 126.5 55.5t57.5 200.5z" />
    <glyph glyph-name="K" unicode="K" horiz-adv-x="1280" 
d="M555 1597l-84 -616l475 616h404l-535 -641l326 -956h-367l-205 659l-166 -198l-57 -461h-332l209 1597h332z" />
    <glyph glyph-name="L" unicode="L" horiz-adv-x="1067" 
d="M936 0h-922l209 1597h332l-172 -1310h590z" />
    <glyph glyph-name="M" unicode="M" horiz-adv-x="1779" 
d="M1378 1022l-420 -1022h-337l-152 1022l-37 -363l-86 -659h-332l209 1597h484l145 -1022l414 1022h510l-209 -1597h-332l86 659z" />
    <glyph glyph-name="N" unicode="N" horiz-adv-x="1398" 
d="M223 1597h346l385 -991l35 332l86 659h318l-209 -1597h-346l-385 991l-35 -332l-86 -659h-318z" />
    <glyph glyph-name="O" unicode="O" horiz-adv-x="1378" 
d="M770 1624q318 0 453.5 -191t83.5 -602l-9 -65q-53 -418 -213 -605.5t-471 -187.5q-318 0 -453 191t-83 602l8 65q53 418 213 605.5t471 187.5zM612 260h21q146 0 220.5 125.5t107.5 380.5l8 65q20 162 13 274.5t-58.5 172t-151.5 59.5h-20q-146 0 -220.5 -125.5
t-107.5 -380.5l-8 -65q-20 -162 -13 -274.5t58 -172t151 -59.5z" />
    <glyph glyph-name="P" unicode="P" horiz-adv-x="1247" 
d="M422 573l-76 -573h-332l209 1597h539q541 0 477 -495l-6 -47q-12 -88 -38 -159t-60 -120.5t-80 -86.5t-93 -59t-105 -35t-109.5 -17.5t-112.5 -4.5h-213zM457 860h209q206 0 233 203l4 31q7 52 -1 91.5t-25.5 63t-44.5 38t-53 19.5t-56 5h-205z" />
    <glyph glyph-name="Q" unicode="Q" horiz-adv-x="1378" 
d="M770 1624q318 0 453.5 -191t83.5 -602l-9 -65q-39 -311 -136 -492.5t-265 -248.5l61 -230h-258l-45 178h-41q-318 0 -453 191t-83 602l8 65q53 418 213 605.5t471 187.5zM762 537l53 -201q103 108 146 430l8 65q20 162 13 274.5t-58.5 172t-151.5 59.5h-20
q-146 0 -220.5 -125.5t-107.5 -380.5l-8 -65q-19 -153 -14 -262t49 -171t131 -71l-70 275h250z" />
    <glyph glyph-name="R" unicode="R" horiz-adv-x="1275" 
d="M422 573l-76 -573h-332l209 1597h539q541 0 477 -495l-6 -47q-49 -346 -309 -441l170 -614h-349l-141 573h-182zM457 860h209q206 0 233 203l4 31q7 52 -1 91.5t-25.5 63t-44.5 38t-53 19.5t-56 5h-205z" />
    <glyph glyph-name="S" unicode="S" horiz-adv-x="1292" 
d="M571 670q-252 46 -360 164t-84 296l6 48q29 220 175 333t394 113q315 0 450 -138t99 -407l-6 -47h-332q21 158 -26 231.5t-182 73.5h-21q-86 0 -145 -42t-68 -115l-4 -31q-10 -77 46.5 -129t217.5 -82q248 -46 363 -164.5t90 -306.5l-6 -47q-29 -221 -180 -334t-406 -113
q-303 0 -448 134.5t-111 390.5l6 47h332q-21 -147 38 -216t181 -69h20q209 0 230 158l4 31q11 83 -49.5 136.5t-223.5 84.5z" />
    <glyph glyph-name="T" unicode="T" horiz-adv-x="1140" 
d="M807 1311l-172 -1311h-332l172 1311h-369l37 286h1071l-36 -286h-371z" />
    <glyph glyph-name="U" unicode="U" horiz-adv-x="1357" 
d="M600 -27q-318 0 -441.5 132.5t-88.5 400.5l143 1091h332l-142 -1081q-18 -133 26 -194.5t179 -61.5q137 0 200 61t81 195l141 1081h332l-143 -1091q-18 -136 -55.5 -230.5t-108 -165t-183 -104t-272.5 -33.5z" />
    <glyph glyph-name="V" unicode="V" horiz-adv-x="1312" 
d="M784 -4h-456l-191 1601h357l108 -1230l434 1230h357z" />
    <glyph glyph-name="W" unicode="W" horiz-adv-x="1918" 
d="M1083 -4l-57 1202l-358 -1202h-461l-60 1601h324l37 -1144l342 1144h436l55 -1146l326 1146h322l-478 -1601h-428z" />
    <glyph glyph-name="X" unicode="X" horiz-adv-x="1329" 
d="M-61 0l507 813l-299 784h383l177 -534l317 534h375l-508 -786l299 -811h-383l-176 532l-318 -532h-374z" />
    <glyph glyph-name="Y" unicode="Y" horiz-adv-x="1280" 
d="M770 489l-63 -489h-332l63 489l-313 1108h356l170 -702l353 702h368z" />
    <glyph glyph-name="Z" unicode="Z" horiz-adv-x="1226" 
d="M8 221l785 1096l-293 -6h-328l37 286h1022l-29 -221l-784 -1095l291 6h370l-37 -287h-1062z" />
    <glyph glyph-name="bracketleft" unicode="[" horiz-adv-x="747" 
d="M244 1720h561l-37 -282h-240l-184 -1401h240l-37 -283h-561z" />
    <glyph glyph-name="backslash" unicode="\" horiz-adv-x="843" 
d="M369 -246l-213 1966h315l213 -1966h-315z" />
    <glyph glyph-name="bracketright" unicode="]" horiz-adv-x="747" 
d="M496 -246h-562l37 283h240l184 1401h-239l37 282h561z" />
    <glyph glyph-name="asciicircum" unicode="^" horiz-adv-x="1228" 
d="M881 1597l280 -1056h-311l-166 692l-350 -692h-328l559 1056h316z" />
    <glyph glyph-name="underscore" unicode="_" horiz-adv-x="655" 
d="M-66 -379l37 283h484l-37 -283h-484z" />
    <glyph glyph-name="grave" unicode="`" horiz-adv-x="1024" 
d="M242 1597h352l137 -376h-319z" />
    <glyph glyph-name="a" unicode="a" horiz-adv-x="1124" 
d="M655 0v121q-78 -74 -154.5 -111t-183.5 -37q-89 0 -156 27t-104.5 73.5t-52.5 105t-6 124.5l4 31q10 71 34.5 123.5t58.5 87t88 59t109.5 38.5t135.5 26l266 41l2 16q9 74 -23.5 107.5t-111.5 33.5t-117 -38.5t-43 -100.5h-305l4 31q9 66 27 116.5t52.5 97t85.5 76
t129 47t179 17.5q252 0 360.5 -109t82.5 -305l-51 -393l-21 -305h-289zM426 236q135 0 219 98l25 182l-201 -31q-65 -10 -97.5 -42.5t-39.5 -75.5l-4 -27q-7 -46 16.5 -75t81.5 -29z" />
    <glyph glyph-name="b" unicode="b" horiz-adv-x="1175" 
d="M545 1638l-84 -639q98 113 280 113q203 0 292.5 -141t56.5 -389l-11 -78q-16 -120 -50.5 -215.5t-89.5 -167t-136.5 -110t-184.5 -38.5q-111 0 -186.5 43t-114.5 117l-36 -133h-291l57 307l174 1331h324zM543 252q182 0 213 252l10 78q17 124 -22 188t-130 64
q-48 0 -89 -19t-59 -37t-40 -45l-49 -375q20 -41 61 -73.5t105 -32.5z" />
    <glyph glyph-name="c" unicode="c" horiz-adv-x="1079" 
d="M360 582l-10 -78q-18 -126 16 -189t126 -63q74 0 120 42.5t54 106.5h305l-4 -30q-25 -192 -146 -295t-340 -103q-170 0 -280.5 69.5t-152.5 187.5t-21 274l10 78q34 251 166.5 390.5t374.5 139.5q237 0 347.5 -109t84.5 -309l-4 -30h-306q10 77 -22 123.5t-111 46.5
q-174 0 -207 -252z" />
    <glyph glyph-name="d" unicode="d" horiz-adv-x="1191" 
d="M389 -27q-203 0 -292 141.5t-56 389.5l10 78q16 120 50.5 215t89.5 166.5t136.5 110t184.5 38.5q104 0 175 -37t101 -84l86 647h324l-176 -1333l-21 -305h-288v143q-104 -170 -324 -170zM588 834q-182 0 -213 -252l-10 -78q-17 -124 21.5 -188t129.5 -64q110 0 189 100
l49 375q-20 41 -61 74t-105 33z" />
    <glyph glyph-name="e" unicode="e" horiz-adv-x="1138" 
d="M1032 426h-698q-25 -207 182 -207q182 0 201 129h305l-4 -31q-21 -154 -149.5 -249t-352.5 -95q-141 0 -244 40t-160.5 111.5t-79 167.5t-5.5 212l10 78q12 93 39 172t73 145.5t107.5 113.5t146 73t185.5 26q139 0 237.5 -44t149 -122t69.5 -186.5t0 -237.5zM588 866
q-89 0 -147 -52t-76 -155h374q15 207 -151 207z" />
    <glyph glyph-name="f" unicode="f" horiz-adv-x="841" 
d="M590 1241l-21 -156h238l-37 -282h-238l-104 -803h-324l105 803h-168l37 282h168l24 191q51 389 451 389q117 0 178 -27l-35 -266q-35 14 -102 14q-75 0 -118 -30t-54 -115z" />
    <glyph glyph-name="g" unicode="g" horiz-adv-x="1175" 
d="M645 14l19 138q-98 -113 -281 -113q-201 0 -291.5 136.5t-60.5 361.5l10 77q14 108 48 196.5t88.5 157t136.5 106.5t184 38q111 0 186.5 -43t114.5 -117l37 133h290l-57 -307l-102 -778q-29 -216 -165.5 -326t-355.5 -110q-143 0 -243 31.5t-151.5 88t-69 127.5t-5.5 158
l5 31h305q-11 -89 20.5 -131.5t134.5 -42.5q91 0 140.5 44t62.5 144zM698 418l41 309q-20 41 -61 74t-105 33q-92 0 -143.5 -58.5t-64.5 -161.5l-11 -77q-14 -101 26 -160.5t128 -59.5q49 0 90 19t59.5 37t40.5 45z" />
    <glyph glyph-name="h" unicode="h" horiz-adv-x="1187" 
d="M10 0l215 1638h324l-86 -651q135 125 305 125q186 0 263 -103t54 -276l-96 -733h-323l90 686q19 148 -121 148q-63 0 -118 -31t-87 -70l-96 -733h-324z" />
    <glyph glyph-name="i" unicode="i" horiz-adv-x="544" 
d="M10 0l142 1085h323l-141 -1085h-324zM549 1581l-45 -342h-342l45 342h342z" />
    <glyph glyph-name="j" unicode="j" horiz-adv-x="548" 
d="M549 1581l-45 -342h-342l45 342h342zM8 -12l144 1097h323l-147 -1132q-51 -389 -451 -389q-119 0 -178 26l35 267q38 -15 102 -15q75 0 118 30.5t54 115.5z" />
    <glyph glyph-name="k" unicode="k" horiz-adv-x="1150" 
d="M2 0l215 1638h324l-121 -917l346 364h389l-414 -411l273 -674h-365l-157 426l-127 -127l-39 -299h-324z" />
    <glyph glyph-name="l" unicode="l" horiz-adv-x="544" 
d="M10 0l215 1638h324l-215 -1638h-324z" />
    <glyph glyph-name="m" unicode="m" horiz-adv-x="1767" 
d="M1049 750l-99 -750h-323l92 702q8 64 -22 98t-95 34q-54 0 -98.5 -25t-71.5 -59l-98 -750h-324l103 780l20 305h289v-122q119 149 319 149q107 0 179 -44t106 -120q65 85 145 124.5t187 39.5q168 0 248 -103t59 -259l-98 -750h-324l92 702q8 64 -21.5 98t-94.5 34
q-54 0 -98.5 -25t-71.5 -59z" />
    <glyph glyph-name="n" unicode="n" horiz-adv-x="1187" 
d="M989 0h-323l90 686q19 148 -121 148q-63 0 -118 -31t-87 -70l-96 -733h-324l103 780l20 305h289v-143q65 78 154 124t192 46q186 0 263 -103t54 -276z" />
    <glyph glyph-name="o" unicode="o" horiz-adv-x="1138" 
d="M506 252q91 0 143.5 61t69.5 191l10 78q35 252 -156 252q-91 0 -143.5 -61t-69.5 -191l-10 -78q-35 -252 156 -252zM496 -27q-174 0 -288.5 69.5t-158 187.5t-22.5 274l10 78q32 251 165.5 390.5t381.5 139.5q131 0 229.5 -39.5t155 -110.5t78.5 -167.5t6 -212.5l-11 -78
q-72 -531 -546 -531z" />
    <glyph glyph-name="p" unicode="p" horiz-adv-x="1175" 
d="M274 -410h-323l158 1190l20 305h289v-143q104 170 323 170q203 0 292.5 -141t56.5 -389l-11 -78q-16 -120 -50.5 -215.5t-89.5 -167t-136.5 -110t-184.5 -38.5q-104 0 -175 37t-101 84zM543 252q182 0 213 252l10 78q17 124 -22 188t-130 64q-48 0 -89 -19t-59 -37
t-40 -45l-49 -375q20 -41 61 -73.5t105 -32.5z" />
    <glyph glyph-name="q" unicode="q" horiz-adv-x="1189" 
d="M918 -410h-324l65 496q-98 -113 -280 -113q-203 0 -292 141.5t-56 389.5l10 78q16 120 50.5 215t89.5 166.5t136.5 110t184.5 38.5q111 0 186.5 -43t114.5 -117l37 133h290l-57 -307zM578 834q-182 0 -213 -252l-11 -78q-17 -124 22 -188t130 -64q48 0 88.5 18.5
t59.5 36.5t40 45l49 375q-20 42 -60.5 74.5t-104.5 32.5z" />
    <glyph glyph-name="r" unicode="r" horiz-adv-x="788" 
d="M737 1112l29 -2l-43 -332h-27q-102 0 -170.5 -26t-101.5 -66l-90 -686h-324l103 780l20 305h289v-143q114 170 315 170z" />
    <glyph glyph-name="s" unicode="s" horiz-adv-x="1081" 
d="M547 664q81 -9 142.5 -23.5t117.5 -40.5t90 -62t49.5 -91t5.5 -125l-4 -31q-21 -150 -143.5 -234t-335.5 -84q-251 0 -365 88.5t-92 251.5l4 31h322q-9 -59 26 -92t115 -33q78 0 114 32t36 87q0 44 -33 66.5t-115 31.5q-222 26 -320 104t-77 232l4 31q14 105 80.5 176
t164.5 102t224 31q245 0 353.5 -91t84.5 -261l-4 -31h-317q9 68 -19.5 102.5t-107.5 34.5q-68 0 -108 -30t-40 -82q0 -41 33 -62t115 -28z" />
    <glyph glyph-name="t" unicode="t" horiz-adv-x="882" 
d="M569 1085h279l-37 -282h-279l-53 -404q-10 -76 19 -111.5t118 -35.5q27 0 61.5 4.5t43.5 9.5l-35 -266q-54 -27 -154 -27q-119 0 -201 28t-123.5 80.5t-55 119t-2.5 151.5l59 451h-168l37 282h168l41 308h323z" />
    <glyph glyph-name="u" unicode="u" horiz-adv-x="1187" 
d="M139 1085h324l-90 -686q-19 -147 121 -147q63 0 118 30.5t86 69.5l97 733h323l-102 -780l-21 -305h-288v143q-65 -77 -154.5 -123.5t-192.5 -46.5q-186 0 -263 103t-54 276z" />
    <glyph glyph-name="v" unicode="v" horiz-adv-x="1124" 
d="M236 0l-175 1085h326l100 -825l316 825h344l-459 -1085h-452z" />
    <glyph glyph-name="w" unicode="w" horiz-adv-x="1568" 
d="M782 748l-247 -748h-416l-39 1085h307l-4 -735l246 735h393l57 -735l178 735h314l-326 -1085h-407z" />
    <glyph glyph-name="x" unicode="x" horiz-adv-x="1142" 
d="M76 1085h375l122 -340l207 340h371l-346 -538l205 -547h-375l-115 352l-215 -352h-371l365 559z" />
    <glyph glyph-name="y" unicode="y" horiz-adv-x="1128" 
d="M514 393l293 692h358l-518 -1028l-201 -467h-385l236 467l-246 1028h346z" />
    <glyph glyph-name="z" unicode="z" horiz-adv-x="1021" 
d="M-25 221l549 588l-227 -6h-225l37 282h882l-28 -221l-549 -588l227 7h266l-37 -283h-923z" />
    <glyph glyph-name="braceleft" unicode="{" horiz-adv-x="747" 
d="M805 1720l-37 -282q-79 0 -122 -34.5t-54 -121.5l-41 -307q-12 -94 -50.5 -148.5t-111.5 -89.5q63 -35 87.5 -89t12.5 -148l-38 -289q-13 -98 19 -136t114 -38l-37 -283h-55q-93 0 -164 18t-125 58.5t-76.5 113.5t-9.5 175l43 325q10 81 -23.5 116.5t-109.5 35.5l36 283
q80 0 122.5 38.5t54.5 129.5l41 309q13 100 52 171.5t101 113t139.5 60.5t176.5 19h55z" />
    <glyph glyph-name="bar" unicode="|" horiz-adv-x="534" 
d="M-23 -246l259 1966h315l-258 -1966h-316z" />
    <glyph glyph-name="braceright" unicode="}" horiz-adv-x="747" 
d="M-66 -246l37 283q79 0 122 34.5t54 121.5l41 307q12 94 50.5 148t111.5 89q-63 35 -87.5 89.5t-12.5 148.5l39 289q13 98 -19 136t-114 38l37 282h55q93 0 164 -18t125 -58t76.5 -113t9.5 -175l-43 -326q-10 -81 23.5 -116t109.5 -35l-37 -283q-80 0 -122 -38t-54 -130
l-41 -309q-13 -100 -52 -171.5t-101 -113.5t-139.5 -61t-176.5 -19h-56z" />
    <glyph glyph-name="asciitilde" unicode="~" horiz-adv-x="1228" 
d="M393 987q72 0 140.5 -21t112 -45.5t96.5 -45.5t98 -21q49 0 92.5 18t65 36t46.5 44l132 -151q-126 -195 -332 -195q-72 0 -140.5 21t-112.5 45.5t-98 45.5t-100 21q-47 0 -89.5 -18t-64 -36t-46.5 -44l-132 152q126 194 332 194z" />
    <glyph glyph-name="nbspace" unicode="&#xa0;" horiz-adv-x="409" 
 />
    <glyph glyph-name="exclamdown" unicode="&#xa1;" horiz-adv-x="542" 
d="M317 -410h-401l221 1028h230zM96 743l45 342h342l-45 -342h-342z" />
    <glyph glyph-name="cent" unicode="&#xa2;" horiz-adv-x="1228" 
d="M393 -123h-248l111 305q-235 147 -178 578l10 78q44 339 194.5 499t422.5 160q26 0 40 -2l82 225h248l-100 -274q118 -53 173 -161t34 -269l-8 -62h-320q44 260 -170 260q-219 0 -268 -376l-8 -62q-25 -194 18.5 -291.5t167.5 -97.5q189 0 215 215h317l-4 -27
q-34 -227 -170.5 -349t-373.5 -122q-21 0 -99 5z" />
    <glyph glyph-name="sterling" unicode="&#xa3;" horiz-adv-x="1228" 
d="M727 1339q-48 0 -81.5 -19.5t-51 -58t-24.5 -85t-7 -109.5q0 -83 15 -178h362l-39 -281h-287q16 -191 9 -323h454l-39 -285h-1048l39 285h311q-2 140 -39 323h-231l39 281h137q-13 111 -13 162q0 69 9 132t29.5 130t58.5 121t92 98t134.5 68t180.5 24q266 0 374.5 -132.5
t70.5 -408.5l-8 -59h-326q43 315 -121 315z" />
    <glyph glyph-name="yen" unicode="&#xa5;" horiz-adv-x="1228" 
d="M76 700l37 283h186l-176 614h364l146 -684l325 684h365l-338 -614h189l-37 -283h-308l-69 -127h358l-37 -282h-364l-37 -291h-332l37 291h-365l37 282h359l-37 127h-303z" />
    <glyph glyph-name="brokenbar" unicode="&#xa6;" horiz-adv-x="534" 
d="M113 786l123 934h315l-123 -934h-315zM-23 -246l123 934h316l-123 -934h-316z" />
    <glyph glyph-name="section" unicode="&#xa7;" horiz-adv-x="1124" 
d="M250 1053q-75 78 -57 217l4 30q15 108 85 183t168.5 108t219.5 33q248 0 355.5 -93t84.5 -259l-4 -31h-313q8 65 -26.5 102t-107.5 37q-143 0 -143 -120q0 -86 154 -103q222 -26 320 -104t77 -232l-4 -30q-12 -92 -56.5 -151t-125.5 -95q75 -78 57 -217l-4 -31
q-15 -108 -85 -183t-168.5 -108t-219.5 -33q-248 0 -356 93.5t-85 259.5l5 30h313q-8 -65 26.5 -102t106.5 -37q143 0 143 121q0 85 -153 102q-222 26 -320.5 104t-77.5 232l5 31q12 92 56.5 151t125.5 95zM547 666h18q87 0 132.5 43t45.5 108q0 55 -40.5 85t-118.5 30h-19
q-86 0 -132 -43t-46 -109q0 -55 40.5 -84.5t119.5 -29.5z" />
    <glyph glyph-name="dieresis" unicode="&#xa8;" horiz-adv-x="1024" 
d="M569 1581l-45 -342h-342l45 342h342zM1010 1581l-45 -342h-342l45 342h342z" />
    <glyph glyph-name="copyright" unicode="&#xa9;" horiz-adv-x="1884" 
d="M117 799q0 168 65 321t175.5 263.5t263.5 175.5t321 65t321 -65t263.5 -175.5t175.5 -263.5t65 -321t-65 -321t-175.5 -263.5t-263.5 -176t-321 -65.5t-321 65.5t-263.5 176t-175.5 263.5t-65 321zM231 799q0 -145 56.5 -276.5t151.5 -226.5t226.5 -151.5t276.5 -56.5
t276.5 56.5t226.5 151.5t151.5 226.5t56.5 276.5q0 193 -95 356.5t-259 258.5t-357 95t-357 -95t-259 -258.5t-95 -356.5zM948 541q70 0 107 36t37 93h272v-41q0 -152 -108 -246t-314 -94q-114 0 -200.5 36t-138.5 101t-77.5 149.5t-25.5 188.5v70q0 104 25.5 188.5
t77.5 149.5t138.5 101t200.5 36q207 0 314.5 -97.5t107.5 -259.5v-43h-272q0 70 -36.5 109t-107.5 39q-160 0 -160 -223v-70q0 -223 160 -223z" />
    <glyph glyph-name="ordfeminine" unicode="&#xaa;" horiz-adv-x="878" 
d="M573 793v86q-89 -107 -249 -107q-140 0 -198 72t-38 178l4 22q23 125 100.5 179t233.5 77l176 27q0 46 -16.5 66t-63.5 20q-87 0 -94 -78h-266l2 19q13 121 102.5 195.5t270.5 74.5q108 0 181.5 -22.5t111.5 -65t50.5 -97.5t2.5 -126l-39 -291l-15 -229h-256zM768 371
h-741l32 243h742zM446 997q54 0 119 45l17 125l-117 -18q-78 -11 -88 -74l-2 -12q-5 -29 12 -47.5t59 -18.5z" />
    <glyph glyph-name="guillemotleft" unicode="&#xab;" horiz-adv-x="1157" 
d="M596 1153l-39 -295l-246 -172l201 -172l-37 -274l-403 301l41 311zM1108 1153l-39 -295l-246 -172l201 -172l-37 -274l-403 301l41 311z" />
    <glyph glyph-name="logicalnot" unicode="&#xac;" horiz-adv-x="1228" 
d="M137 1180h1057l-104 -783h-285l65 496h-770z" />
    <glyph glyph-name="uni00AD" unicode="&#xad;" horiz-adv-x="722" 
d="M55 575l37 283h559l-37 -283h-559z" />
    <glyph glyph-name="registered" unicode="&#xae;" horiz-adv-x="675" 
d="M35 1362q0 126 88.5 214.5t214.5 88.5t214.5 -88.5t88.5 -214.5t-88.5 -214.5t-214.5 -88.5t-214.5 88.5t-88.5 214.5zM84 1362q0 -106 74 -180t180 -74t180 74t74 180t-74 180t-180 74t-180 -74t-74 -180zM494 1411q0 -79 -58 -104l58 -121h-117l-43 108h-39v-108h-113
v352h187q53 0 89 -27t36 -90v-10zM381 1419q0 35 -37 35h-49v-76h49q37 0 37 35v6z" />
    <glyph glyph-name="macron" unicode="&#xaf;" horiz-adv-x="1024" 
d="M270 1268l37 282h615l-37 -282h-615z" />
    <glyph glyph-name="degree" unicode="&#xb0;" horiz-adv-x="819" 
d="M502 1624q151 0 237.5 -85t73.5 -236l-2 -23q-13 -150 -114.5 -238t-241.5 -88q-151 0 -238 85.5t-74 236.5l2 22q13 150 115 238t242 88zM612 1278l2 22q5 52 -25.5 89.5t-88.5 37.5h-21q-56 0 -93 -36t-42 -91l-2 -22q-5 -52 26 -89.5t89 -37.5h20q56 0 93 36t42 91z
" />
    <glyph glyph-name="plusminus" unicode="&#xb1;" horiz-adv-x="1228" 
d="M741 649h-286l28 221h-385l37 287h385l29 221h287l-29 -221h385l-37 -287h-385zM23 279l36 286h1057l-37 -286h-1056z" />
    <glyph glyph-name="twosuperior" unicode="&#xb2;" 
d="M625 1010l-27 -211h-557l20 159l324 310q34 34 39 63l4 31q6 49 -27 49h-4q-19 0 -29 -18t-14 -62h-245l2 19q30 274 301 274q79 0 136.5 -25t85 -63.5t38.5 -77.5t6 -74l-4 -30q-8 -61 -36 -104t-85 -99l-150 -141h222z" />
    <glyph glyph-name="threesuperior" unicode="&#xb3;" 
d="M305 1055q-13 -70 29 -70h4q35 0 43 57l2 15q6 51 -35 51h-98l24 197h97q20 0 30 9.5t13 33.5l2 14q6 49 -27 49h-4q-19 0 -29 -18t-14 -62h-246l2 19q30 274 301 274q79 0 137 -25t85.5 -63.5t38.5 -77.5t6 -74l-4 -30q-15 -113 -125 -148q47 -18 72 -63.5t16 -108.5
l-4 -30q-15 -111 -95 -171.5t-202 -60.5q-131 0 -205.5 72t-61.5 192l2 19h246z" />
    <glyph glyph-name="acute" unicode="&#xb4;" horiz-adv-x="1024" 
d="M647 1597h352l-268 -376h-319z" />
    <glyph glyph-name="paragraph" unicode="&#xb6;" horiz-adv-x="1124" 
d="M580 0l73 573h-88q-541 0 -477 496l6 47q11 87 37 158t60 120.5t80 86.5t93.5 58.5t105.5 35t109.5 18t112.5 4.5h428l-209 -1597h-331z" />
    <glyph glyph-name="periodcentered" unicode="&#xb7;" horiz-adv-x="544" 
d="M461 889l-45 -342h-342l45 342h342z" />
    <glyph glyph-name="cedilla" unicode="&#xb8;" horiz-adv-x="1232" 
d="M141 -389l66 135q54 -35 151 -35q95 0 95 51q0 43 -93 43q-16 0 -36 -2.5t-32 -4.5l-11 -3l-23 58l80 147h147l-43 -82q185 -14 185 -160q0 -91 -70.5 -144.5t-187.5 -53.5q-153 0 -228 51z" />
    <glyph glyph-name="onesuperior" unicode="&#xb9;" 
d="M598 799h-539l27 211h147l39 290l-77 -47l-99 174l279 175h182l-78 -592h146z" />
    <glyph glyph-name="ordmasculine" unicode="&#xba;" horiz-adv-x="907" 
d="M471 770q-181 0 -281 110t-75 289l8 60q25 184 134.5 291.5t287.5 107.5q181 0 281 -110t75 -289l-8 -60q-25 -184 -134.5 -291.5t-287.5 -107.5zM612 1169l9 60q21 155 -99 155q-99 0 -119 -155l-8 -60q-21 -155 99 -155q98 0 118 155zM772 371h-745l32 243h746z" />
    <glyph glyph-name="guillemotright" unicode="&#xbb;" horiz-adv-x="1157" 
d="M543 240l39 295l245 172l-200 172l37 274l403 -301l-41 -311zM31 240l39 295l245 172l-200 172l37 274l403 -301l-41 -311z" />
    <glyph glyph-name="onequarter" unicode="&#xbc;" horiz-adv-x="1638" 
d="M598 799h-539l27 211h147l39 290l-77 -47l-99 174l279 175h182l-78 -592h146zM266 0h-274l1388 1597h275zM1450 0h-246l19 139h-269l25 199l342 461h233l-59 -449h66l-27 -211h-66zM1268 481l-94 -131h75z" />
    <glyph glyph-name="onehalf" unicode="&#xbd;" horiz-adv-x="1638" 
d="M598 799h-539l27 211h147l39 290l-77 -47l-99 174l279 175h182l-78 -592h146zM266 0h-274l1388 1597h275zM1544 211l-26 -211h-557l20 160l324 309q33 33 38 63l5 31q6 49 -27 49h-4q-19 0 -29 -18t-14 -62h-246l2 19q30 274 301 274q64 0 114 -16.5t79.5 -42.5t48 -59
t23.5 -63t1 -58l-4 -31q-8 -62 -35.5 -105t-84.5 -98l-150 -141h221z" />
    <glyph glyph-name="threequarters" unicode="&#xbe;" horiz-adv-x="1638" 
d="M305 1055q-13 -70 29 -70h4q35 0 43 57l2 15q6 51 -35 51h-98l24 197h97q20 0 30 9.5t13 33.5l2 14q6 49 -27 49h-4q-19 0 -29 -18t-14 -62h-246l2 19q30 274 301 274q79 0 137 -25t85.5 -63.5t38.5 -77.5t6 -74l-4 -30q-15 -113 -125 -148q47 -18 72 -63.5t16 -108.5
l-4 -30q-15 -111 -95 -171.5t-202 -60.5q-131 0 -205.5 72t-61.5 192l2 19h246zM266 0h-274l1388 1597h275zM1450 0h-246l19 139h-269l25 199l342 461h233l-59 -449h66l-27 -211h-66zM1268 481l-94 -131h75z" />
    <glyph glyph-name="questiondown" unicode="&#xbf;" horiz-adv-x="1017" 
d="M373 -152q84 0 126 61.5t62 213.5h326l-6 -47q-34 -261 -157.5 -386.5t-361.5 -125.5q-436 0 -436 338q0 88 22.5 158t59 117t81.5 86t92 74.5t87.5 72.5t71.5 90t41 118h229q0 -70 -19.5 -133.5t-50.5 -112t-68.5 -93.5t-75 -84t-68.5 -76t-50.5 -78.5t-19.5 -83.5
q0 -109 115 -109zM340 743l45 342h342l-45 -342h-342z" />
    <glyph glyph-name="Agrave" unicode="&#xc0;" horiz-adv-x="1312" 
d="M520 1946h338l82 -226h-319zM537 1602h456l191 -1602h-357l-30 344h-389l-123 -344h-357zM719 1231l-211 -600h262z" />
    <glyph glyph-name="Aacute" unicode="&#xc1;" horiz-adv-x="1312" 
d="M764 1946h338l-162 -226h-319zM537 1602h456l191 -1602h-357l-30 344h-389l-123 -344h-357zM719 1231l-211 -600h262z" />
    <glyph glyph-name="Acircumflex" unicode="&#xc2;" horiz-adv-x="1312" 
d="M1198 1720h-285l-116 103l-138 -103h-297l285 226h328zM537 1602h456l191 -1602h-357l-30 344h-389l-123 -344h-357zM719 1231l-211 -600h262z" />
    <glyph glyph-name="Atilde" unicode="&#xc3;" horiz-adv-x="1312" 
d="M1014 1939h174q-13 -126 -77.5 -184.5t-156.5 -58.5q-56 0 -115 24.5t-108 49t-80 24.5q-71 0 -76 -68h-174q13 126 77.5 185t156.5 59q56 0 115 -24.5t108 -49t80 -24.5q71 0 76 67zM537 1602h456l191 -1602h-357l-30 344h-389l-123 -344h-357zM719 1231l-211 -600h262z
" />
    <glyph glyph-name="Adieresis" unicode="&#xc4;" horiz-adv-x="1312" 
d="M766 1935l-27 -204h-272l27 204h272zM1124 1935l-26 -204h-273l27 204h272zM537 1602h456l191 -1602h-357l-30 344h-389l-123 -344h-357zM719 1231l-211 -600h262z" />
    <glyph glyph-name="Aring" unicode="&#xc5;" horiz-adv-x="1312" 
d="M537 1602h79q-51 51 -51 131q0 102 70.5 170.5t169.5 68.5q85 0 140.5 -54t55.5 -136q0 -109 -81 -180h73l191 -1602h-357l-30 344h-389l-123 -344h-357zM719 1231l-211 -600h262zM889 1767q0 41 -27 68t-67 27q-50 0 -83.5 -32.5t-33.5 -82.5q0 -41 27 -67.5t67 -26.5
q50 0 83.5 32t33.5 82z" />
    <glyph glyph-name="AE" unicode="&#xc6;" horiz-adv-x="1812" 
d="M682 1597h1157l-37 -286h-663l2 -353h512l-37 -286h-473l2 -385h522l-37 -287h-835l6 344h-373l-156 -344h-356zM819 1221l-262 -590h250z" />
    <glyph glyph-name="Ccedilla" unicode="&#xc7;" horiz-adv-x="1331" 
d="M424 834l-8 -68q-31 -252 11 -379t175 -127h21q60 0 103.5 13t70.5 34.5t46 60t28.5 78t17.5 99.5h334l-4 -31q-37 -272 -176.5 -400t-383.5 -139l-28 -57q184 -14 184 -160q0 -91 -70.5 -144.5t-187.5 -53.5q-152 0 -227 51l65 135q54 -35 152 -35q94 0 94 51
q0 43 -92 43q-16 0 -36 -2.5t-32 -4.5l-12 -3l-23 58l68 124q-530 55 -436 789l8 65q52 414 214 603.5t460 189.5q309 0 437.5 -140t92.5 -427l-8 -66h-334q23 179 -17.5 262.5t-168.5 83.5h-21q-256 0 -317 -503z" />
    <glyph glyph-name="Egrave" unicode="&#xc8;" horiz-adv-x="1173" 
d="M471 1946h338l82 -226h-320zM223 1597h977l-37 -286h-645l-47 -353h543l-37 -286h-543l-51 -385h645l-37 -287h-977z" />
    <glyph glyph-name="Eacute" unicode="&#xc9;" horiz-adv-x="1173" 
d="M715 1946h338l-162 -226h-320zM223 1597h977l-37 -286h-645l-47 -353h543l-37 -286h-543l-51 -385h645l-37 -287h-977z" />
    <glyph glyph-name="Ecircumflex" unicode="&#xca;" horiz-adv-x="1173" 
d="M1149 1720h-285l-116 103l-138 -103h-297l285 226h328zM223 1597h977l-37 -286h-645l-47 -353h543l-37 -286h-543l-51 -385h645l-37 -287h-977z" />
    <glyph glyph-name="Edieresis" unicode="&#xcb;" horiz-adv-x="1173" 
d="M717 1935l-27 -204h-272l26 204h273zM1075 1935l-26 -204h-273l27 204h272zM223 1597h977l-37 -286h-645l-47 -353h543l-37 -286h-543l-51 -385h645l-37 -287h-977z" />
    <glyph glyph-name="Igrave" unicode="&#xcc;" horiz-adv-x="579" 
d="M156 1946h338l81 -226h-319zM565 1597l-209 -1597h-331l208 1597h332z" />
    <glyph glyph-name="Iacute" unicode="&#xcd;" horiz-adv-x="579" 
d="M399 1946h338l-162 -226h-319zM565 1597l-209 -1597h-331l208 1597h332z" />
    <glyph glyph-name="Icircumflex" unicode="&#xce;" horiz-adv-x="579" 
d="M834 1720h-285l-117 103l-137 -103h-297l285 226h327zM565 1597l-209 -1597h-331l208 1597h332z" />
    <glyph glyph-name="Idieresis" unicode="&#xcf;" horiz-adv-x="579" 
d="M401 1935l-26 -204h-273l27 204h272zM760 1935l-27 -204h-272l26 204h273zM565 1597l-209 -1597h-331l208 1597h332z" />
    <glyph glyph-name="Eth" unicode="&#xd0;" horiz-adv-x="1480" 
d="M1409 831l-8 -65q-27 -214 -85 -360.5t-154.5 -236.5t-225 -129.5t-305.5 -39.5h-494l90 692h-213l33 248h213l86 657h467q235 0 375.5 -73.5t198 -244t22.5 -448.5zM506 287h129q204 0 299.5 110t128.5 369l8 65q31 249 -28.5 364.5t-245.5 115.5h-156l-49 -371h338
l-33 -248h-338z" />
    <glyph glyph-name="Ntilde" unicode="&#xd1;" horiz-adv-x="1398" 
d="M1063 1939h174q-13 -126 -77 -184.5t-156 -58.5q-56 0 -115.5 24.5t-108.5 49t-80 24.5q-70 0 -75 -68h-174q13 126 77 185t156 59q56 0 115 -24.5t108 -49t80 -24.5q71 0 76 67zM223 1597h346l385 -991l35 332l86 659h318l-209 -1597h-346l-385 991l-35 -332l-86 -659
h-318z" />
    <glyph glyph-name="Ograve" unicode="&#xd2;" horiz-adv-x="1378" 
d="M553 1946h338l82 -226h-320zM770 1624q318 0 453.5 -191t83.5 -602l-9 -65q-53 -418 -213 -605.5t-471 -187.5q-318 0 -453 191t-83 602l8 65q53 418 213 605.5t471 187.5zM612 260h21q146 0 220.5 125.5t107.5 380.5l8 65q20 162 13 274.5t-58.5 172t-151.5 59.5h-20
q-146 0 -220.5 -125.5t-107.5 -380.5l-8 -65q-20 -162 -13 -274.5t58 -172t151 -59.5z" />
    <glyph glyph-name="Oacute" unicode="&#xd3;" horiz-adv-x="1378" 
d="M797 1946h338l-162 -226h-320zM770 1624q318 0 453.5 -191t83.5 -602l-9 -65q-53 -418 -213 -605.5t-471 -187.5q-318 0 -453 191t-83 602l8 65q53 418 213 605.5t471 187.5zM612 260h21q146 0 220.5 125.5t107.5 380.5l8 65q20 162 13 274.5t-58.5 172t-151.5 59.5h-20
q-146 0 -220.5 -125.5t-107.5 -380.5l-8 -65q-20 -162 -13 -274.5t58 -172t151 -59.5z" />
    <glyph glyph-name="Ocircumflex" unicode="&#xd4;" horiz-adv-x="1378" 
d="M1231 1720h-285l-117 103l-137 -103h-297l285 226h328zM770 1624q318 0 453.5 -191t83.5 -602l-9 -65q-53 -418 -213 -605.5t-471 -187.5q-318 0 -453 191t-83 602l8 65q53 418 213 605.5t471 187.5zM612 260h21q146 0 220.5 125.5t107.5 380.5l8 65q20 162 13 274.5
t-58.5 172t-151.5 59.5h-20q-146 0 -220.5 -125.5t-107.5 -380.5l-8 -65q-20 -162 -13 -274.5t58 -172t151 -59.5z" />
    <glyph glyph-name="Otilde" unicode="&#xd5;" horiz-adv-x="1378" 
d="M1047 1939h174q-13 -126 -77.5 -184.5t-156.5 -58.5q-56 0 -115 24.5t-108 49t-80 24.5q-71 0 -76 -68h-174q13 126 77.5 185t156.5 59q56 0 115 -24.5t108 -49t80 -24.5q71 0 76 67zM770 1624q318 0 453.5 -191t83.5 -602l-9 -65q-53 -418 -213 -605.5t-471 -187.5
q-318 0 -453 191t-83 602l8 65q53 418 213 605.5t471 187.5zM612 260h21q146 0 220.5 125.5t107.5 380.5l8 65q20 162 13 274.5t-58.5 172t-151.5 59.5h-20q-146 0 -220.5 -125.5t-107.5 -380.5l-8 -65q-20 -162 -13 -274.5t58 -172t151 -59.5z" />
    <glyph glyph-name="Odieresis" unicode="&#xd6;" horiz-adv-x="1378" 
d="M799 1935l-27 -204h-272l26 204h273zM1157 1935l-27 -204h-272l27 204h272zM770 1624q318 0 453.5 -191t83.5 -602l-9 -65q-53 -418 -213 -605.5t-471 -187.5q-318 0 -453 191t-83 602l8 65q53 418 213 605.5t471 187.5zM612 260h21q146 0 220.5 125.5t107.5 380.5l8 65
q20 162 13 274.5t-58.5 172t-151.5 59.5h-20q-146 0 -220.5 -125.5t-107.5 -380.5l-8 -65q-20 -162 -13 -274.5t58 -172t151 -59.5z" />
    <glyph glyph-name="multiply" unicode="&#xd7;" horiz-adv-x="1228" 
d="M193 244l-179 205l398 350l-306 350l234 205l303 -350l397 350l179 -205l-398 -350l305 -350l-233 -205l-303 350z" />
    <glyph glyph-name="Oslash" unicode="&#xd8;" horiz-adv-x="1372" 
d="M770 1624q244 0 373 -106l61 79h203l-158 -206q104 -189 58 -560l-9 -65q-53 -418 -213 -605.5t-471 -187.5q-242 0 -372 107l-62 -80h-203l158 207q-103 188 -57 559l8 65q53 418 213 605.5t471 187.5zM424 831l-8 -65q-17 -139 -15 -213l539 700q-50 84 -168 84h-20
q-146 0 -220.5 -125.5t-107.5 -380.5zM612 260h21q146 0 220.5 125.5t107.5 380.5l8 65q17 132 14 213l-539 -700q50 -84 168 -84z" />
    <glyph glyph-name="Ugrave" unicode="&#xd9;" horiz-adv-x="1357" 
d="M543 1946h338l82 -226h-320zM600 -27q-318 0 -441.5 132.5t-88.5 400.5l143 1091h332l-142 -1081q-18 -133 26 -194.5t179 -61.5q137 0 200 61t81 195l141 1081h332l-143 -1091q-18 -136 -55.5 -230.5t-108 -165t-183 -104t-272.5 -33.5z" />
    <glyph glyph-name="Uacute" unicode="&#xda;" horiz-adv-x="1357" 
d="M786 1946h338l-161 -226h-320zM600 -27q-318 0 -441.5 132.5t-88.5 400.5l143 1091h332l-142 -1081q-18 -133 26 -194.5t179 -61.5q137 0 200 61t81 195l141 1081h332l-143 -1091q-18 -136 -55.5 -230.5t-108 -165t-183 -104t-272.5 -33.5z" />
    <glyph glyph-name="Ucircumflex" unicode="&#xdb;" horiz-adv-x="1357" 
d="M1221 1720h-285l-117 103l-137 -103h-297l285 226h327zM600 -27q-318 0 -441.5 132.5t-88.5 400.5l143 1091h332l-142 -1081q-18 -133 26 -194.5t179 -61.5q137 0 200 61t81 195l141 1081h332l-143 -1091q-18 -136 -55.5 -230.5t-108 -165t-183 -104t-272.5 -33.5z" />
    <glyph glyph-name="Udieresis" unicode="&#xdc;" horiz-adv-x="1357" 
d="M788 1935l-26 -204h-273l27 204h272zM1147 1935l-27 -204h-272l26 204h273zM600 -27q-318 0 -441.5 132.5t-88.5 400.5l143 1091h332l-142 -1081q-18 -133 26 -194.5t179 -61.5q137 0 200 61t81 195l141 1081h332l-143 -1091q-18 -136 -55.5 -230.5t-108 -165t-183 -104
t-272.5 -33.5z" />
    <glyph glyph-name="Yacute" unicode="&#xdd;" horiz-adv-x="1280" 
d="M750 1946h337l-161 -226h-320zM770 489l-63 -489h-332l63 489l-313 1108h356l170 -702l353 702h368z" />
    <glyph glyph-name="Thorn" unicode="&#xde;" horiz-adv-x="1247" 
d="M420 573h209q206 0 233 203l4 31q7 52 -1 91.5t-25.5 63t-44.5 38t-53 19.5t-56 5h-205zM346 0h-332l209 1597h332l-37 -286h207q541 0 477 -496l-6 -47q-12 -88 -38 -159t-60 -120.5t-80 -86t-93 -58.5t-105 -35t-109.5 -17.5t-112.5 -4.5h-213z" />
    <glyph glyph-name="germandbls" unicode="&#xdf;" horiz-adv-x="1294" 
d="M573 684l27 205q254 129 254 336q0 161 -172 161q-91 0 -140.5 -52t-60.5 -136l-157 -1198h-324l160 1217q13 96 51 175.5t102.5 141.5t164 96.5t224.5 34.5q138 0 239 -35.5t156 -97.5t76 -140.5t9 -170.5l-4 -31q-16 -125 -79.5 -212t-176.5 -163l51 -39
q131 -99 186.5 -197t38.5 -219l-4 -30q-10 -71 -37.5 -132.5t-74.5 -113t-123 -81.5t-173 -30q-80 0 -142 13.5t-99.5 37.5t-63.5 56t-34.5 70t-11.5 79.5t5 83.5l4 31h275q-22 -125 69 -125q43 0 63.5 38t20.5 93q0 106 -127 203z" />
    <glyph glyph-name="agrave" unicode="&#xe0;" horiz-adv-x="1124" 
d="M291 1597h352l137 -376h-319zM655 0v121q-78 -74 -154.5 -111t-183.5 -37q-89 0 -156 27t-104.5 73.5t-52.5 105t-6 124.5l4 31q10 71 34.5 123.5t58.5 87t88 59t109.5 38.5t135.5 26l266 41l2 16q9 74 -23.5 107.5t-111.5 33.5t-117 -38.5t-43 -100.5h-305l4 31
q9 66 27 116.5t52.5 97t85.5 76t129 47t179 17.5q252 0 360.5 -109t82.5 -305l-51 -393l-21 -305h-289zM426 236q135 0 219 98l25 182l-201 -31q-65 -10 -97.5 -42.5t-39.5 -75.5l-4 -27q-7 -46 16.5 -75t81.5 -29z" />
    <glyph glyph-name="aacute" unicode="&#xe1;" horiz-adv-x="1124" 
d="M696 1597h353l-269 -376h-319zM655 0v121q-78 -74 -154.5 -111t-183.5 -37q-89 0 -156 27t-104.5 73.5t-52.5 105t-6 124.5l4 31q10 71 34.5 123.5t58.5 87t88 59t109.5 38.5t135.5 26l266 41l2 16q9 74 -23.5 107.5t-111.5 33.5t-117 -38.5t-43 -100.5h-305l4 31
q9 66 27 116.5t52.5 97t85.5 76t129 47t179 17.5q252 0 360.5 -109t82.5 -305l-51 -393l-21 -305h-289zM426 236q135 0 219 98l25 182l-201 -31q-65 -10 -97.5 -42.5t-39.5 -75.5l-4 -27q-7 -46 16.5 -75t81.5 -29z" />
    <glyph glyph-name="acircumflex" unicode="&#xe2;" horiz-adv-x="1124" 
d="M1051 1221h-277l-125 170l-170 -170h-289l324 376h311zM655 0v121q-78 -74 -154.5 -111t-183.5 -37q-89 0 -156 27t-104.5 73.5t-52.5 105t-6 124.5l4 31q10 71 34.5 123.5t58.5 87t88 59t109.5 38.5t135.5 26l266 41l2 16q9 74 -23.5 107.5t-111.5 33.5t-117 -38.5
t-43 -100.5h-305l4 31q9 66 27 116.5t52.5 97t85.5 76t129 47t179 17.5q252 0 360.5 -109t82.5 -305l-51 -393l-21 -305h-289zM426 236q135 0 219 98l25 182l-201 -31q-65 -10 -97.5 -42.5t-39.5 -75.5l-4 -27q-7 -46 16.5 -75t81.5 -29z" />
    <glyph glyph-name="atilde" unicode="&#xe3;" horiz-adv-x="1124" 
d="M864 1581h215q-13 -160 -87 -243t-171 -83q-47 0 -96.5 16.5t-83.5 37t-72.5 37t-66.5 16.5t-49 -19.5t-21 -56.5h-215q13 160 87 243t171 83q59 0 121 -27t113.5 -53.5t85.5 -26.5q28 0 48.5 19.5t20.5 56.5zM655 0v121q-78 -74 -154.5 -111t-183.5 -37q-89 0 -156 27
t-104.5 73.5t-52.5 105t-6 124.5l4 31q10 71 34.5 123.5t58.5 87t88 59t109.5 38.5t135.5 26l266 41l2 16q9 74 -23.5 107.5t-111.5 33.5t-117 -38.5t-43 -100.5h-305l4 31q9 66 27 116.5t52.5 97t85.5 76t129 47t179 17.5q252 0 360.5 -109t82.5 -305l-51 -393l-21 -305
h-289zM426 236q135 0 219 98l25 182l-201 -31q-65 -10 -97.5 -42.5t-39.5 -75.5l-4 -27q-7 -46 16.5 -75t81.5 -29z" />
    <glyph glyph-name="adieresis" unicode="&#xe4;" horiz-adv-x="1124" 
d="M618 1581l-45 -342h-342l45 342h342zM1059 1581l-45 -342h-342l45 342h342zM655 0v121q-78 -74 -154.5 -111t-183.5 -37q-89 0 -156 27t-104.5 73.5t-52.5 105t-6 124.5l4 31q10 71 34.5 123.5t58.5 87t88 59t109.5 38.5t135.5 26l266 41l2 16q9 74 -23.5 107.5
t-111.5 33.5t-117 -38.5t-43 -100.5h-305l4 31q9 66 27 116.5t52.5 97t85.5 76t129 47t179 17.5q252 0 360.5 -109t82.5 -305l-51 -393l-21 -305h-289zM426 236q135 0 219 98l25 182l-201 -31q-65 -10 -97.5 -42.5t-39.5 -75.5l-4 -27q-7 -46 16.5 -75t81.5 -29z" />
    <glyph glyph-name="aring" unicode="&#xe5;" horiz-adv-x="1124" 
d="M864 1434q0 -102 -70 -171t-169 -69q-85 0 -141 54t-56 136q0 102 70.5 171t169.5 69q85 0 140.5 -54t55.5 -136zM752 1419q0 41 -27.5 67.5t-67.5 26.5q-50 0 -83 -32t-33 -82q0 -41 27 -67.5t67 -26.5q50 0 83.5 32t33.5 82zM655 0v121q-78 -74 -154.5 -111t-183.5 -37
q-89 0 -156 27t-104.5 73.5t-52.5 105t-6 124.5l4 31q10 71 34.5 123.5t58.5 87t88 59t109.5 38.5t135.5 26l266 41l2 16q9 74 -23.5 107.5t-111.5 33.5t-117 -38.5t-43 -100.5h-305l4 31q9 66 27 116.5t52.5 97t85.5 76t129 47t179 17.5q252 0 360.5 -109t82.5 -305
l-51 -393l-21 -305h-289zM426 236q135 0 219 98l25 182l-201 -31q-65 -10 -97.5 -42.5t-39.5 -75.5l-4 -27q-7 -46 16.5 -75t81.5 -29z" />
    <glyph glyph-name="ae" unicode="&#xe6;" horiz-adv-x="1779" 
d="M1673 426h-698q-25 -207 182 -207q182 0 201 129h305l-4 -31q-21 -154 -149.5 -249t-352.5 -95q-306 0 -426 179q-187 -179 -414 -179q-89 0 -156 27t-104.5 73.5t-52.5 105t-6 124.5l4 31q10 71 34.5 123.5t58.5 87t88 59t109.5 38.5t135.5 26l266 41l2 16
q9 74 -23.5 107.5t-111.5 33.5t-117 -38.5t-43 -100.5h-305l4 31q9 66 27 116.5t52.5 97t85.5 76t129 47t179 17.5q246 0 332 -113q116 113 324 113q139 0 237.5 -44t149.5 -122t70 -186.5t0 -237.5zM426 236q150 0 238 118q-7 79 4 150l2 12l-201 -31q-65 -10 -97.5 -42.5
t-39.5 -75.5l-4 -27q-7 -46 16.5 -75t81.5 -29zM1229 866q-89 0 -147 -52t-76 -155h374q15 207 -151 207z" />
    <glyph glyph-name="ccedilla" unicode="&#xe7;" horiz-adv-x="1079" 
d="M360 582l-10 -78q-18 -126 16 -189t126 -63q74 0 120 42.5t54 106.5h305l-4 -30q-25 -186 -137.5 -288.5t-317.5 -109.5l-29 -55q185 -14 185 -160q0 -91 -70.5 -144.5t-187.5 -53.5q-153 0 -228 51l66 135q54 -35 151 -35q95 0 95 51q0 43 -93 43q-16 0 -36 -2.5
t-31 -4.5l-12 -3l-23 58l70 129q-131 21 -215 94t-114.5 181.5t-12.5 246.5l10 78q34 251 166.5 390.5t374.5 139.5q237 0 347.5 -109t84.5 -309l-4 -30h-306q10 77 -22 123.5t-111 46.5q-174 0 -207 -252z" />
    <glyph glyph-name="egrave" unicode="&#xe8;" horiz-adv-x="1138" 
d="M305 1597h352l138 -376h-320zM1032 426h-698q-25 -207 182 -207q182 0 201 129h305l-4 -31q-21 -154 -149.5 -249t-352.5 -95q-141 0 -244 40t-160.5 111.5t-79 167.5t-5.5 212l10 78q12 93 39 172t73 145.5t107.5 113.5t146 73t185.5 26q139 0 237.5 -44t149 -122
t69.5 -186.5t0 -237.5zM588 866q-89 0 -147 -52t-76 -155h374q15 207 -151 207z" />
    <glyph glyph-name="eacute" unicode="&#xe9;" horiz-adv-x="1138" 
d="M711 1597h352l-268 -376h-320zM1032 426h-698q-25 -207 182 -207q182 0 201 129h305l-4 -31q-21 -154 -149.5 -249t-352.5 -95q-141 0 -244 40t-160.5 111.5t-79 167.5t-5.5 212l10 78q12 93 39 172t73 145.5t107.5 113.5t146 73t185.5 26q139 0 237.5 -44t149 -122
t69.5 -186.5t0 -237.5zM588 866q-89 0 -147 -52t-76 -155h374q15 207 -151 207z" />
    <glyph glyph-name="ecircumflex" unicode="&#xea;" horiz-adv-x="1138" 
d="M1065 1221h-277l-124 170l-170 -170h-289l323 376h312zM1032 426h-698q-25 -207 182 -207q182 0 201 129h305l-4 -31q-21 -154 -149.5 -249t-352.5 -95q-141 0 -244 40t-160.5 111.5t-79 167.5t-5.5 212l10 78q12 93 39 172t73 145.5t107.5 113.5t146 73t185.5 26
q139 0 237.5 -44t149 -122t69.5 -186.5t0 -237.5zM588 866q-89 0 -147 -52t-76 -155h374q15 207 -151 207z" />
    <glyph glyph-name="edieresis" unicode="&#xeb;" horiz-adv-x="1138" 
d="M633 1581l-45 -342h-342l45 342h342zM1073 1581l-45 -342h-342l45 342h342zM1032 426h-698q-25 -207 182 -207q182 0 201 129h305l-4 -31q-21 -154 -149.5 -249t-352.5 -95q-141 0 -244 40t-160.5 111.5t-79 167.5t-5.5 212l10 78q12 93 39 172t73 145.5t107.5 113.5
t146 73t185.5 26q139 0 237.5 -44t149 -122t69.5 -186.5t0 -237.5zM588 866q-89 0 -147 -52t-76 -155h374q15 207 -151 207z" />
    <glyph glyph-name="igrave" unicode="&#xec;" horiz-adv-x="544" 
d="M2 1597h352l138 -376h-320zM10 0l142 1085h323l-141 -1085h-324z" />
    <glyph glyph-name="iacute" unicode="&#xed;" horiz-adv-x="542" 
d="M408 1597h352l-268 -376h-320zM10 0l142 1085h323l-141 -1085h-324z" />
    <glyph glyph-name="icircumflex" unicode="&#xee;" horiz-adv-x="542" 
d="M762 1221h-277l-125 170l-170 -170h-288l323 376h312zM10 0l142 1085h323l-141 -1085h-324z" />
    <glyph glyph-name="idieresis" unicode="&#xef;" horiz-adv-x="542" 
d="M330 1581l-45 -342h-342l45 342h342zM770 1581l-45 -342h-342l45 342h342zM10 0l142 1085h323l-141 -1085h-324z" />
    <glyph glyph-name="eth" unicode="&#xf0;" horiz-adv-x="1138" 
d="M143 1378l39 287q355 -24 553 -137l262 137l-22 -182l-109 -56q264 -264 187 -845l-11 -78q-72 -531 -546 -531q-174 0 -288.5 69.5t-158 187.5t-22.5 274l10 78q33 248 166 389t360 141q80 0 139 -20q-58 113 -155 170l-387 -201l22 182l185 94q-97 29 -224 41zM506 252
q91 0 143.5 61t69.5 191l10 78q35 252 -156 252q-91 0 -143.5 -61t-69.5 -191l-10 -78q-35 -252 156 -252z" />
    <glyph glyph-name="ntilde" unicode="&#xf1;" horiz-adv-x="1187" 
d="M903 1581h215q-13 -160 -87 -243t-171 -83q-47 0 -96.5 16.5t-83.5 37t-72.5 37t-66.5 16.5t-49 -19.5t-21 -56.5h-215q13 160 87 243t171 83q59 0 121 -27t113.5 -53.5t85.5 -26.5q28 0 48.5 19.5t20.5 56.5zM989 0h-323l90 686q19 148 -121 148q-63 0 -118 -31t-87 -70
l-96 -733h-324l103 780l20 305h289v-143q65 78 154 124t192 46q186 0 263 -103t54 -276z" />
    <glyph glyph-name="ograve" unicode="&#xf2;" horiz-adv-x="1138" 
d="M299 1597h352l137 -376h-319zM506 252q91 0 143.5 61t69.5 191l10 78q35 252 -156 252q-91 0 -143.5 -61t-69.5 -191l-10 -78q-35 -252 156 -252zM496 -27q-174 0 -288.5 69.5t-158 187.5t-22.5 274l10 78q32 251 165.5 390.5t381.5 139.5q131 0 229.5 -39.5t155 -110.5
t78.5 -167.5t6 -212.5l-11 -78q-72 -531 -546 -531z" />
    <glyph glyph-name="oacute" unicode="&#xf3;" horiz-adv-x="1138" 
d="M705 1597h352l-269 -376h-319zM506 252q91 0 143.5 61t69.5 191l10 78q35 252 -156 252q-91 0 -143.5 -61t-69.5 -191l-10 -78q-35 -252 156 -252zM496 -27q-174 0 -288.5 69.5t-158 187.5t-22.5 274l10 78q32 251 165.5 390.5t381.5 139.5q131 0 229.5 -39.5t155 -110.5
t78.5 -167.5t6 -212.5l-11 -78q-72 -531 -546 -531z" />
    <glyph glyph-name="ocircumflex" unicode="&#xf4;" horiz-adv-x="1138" 
d="M1059 1221h-277l-125 170l-170 -170h-288l323 376h312zM506 252q91 0 143.5 61t69.5 191l10 78q35 252 -156 252q-91 0 -143.5 -61t-69.5 -191l-10 -78q-35 -252 156 -252zM496 -27q-174 0 -288.5 69.5t-158 187.5t-22.5 274l10 78q32 251 165.5 390.5t381.5 139.5
q131 0 229.5 -39.5t155 -110.5t78.5 -167.5t6 -212.5l-11 -78q-72 -531 -546 -531z" />
    <glyph glyph-name="otilde" unicode="&#xf5;" horiz-adv-x="1138" 
d="M872 1581h215q-13 -160 -87 -243t-171 -83q-47 0 -96.5 16.5t-83.5 37t-72.5 37t-66.5 16.5t-49 -19.5t-21 -56.5h-215q13 160 87 243t171 83q59 0 121 -27t113.5 -53.5t85.5 -26.5q28 0 48.5 19.5t20.5 56.5zM506 252q91 0 143.5 61t69.5 191l10 78q35 252 -156 252
q-91 0 -143.5 -61t-69.5 -191l-10 -78q-35 -252 156 -252zM496 -27q-174 0 -288.5 69.5t-158 187.5t-22.5 274l10 78q32 251 165.5 390.5t381.5 139.5q131 0 229.5 -39.5t155 -110.5t78.5 -167.5t6 -212.5l-11 -78q-72 -531 -546 -531z" />
    <glyph glyph-name="odieresis" unicode="&#xf6;" horiz-adv-x="1138" 
d="M627 1581l-45 -342h-342l45 342h342zM1067 1581l-45 -342h-342l45 342h342zM506 252q91 0 143.5 61t69.5 191l10 78q35 252 -156 252q-91 0 -143.5 -61t-69.5 -191l-10 -78q-35 -252 156 -252zM496 -27q-174 0 -288.5 69.5t-158 187.5t-22.5 274l10 78
q32 251 165.5 390.5t381.5 139.5q131 0 229.5 -39.5t155 -110.5t78.5 -167.5t6 -212.5l-11 -78q-72 -531 -546 -531z" />
    <glyph glyph-name="divide" unicode="&#xf7;" horiz-adv-x="1228" 
d="M70 655l36 287h1057l-37 -287h-1056zM866 1395l-45 -342h-342l45 342h342zM367 203l45 342h342l-45 -342h-342z" />
    <glyph glyph-name="oslash" unicode="&#xf8;" horiz-adv-x="1138" 
d="M360 582l-10 -78q-6 -43 -6 -80l340 377q-39 33 -111 33q-91 0 -143.5 -61t-69.5 -191zM506 252q91 0 143.5 61t69.5 191l10 78q6 44 6 80l-340 -377q39 -33 111 -33zM186 55l-49 -55h-176l133 145q-95 139 -67 359l10 78q32 251 165.5 390.5t381.5 139.5q190 0 309 -82
l49 55h176l-133 -145q96 -140 68 -358l-11 -78q-16 -123 -55 -218t-104 -166.5t-163 -109t-224 -37.5q-191 0 -310 82z" />
    <glyph glyph-name="ugrave" unicode="&#xf9;" horiz-adv-x="1187" 
d="M315 1597h353l137 -376h-320zM139 1085h324l-90 -686q-19 -147 121 -147q63 0 118 30.5t86 69.5l97 733h323l-102 -780l-21 -305h-288v143q-65 -77 -154.5 -123.5t-192.5 -46.5q-186 0 -263 103t-54 276z" />
    <glyph glyph-name="uacute" unicode="&#xfa;" horiz-adv-x="1187" 
d="M721 1597h352l-268 -376h-320zM139 1085h324l-90 -686q-19 -147 121 -147q63 0 118 30.5t86 69.5l97 733h323l-102 -780l-21 -305h-288v143q-65 -77 -154.5 -123.5t-192.5 -46.5q-186 0 -263 103t-54 276z" />
    <glyph glyph-name="ucircumflex" unicode="&#xfb;" horiz-adv-x="1187" 
d="M1075 1221h-276l-125 170l-170 -170h-289l324 376h311zM139 1085h324l-90 -686q-19 -147 121 -147q63 0 118 30.5t86 69.5l97 733h323l-102 -780l-21 -305h-288v143q-65 -77 -154.5 -123.5t-192.5 -46.5q-186 0 -263 103t-54 276z" />
    <glyph glyph-name="udieresis" unicode="&#xfc;" horiz-adv-x="1187" 
d="M643 1581l-45 -342h-342l45 342h342zM1083 1581l-45 -342h-342l45 342h342zM139 1085h324l-90 -686q-19 -147 121 -147q63 0 118 30.5t86 69.5l97 733h323l-102 -780l-21 -305h-288v143q-65 -77 -154.5 -123.5t-192.5 -46.5q-186 0 -263 103t-54 276z" />
    <glyph glyph-name="yacute" unicode="&#xfd;" horiz-adv-x="1128" 
d="M702 1597h353l-269 -376h-319zM514 393l293 692h358l-518 -1028l-201 -467h-385l236 467l-246 1028h346z" />
    <glyph glyph-name="thorn" unicode="&#xfe;" horiz-adv-x="1175" 
d="M221 1638h324l-84 -639q98 113 280 113q203 0 292.5 -141t56.5 -389l-11 -78q-16 -120 -50.5 -215.5t-89.5 -167t-136.5 -110t-184.5 -38.5q-104 0 -175 37t-101 84l-68 -504h-323zM543 252q182 0 213 252l10 78q17 124 -22 188t-130 64q-48 0 -89 -19t-59 -37t-40 -45
l-49 -375q20 -41 61 -73.5t105 -32.5z" />
    <glyph glyph-name="ydieresis" unicode="&#xff;" horiz-adv-x="1128" 
d="M625 1581l-45 -342h-342l45 342h342zM1065 1581l-45 -342h-342l45 342h342zM514 393l293 692h358l-518 -1028l-201 -467h-385l236 467l-246 1028h346z" />
    <glyph glyph-name="Amacron" unicode="&#x100;" horiz-adv-x="1312" 
d="M477 1735l27 196h610l-27 -196h-610zM537 1602h456l191 -1602h-357l-30 344h-389l-123 -344h-357zM719 1231l-211 -600h262z" />
    <glyph glyph-name="amacron" unicode="&#x101;" horiz-adv-x="1124" 
d="M319 1268l37 282h615l-37 -282h-615zM655 0v121q-78 -74 -154.5 -111t-183.5 -37q-89 0 -156 27t-104.5 73.5t-52.5 105t-6 124.5l4 31q10 71 34.5 123.5t58.5 87t88 59t109.5 38.5t135.5 26l266 41l2 16q9 74 -23.5 107.5t-111.5 33.5t-117 -38.5t-43 -100.5h-305l4 31
q9 66 27 116.5t52.5 97t85.5 76t129 47t179 17.5q252 0 360.5 -109t82.5 -305l-51 -393l-21 -305h-289zM426 236q135 0 219 98l25 182l-201 -31q-65 -10 -97.5 -42.5t-39.5 -75.5l-4 -27q-7 -46 16.5 -75t81.5 -29z" />
    <glyph glyph-name="Abreve" unicode="&#x102;" horiz-adv-x="1312" 
d="M786 1690q-108 0 -181.5 20t-110.5 56.5t-50.5 80t-7.5 99.5h219q-2 -41 32.5 -61.5t107.5 -20.5q75 0 118.5 21t44.5 61h228q-7 -57 -28.5 -99.5t-64.5 -80t-120.5 -57t-186.5 -19.5zM537 1602h456l191 -1602h-357l-30 344h-389l-123 -344h-357zM719 1231l-211 -600h262
z" />
    <glyph glyph-name="abreve" unicode="&#x103;" horiz-adv-x="1124" 
d="M616 1192q-105 0 -177.5 30.5t-107.5 84.5t-47.5 128.5t3.5 161.5h227q-21 -159 131 -159q151 0 172 159h236q-22 -188 -127.5 -296.5t-309.5 -108.5zM655 0v121q-78 -74 -154.5 -111t-183.5 -37q-89 0 -156 27t-104.5 73.5t-52.5 105t-6 124.5l4 31q10 71 34.5 123.5
t58.5 87t88 59t109.5 38.5t135.5 26l266 41l2 16q9 74 -23.5 107.5t-111.5 33.5t-117 -38.5t-43 -100.5h-305l4 31q9 66 27 116.5t52.5 97t85.5 76t129 47t179 17.5q252 0 360.5 -109t82.5 -305l-51 -393l-21 -305h-289zM426 236q135 0 219 98l25 182l-201 -31
q-65 -10 -97.5 -42.5t-39.5 -75.5l-4 -27q-7 -46 16.5 -75t81.5 -29z" />
    <glyph glyph-name="Aogonek" unicode="&#x104;" horiz-adv-x="1312" 
d="M537 1602h456l191 -1602q-59 -17 -103.5 -57.5t-44.5 -96.5q0 -29 21 -45t59 -16q48 0 88 22l47 -196q-35 -21 -93.5 -36t-113.5 -15q-125 0 -192.5 48t-67.5 146q0 141 117 246h-74l-30 344h-389l-123 -344h-357zM719 1231l-211 -600h262z" />
    <glyph glyph-name="aogonek" unicode="&#x105;" horiz-adv-x="1124" 
d="M944 0q-59 -17 -103 -57.5t-44 -96.5q0 -29 21 -45t59 -16q48 0 88 22l47 -196q-35 -21 -93.5 -36t-113.5 -15q-125 0 -192.5 48t-67.5 146q0 135 110 240v127q-78 -74 -154.5 -111t-183.5 -37q-89 0 -156 27t-104.5 73.5t-52.5 105t-6 124.5l4 31q10 71 34.5 123.5
t58.5 87t88 59t109.5 38.5t135.5 26l266 41l2 16q9 74 -23.5 107.5t-111.5 33.5t-117 -38.5t-43 -100.5h-305l4 31q9 66 27 116.5t52.5 97t85.5 76t129 47t179 17.5q252 0 360.5 -109t82.5 -305l-51 -393zM426 236q135 0 219 98l25 182l-201 -31q-65 -10 -97.5 -42.5
t-39.5 -75.5l-4 -27q-7 -46 16.5 -75t81.5 -29z" />
    <glyph glyph-name="Cacute" unicode="&#x106;" horiz-adv-x="1331" 
d="M788 1946h338l-161 -226h-320zM424 834l-8 -68q-31 -252 11 -379t175 -127h21q60 0 103.5 13t70.5 34.5t46 60t28.5 78t17.5 99.5h334l-4 -31q-39 -286 -191.5 -413.5t-423.5 -127.5q-626 0 -526 793l8 65q52 414 214 603.5t460 189.5q309 0 437.5 -140t92.5 -427l-8 -66
h-334q23 179 -17.5 262.5t-168.5 83.5h-21q-256 0 -317 -503z" />
    <glyph glyph-name="cacute" unicode="&#x107;" horiz-adv-x="1079" 
d="M688 1597h352l-268 -376h-319zM360 582l-10 -78q-18 -126 16 -189t126 -63q74 0 120 42.5t54 106.5h305l-4 -30q-25 -192 -146 -295t-340 -103q-170 0 -280.5 69.5t-152.5 187.5t-21 274l10 78q34 251 166.5 390.5t374.5 139.5q237 0 347.5 -109t84.5 -309l-4 -30h-306
q10 77 -22 123.5t-111 46.5q-174 0 -207 -252z" />
    <glyph glyph-name="Ccircumflex" unicode="&#x108;" horiz-adv-x="1331" 
d="M1223 1720h-285l-117 103l-137 -103h-297l285 226h327zM424 834l-8 -68q-31 -252 11 -379t175 -127h21q60 0 103.5 13t70.5 34.5t46 60t28.5 78t17.5 99.5h334l-4 -31q-39 -286 -191.5 -413.5t-423.5 -127.5q-626 0 -526 793l8 65q52 414 214 603.5t460 189.5
q309 0 437.5 -140t92.5 -427l-8 -66h-334q23 179 -17.5 262.5t-168.5 83.5h-21q-256 0 -317 -503z" />
    <glyph glyph-name="ccircumflex" unicode="&#x109;" horiz-adv-x="1079" 
d="M1042 1221h-276l-125 170l-170 -170h-289l324 376h311zM360 582l-10 -78q-18 -126 16 -189t126 -63q74 0 120 42.5t54 106.5h305l-4 -30q-25 -192 -146 -295t-340 -103q-170 0 -280.5 69.5t-152.5 187.5t-21 274l10 78q34 251 166.5 390.5t374.5 139.5q237 0 347.5 -109
t84.5 -309l-4 -30h-306q10 77 -22 123.5t-111 46.5q-174 0 -207 -252z" />
    <glyph glyph-name="Cdotaccent" unicode="&#x10a;" horiz-adv-x="1331" 
d="M969 1935l-27 -204h-272l26 204h273zM424 834l-8 -68q-31 -252 11 -379t175 -127h21q60 0 103.5 13t70.5 34.5t46 60t28.5 78t17.5 99.5h334l-4 -31q-39 -286 -191.5 -413.5t-423.5 -127.5q-626 0 -526 793l8 65q52 414 214 603.5t460 189.5q309 0 437.5 -140t92.5 -427
l-8 -66h-334q23 179 -17.5 262.5t-168.5 83.5h-21q-256 0 -317 -503z" />
    <glyph glyph-name="cdotaccent" unicode="&#x10b;" horiz-adv-x="1079" 
d="M831 1581l-45 -342h-342l45 342h342zM360 582l-10 -78q-18 -126 16 -189t126 -63q74 0 120 42.5t54 106.5h305l-4 -30q-25 -192 -146 -295t-340 -103q-170 0 -280.5 69.5t-152.5 187.5t-21 274l10 78q34 251 166.5 390.5t374.5 139.5q237 0 347.5 -109t84.5 -309l-4 -30
h-306q10 77 -22 123.5t-111 46.5q-174 0 -207 -252z" />
    <glyph glyph-name="Ccaron" unicode="&#x10c;" horiz-adv-x="1331" 
d="M418 1946h284l117 -103l137 103h297l-284 -226h-328zM424 834l-8 -68q-31 -252 11 -379t175 -127h21q60 0 103.5 13t70.5 34.5t46 60t28.5 78t17.5 99.5h334l-4 -31q-39 -286 -191.5 -413.5t-423.5 -127.5q-626 0 -526 793l8 65q52 414 214 603.5t460 189.5
q309 0 437.5 -140t92.5 -427l-8 -66h-334q23 179 -17.5 262.5t-168.5 83.5h-21q-256 0 -317 -503z" />
    <glyph glyph-name="ccaron" unicode="&#x10d;" horiz-adv-x="1079" 
d="M231 1597h277l125 -170l170 170h289l-324 -376h-311zM360 582l-10 -78q-18 -126 16 -189t126 -63q74 0 120 42.5t54 106.5h305l-4 -30q-25 -192 -146 -295t-340 -103q-170 0 -280.5 69.5t-152.5 187.5t-21 274l10 78q34 251 166.5 390.5t374.5 139.5q237 0 347.5 -109
t84.5 -309l-4 -30h-306q10 77 -22 123.5t-111 46.5q-174 0 -207 -252z" />
    <glyph glyph-name="Dcaron" unicode="&#x10e;" horiz-adv-x="1357" 
d="M379 1946h285l116 -103l138 103h296l-284 -226h-328zM1286 831l-8 -65q-27 -214 -85 -360.5t-154.5 -236.5t-225 -129.5t-305.5 -39.5h-494l209 1597h467q235 0 375.5 -73.5t198 -244t22.5 -448.5zM383 287h129q204 0 299.5 110t128.5 369l8 65q31 249 -28.5 364.5
t-245.5 115.5h-156z" />
    <glyph glyph-name="dcaron" unicode="&#x10f;" horiz-adv-x="1191" 
d="M389 -27q-203 0 -292 141.5t-56 389.5l10 78q16 120 50.5 215t89.5 166.5t136.5 110t184.5 38.5q104 0 175 -37t101 -84l86 647h324l-176 -1333l-21 -305h-288v143q-104 -170 -324 -170zM588 834q-182 0 -213 -252l-10 -78q-17 -124 21.5 -188t129.5 -64q110 0 189 100
l49 375q-20 41 -61 74t-105 33zM1311 1638h194l-106 -417h-144z" />
    <glyph glyph-name="Dcroat" unicode="&#x110;" horiz-adv-x="1480" 
d="M1409 831l-8 -65q-27 -214 -85 -360.5t-154.5 -236.5t-225 -129.5t-305.5 -39.5h-494l90 692h-213l33 248h213l86 657h467q235 0 375.5 -73.5t198 -244t22.5 -448.5zM506 287h129q204 0 299.5 110t128.5 369l8 65q31 249 -28.5 364.5t-245.5 115.5h-156l-49 -371h338
l-33 -248h-338z" />
    <glyph glyph-name="dcroat" unicode="&#x111;" horiz-adv-x="1191" 
d="M592 1247l31 230h229l22 161h324l-22 -161h139l-31 -230h-137l-125 -942l-21 -305h-288v143q-104 -170 -324 -170q-203 0 -292 141.5t-56 389.5l10 78q16 120 50.5 215t89.5 166.5t136.5 110t184.5 38.5q104 0 175 -37t101 -84l33 256h-229zM588 834q-182 0 -213 -252
l-10 -78q-17 -124 21.5 -188t129.5 -64q110 0 189 100l49 375q-20 41 -61 74t-105 33z" />
    <glyph glyph-name="Emacron" unicode="&#x112;" horiz-adv-x="1173" 
d="M428 1735l27 196h610l-27 -196h-610zM223 1597h977l-37 -286h-645l-47 -353h543l-37 -286h-543l-51 -385h645l-37 -287h-977z" />
    <glyph glyph-name="emacron" unicode="&#x113;" horiz-adv-x="1138" 
d="M334 1268l37 282h614l-37 -282h-614zM1032 426h-698q-25 -207 182 -207q182 0 201 129h305l-4 -31q-21 -154 -149.5 -249t-352.5 -95q-141 0 -244 40t-160.5 111.5t-79 167.5t-5.5 212l10 78q12 93 39 172t73 145.5t107.5 113.5t146 73t185.5 26q139 0 237.5 -44
t149 -122t69.5 -186.5t0 -237.5zM588 866q-89 0 -147 -52t-76 -155h374q15 207 -151 207z" />
    <glyph glyph-name="Ebreve" unicode="&#x114;" horiz-adv-x="1173" 
d="M737 1690q-108 0 -181.5 20t-110.5 56.5t-50.5 80t-7.5 99.5h219q-2 -42 32 -62t107 -20q75 0 119 21t45 61h228q-7 -57 -28.5 -99.5t-64.5 -80t-120.5 -57t-186.5 -19.5zM223 1597h977l-37 -286h-645l-47 -353h543l-37 -286h-543l-51 -385h645l-37 -287h-977z" />
    <glyph glyph-name="ebreve" unicode="&#x115;" horiz-adv-x="1138" 
d="M631 1192q-204 0 -281 109t-49 296h227q-21 -159 131 -159q151 0 172 159h236q-22 -188 -127 -296.5t-309 -108.5zM1032 426h-698q-25 -207 182 -207q182 0 201 129h305l-4 -31q-21 -154 -149.5 -249t-352.5 -95q-141 0 -244 40t-160.5 111.5t-79 167.5t-5.5 212l10 78
q12 93 39 172t73 145.5t107.5 113.5t146 73t185.5 26q139 0 237.5 -44t149 -122t69.5 -186.5t0 -237.5zM588 866q-89 0 -147 -52t-76 -155h374q15 207 -151 207z" />
    <glyph glyph-name="Edotaccent" unicode="&#x116;" horiz-adv-x="1173" 
d="M895 1935l-27 -204h-272l27 204h272zM223 1597h977l-37 -286h-645l-47 -353h543l-37 -286h-543l-51 -385h645l-37 -287h-977z" />
    <glyph glyph-name="edotaccent" unicode="&#x117;" horiz-adv-x="1138" 
d="M854 1581l-45 -342h-342l45 342h342zM1032 426h-698q-25 -207 182 -207q182 0 201 129h305l-4 -31q-21 -154 -149.5 -249t-352.5 -95q-141 0 -244 40t-160.5 111.5t-79 167.5t-5.5 212l10 78q12 93 39 172t73 145.5t107.5 113.5t146 73t185.5 26q139 0 237.5 -44
t149 -122t69.5 -186.5t0 -237.5zM588 866q-89 0 -147 -52t-76 -155h374q15 207 -151 207z" />
    <glyph glyph-name="Eogonek" unicode="&#x118;" horiz-adv-x="1173" 
d="M223 1597h977l-37 -286h-645l-47 -353h543l-37 -286h-543l-51 -385h645l-37 -287q-59 -17 -103 -57.5t-44 -96.5q0 -29 21 -45t59 -16q48 0 88 22l47 -196q-35 -21 -93.5 -36t-113.5 -15q-125 0 -192.5 48t-67.5 146q0 141 117 246h-695z" />
    <glyph glyph-name="eogonek" unicode="&#x119;" horiz-adv-x="1138" 
d="M1032 426h-698q-25 -207 182 -207q182 0 201 129h305l-4 -31q-16 -112 -90.5 -196t-204.5 -121q-59 -17 -103.5 -57.5t-44.5 -96.5q0 -29 21 -45t59 -16q48 0 88 22l48 -196q-35 -21 -93.5 -36t-113.5 -15q-125 0 -192.5 48t-67.5 146q0 123 96 226q-227 24 -324.5 165
t-68.5 359l10 78q12 93 39 172t73 145.5t107.5 113.5t146 73t185.5 26q139 0 237.5 -44t149 -122t69.5 -186.5t0 -237.5zM588 866q-89 0 -147 -52t-76 -155h374q15 207 -151 207z" />
    <glyph glyph-name="Ecaron" unicode="&#x11a;" horiz-adv-x="1173" 
d="M344 1946h285l116 -103l138 103h297l-285 -226h-328zM223 1597h977l-37 -286h-645l-47 -353h543l-37 -286h-543l-51 -385h645l-37 -287h-977z" />
    <glyph glyph-name="ecaron" unicode="&#x11b;" horiz-adv-x="1138" 
d="M254 1597h276l125 -170l170 170h289l-323 -376h-312zM1032 426h-698q-25 -207 182 -207q182 0 201 129h305l-4 -31q-21 -154 -149.5 -249t-352.5 -95q-141 0 -244 40t-160.5 111.5t-79 167.5t-5.5 212l10 78q12 93 39 172t73 145.5t107.5 113.5t146 73t185.5 26
q139 0 237.5 -44t149 -122t69.5 -186.5t0 -237.5zM588 866q-89 0 -147 -52t-76 -155h374q15 207 -151 207z" />
    <glyph glyph-name="Gcircumflex" unicode="&#x11c;" horiz-adv-x="1378" 
d="M1233 1720h-285l-117 103l-137 -103h-297l285 226h328zM643 -27q-120 0 -217 29t-172.5 89.5t-120.5 154.5t-61 223.5t6 296.5l8 65q52 413 218.5 603t465.5 190q311 0 443.5 -140.5t97.5 -426.5l-8 -66h-334q22 176 -23 261t-174 85h-20q-134 0 -216 -129.5t-112 -373.5
l-8 -68q-61 -506 229 -506h21q142 0 217 55l35 263h-211l36 286h543l-92 -706q-83 -76 -227 -130.5t-324 -54.5z" />
    <glyph glyph-name="gcircumflex" unicode="&#x11d;" horiz-adv-x="1175" 
d="M1063 1221h-277l-124 170l-170 -170h-289l323 376h312zM645 14l19 138q-98 -113 -281 -113q-201 0 -291.5 136.5t-60.5 361.5l10 77q14 108 48 196.5t88.5 157t136.5 106.5t184 38q111 0 186.5 -43t114.5 -117l37 133h290l-57 -307l-102 -778q-29 -216 -165.5 -326
t-355.5 -110q-143 0 -243 31.5t-151.5 88t-69 127.5t-5.5 158l5 31h305q-11 -89 20.5 -131.5t134.5 -42.5q91 0 140.5 44t62.5 144zM698 418l41 309q-20 41 -61 74t-105 33q-92 0 -143.5 -58.5t-64.5 -161.5l-11 -77q-14 -101 26 -160.5t128 -59.5q49 0 90 19t59.5 37
t40.5 45z" />
    <glyph glyph-name="Gbreve" unicode="&#x11e;" horiz-adv-x="1378" 
d="M821 1690q-108 0 -181.5 20t-110.5 56.5t-50.5 80t-7.5 99.5h219q-2 -42 32 -62t107 -20q75 0 119 21t45 61h228q-7 -57 -28.5 -99.5t-64.5 -80t-120.5 -57t-186.5 -19.5zM643 -27q-120 0 -217 29t-172.5 89.5t-120.5 154.5t-61 223.5t6 296.5l8 65q52 413 218.5 603
t465.5 190q311 0 443.5 -140.5t97.5 -426.5l-8 -66h-334q22 176 -23 261t-174 85h-20q-134 0 -216 -129.5t-112 -373.5l-8 -68q-61 -506 229 -506h21q142 0 217 55l35 263h-211l36 286h543l-92 -706q-83 -76 -227 -130.5t-324 -54.5z" />
    <glyph glyph-name="gbreve" unicode="&#x11f;" horiz-adv-x="1175" 
d="M629 1192q-204 0 -281 109t-49 296h227q-21 -159 131 -159q151 0 172 159h236q-22 -188 -127 -296.5t-309 -108.5zM645 14l19 138q-98 -113 -281 -113q-201 0 -291.5 136.5t-60.5 361.5l10 77q14 108 48 196.5t88.5 157t136.5 106.5t184 38q111 0 186.5 -43t114.5 -117
l37 133h290l-57 -307l-102 -778q-29 -216 -165.5 -326t-355.5 -110q-143 0 -243 31.5t-151.5 88t-69 127.5t-5.5 158l5 31h305q-11 -89 20.5 -131.5t134.5 -42.5q91 0 140.5 44t62.5 144zM698 418l41 309q-20 41 -61 74t-105 33q-92 0 -143.5 -58.5t-64.5 -161.5l-11 -77
q-14 -101 26 -160.5t128 -59.5q49 0 90 19t59.5 37t40.5 45z" />
    <glyph glyph-name="Gdotaccent" unicode="&#x120;" horiz-adv-x="1378" 
d="M979 1935l-27 -204h-272l27 204h272zM643 -27q-120 0 -217 29t-172.5 89.5t-120.5 154.5t-61 223.5t6 296.5l8 65q52 413 218.5 603t465.5 190q311 0 443.5 -140.5t97.5 -426.5l-8 -66h-334q22 176 -23 261t-174 85h-20q-134 0 -216 -129.5t-112 -373.5l-8 -68
q-61 -506 229 -506h21q142 0 217 55l35 263h-211l36 286h543l-92 -706q-83 -76 -227 -130.5t-324 -54.5z" />
    <glyph glyph-name="gdotaccent" unicode="&#x121;" horiz-adv-x="1175" 
d="M852 1581l-45 -342h-342l45 342h342zM645 14l19 138q-98 -113 -281 -113q-201 0 -291.5 136.5t-60.5 361.5l10 77q14 108 48 196.5t88.5 157t136.5 106.5t184 38q111 0 186.5 -43t114.5 -117l37 133h290l-57 -307l-102 -778q-29 -216 -165.5 -326t-355.5 -110
q-143 0 -243 31.5t-151.5 88t-69 127.5t-5.5 158l5 31h305q-11 -89 20.5 -131.5t134.5 -42.5q91 0 140.5 44t62.5 144zM698 418l41 309q-20 41 -61 74t-105 33q-92 0 -143.5 -58.5t-64.5 -161.5l-11 -77q-14 -101 26 -160.5t128 -59.5q49 0 90 19t59.5 37t40.5 45z" />
    <glyph glyph-name="Gcommaaccent" unicode="&#x122;" horiz-adv-x="1378" 
d="M743 -90l-16 -117q-20 -140 -99 -198t-235 -58l15 113q154 0 182 71h-162l25 189h290zM643 -27q-120 0 -217 29t-172.5 89.5t-120.5 154.5t-61 223.5t6 296.5l8 65q52 413 218.5 603t465.5 190q311 0 443.5 -140.5t97.5 -426.5l-8 -66h-334q22 176 -23 261t-174 85h-20
q-134 0 -216 -129.5t-112 -373.5l-8 -68q-61 -506 229 -506h21q142 0 217 55l35 263h-211l36 286h543l-92 -706q-83 -76 -227 -130.5t-324 -54.5z" />
    <glyph glyph-name="gcommaaccent" unicode="&#x123;" horiz-adv-x="1175" 
d="M481 1221l21 147q20 140 99 198t235 58l-15 -113q-154 0 -184 -77h162l-27 -213h-291zM645 14l19 138q-98 -113 -281 -113q-201 0 -291.5 136.5t-60.5 361.5l10 77q14 108 48 196.5t88.5 157t136.5 106.5t184 38q111 0 186.5 -43t114.5 -117l37 133h290l-57 -307
l-102 -778q-29 -216 -165.5 -326t-355.5 -110q-143 0 -243 31.5t-151.5 88t-69 127.5t-5.5 158l5 31h305q-11 -89 20.5 -131.5t134.5 -42.5q91 0 140.5 44t62.5 144zM698 418l41 309q-20 41 -61 74t-105 33q-92 0 -143.5 -58.5t-64.5 -161.5l-11 -77q-14 -101 26 -160.5
t128 -59.5q49 0 90 19t59.5 37t40.5 45z" />
    <glyph glyph-name="Hcircumflex" unicode="&#x124;" horiz-adv-x="1357" 
d="M1221 1720h-285l-117 103l-137 -103h-297l285 226h327zM1020 1597h332l-209 -1597h-332l88 672h-465l-88 -672h-332l209 1597h332l-84 -639h465z" />
    <glyph glyph-name="hcircumflex" unicode="&#x125;" horiz-adv-x="1185" 
d="M10 0l215 1638h324l-86 -651q135 125 305 125q186 0 263 -103t54 -276l-96 -733h-323l90 686q19 148 -121 148q-63 0 -118 -31t-87 -70l-96 -733h-324zM813 1720h-285l-116 103l-138 -103h-297l285 226h328z" />
    <glyph glyph-name="Hbar" unicode="&#x126;" horiz-adv-x="1357" 
d="M1020 1597h332l-209 -1597h-332l88 672h-465l-88 -672h-332l209 1597h332l-27 -194h465zM496 1155l-25 -197h465l25 197h-465z" />
    <glyph glyph-name="hbar" unicode="&#x127;" horiz-adv-x="1185" 
d="M35 1247l31 230h137l22 161h324l-23 -161h232l-31 -230h-229l-35 -260q135 125 305 125q186 0 263 -103t54 -276l-96 -733h-323l90 686q19 148 -121 148q-63 0 -118 -31t-87 -70l-96 -733h-324l164 1247h-139z" />
    <glyph glyph-name="Itilde" unicode="&#x128;" horiz-adv-x="579" 
d="M649 1939h174q-13 -126 -77 -184.5t-156 -58.5q-56 0 -115 24.5t-108 49t-80 24.5q-71 0 -76 -68h-174q13 126 77 185t156 59q56 0 115 -24.5t108 -49t80 -24.5q71 0 76 67zM565 1597l-209 -1597h-331l208 1597h332z" />
    <glyph glyph-name="itilde" unicode="&#x129;" horiz-adv-x="544" 
d="M575 1581h216q-13 -160 -87 -243t-172 -83q-47 0 -96.5 16.5t-83.5 37t-72.5 37t-66.5 16.5t-49 -19.5t-21 -56.5h-215q13 160 87 243t171 83q59 0 121 -27t113.5 -53.5t85.5 -26.5q28 0 48.5 19.5t20.5 56.5zM10 0l142 1085h323l-141 -1085h-324z" />
    <glyph glyph-name="Imacron" unicode="&#x12a;" horiz-adv-x="579" 
d="M113 1735l26 196h611l-27 -196h-610zM565 1597l-209 -1597h-331l208 1597h332z" />
    <glyph glyph-name="imacron" unicode="&#x12b;" horiz-adv-x="544" 
d="M31 1268l37 282h614l-37 -282h-614zM10 0l142 1085h323l-141 -1085h-324z" />
    <glyph glyph-name="Ibreve" unicode="&#x12c;" horiz-adv-x="579" 
d="M422 1690q-108 0 -181.5 20t-110.5 56.5t-50.5 80t-7.5 99.5h219q-2 -42 32 -62t107 -20q75 0 119 21t45 61h227q-7 -57 -28 -99.5t-64.5 -80t-120.5 -57t-186 -19.5zM565 1597l-209 -1597h-331l208 1597h332z" />
    <glyph glyph-name="ibreve" unicode="&#x12d;" horiz-adv-x="542" 
d="M328 1192q-204 0 -281 109t-49 296h227q-21 -159 131 -159q151 0 172 159h236q-22 -188 -127 -296.5t-309 -108.5zM10 0l142 1085h323l-141 -1085h-324z" />
    <glyph glyph-name="Iogonek" unicode="&#x12e;" horiz-adv-x="579" 
d="M565 1597l-209 -1597q-59 -17 -103 -57.5t-44 -96.5q0 -29 21 -45t59 -16q48 0 88 22l47 -196q-35 -21 -93.5 -36t-113.5 -15q-125 0 -192.5 48t-67.5 146t59 183l217 1660h332z" />
    <glyph glyph-name="iogonek" unicode="&#x12f;" horiz-adv-x="544" 
d="M549 1581l-45 -342h-342l45 342h342zM-66 -246q0 105 68 193l150 1138h323l-141 -1085q-59 -17 -103.5 -57.5t-44.5 -96.5q0 -29 21 -45t59 -16q48 0 88 22l47 -196q-35 -21 -93 -36t-113 -15q-125 0 -193 48.5t-68 145.5z" />
    <glyph glyph-name="Idotaccent" unicode="&#x130;" horiz-adv-x="579" 
d="M580 1935l-27 -204h-272l26 204h273zM565 1597l-209 -1597h-331l208 1597h332z" />
    <glyph glyph-name="dotlessi" unicode="&#x131;" horiz-adv-x="544" 
d="M10 0l142 1085h323l-141 -1085h-324z" />
    <glyph glyph-name="IJ" unicode="&#x132;" horiz-adv-x="1245" 
d="M565 1597l-209 -1597h-331l208 1597h332zM762 408l156 1189h331l-159 -1226q-51 -398 -461 -398q-117 0 -185 27l37 279q47 -19 105 -19q76 0 120.5 31t55.5 117z" />
    <glyph glyph-name="ij" unicode="&#x133;" horiz-adv-x="989" 
d="M10 0l142 1085h323l-141 -1085h-324zM549 1581l-45 -342h-342l45 342h342zM989 1581l-45 -342h-342l45 342h342zM449 -12l143 1097h323l-147 -1132q-51 -389 -451 -389q-119 0 -178 26l35 267q38 -15 102 -15q75 0 118.5 30.5t54.5 115.5z" />
    <glyph glyph-name="Jcircumflex" unicode="&#x134;" horiz-adv-x="1099" 
d="M1372 1720h-285l-116 103l-137 -103h-297l284 226h328zM772 1597h332l-143 -1108q-35 -263 -156 -389.5t-361 -126.5q-259 0 -363.5 129t-72.5 377l8 66h316q-19 -154 5.5 -219.5t111.5 -65.5q88 0 126.5 55.5t57.5 200.5z" />
    <glyph glyph-name="jcircumflex" unicode="&#x135;" horiz-adv-x="544" 
d="M762 1221h-277l-125 170l-170 -170h-288l323 376h312zM8 -12l144 1097h323l-147 -1132q-51 -389 -451 -389q-119 0 -178 26l35 267q38 -15 102 -15q75 0 118 30.5t54 115.5z" />
    <glyph glyph-name="Kcommaaccent" unicode="&#x136;" horiz-adv-x="1280" 
d="M688 -90l-16 -117q-20 -140 -99 -198t-235 -58l14 113q155 0 183 71h-162l24 189h291zM555 1597l-84 -616l475 616h404l-535 -641l326 -956h-367l-205 659l-166 -198l-57 -461h-332l209 1597h332z" />
    <glyph glyph-name="kcommaaccent" unicode="&#x137;" horiz-adv-x="1150" 
d="M2 0l215 1638h324l-121 -917l346 364h389l-414 -411l273 -674h-365l-157 426l-127 -127l-39 -299h-324zM625 -90l-17 -117q-20 -140 -99 -198t-235 -58l15 113q154 0 182 71h-162l25 189h291z" />
    <glyph glyph-name="kgreenlandic" unicode="&#x138;" horiz-adv-x="1150" 
d="M145 1085h322l-47 -364l346 364h389l-414 -411l273 -674h-365l-157 426l-127 -127l-39 -299h-324z" />
    <glyph glyph-name="Lacute" unicode="&#x139;" horiz-adv-x="1067" 
d="M389 1946h338l-162 -226h-319zM936 0h-922l209 1597h332l-172 -1310h590z" />
    <glyph glyph-name="lacute" unicode="&#x13a;" horiz-adv-x="544" 
d="M10 0l215 1638h324l-215 -1638h-324z" />
    <glyph glyph-name="Lcommaaccent" unicode="&#x13b;" horiz-adv-x="1067" 
d="M606 -90l-16 -117q-20 -140 -99 -198t-235 -58l14 113q155 0 183 71h-162l24 189h291zM936 0h-922l209 1597h332l-172 -1310h590z" />
    <glyph glyph-name="lcommaaccent" unicode="&#x13c;" horiz-adv-x="544" 
d="M10 0l215 1638h324l-215 -1638h-324zM305 -90l-16 -117q-20 -140 -99 -198t-235 -58l14 113q155 0 183 71h-162l24 189h291z" />
    <glyph glyph-name="Lcaron" unicode="&#x13d;" horiz-adv-x="1067" 
d="M936 0h-922l209 1597h332l-172 -1310h590zM793 1638h194l-106 -417h-144z" />
    <glyph glyph-name="lcaron" unicode="&#x13e;" horiz-adv-x="544" 
d="M664 1638h194l-106 -417h-144zM10 0l215 1638h324l-215 -1638h-324z" />
    <glyph glyph-name="Ldot" unicode="&#x13f;" horiz-adv-x="1067" 
d="M936 0h-922l209 1597h332l-172 -1310h590zM1014 987l-45 -342h-342l45 342h342z" />
    <glyph glyph-name="ldot" unicode="&#x140;" horiz-adv-x="899" 
d="M10 0l215 1638h324l-215 -1638h-324zM911 889l-45 -342h-342l45 342h342z" />
    <glyph glyph-name="Lslash" unicode="&#x141;" horiz-adv-x="1189" 
d="M-27 385l37 277l228 104l108 831h332l-88 -667l395 182l-37 -274l-395 -185l-47 -366h590l-37 -287h-922l64 489z" />
    <glyph glyph-name="lslash" unicode="&#x142;" horiz-adv-x="786" 
d="M-2 389l35 273l198 116l113 860h324l-86 -657l223 131l-35 -272l-223 -131l-94 -709h-324l66 504z" />
    <glyph glyph-name="Nacute" unicode="&#x143;" horiz-adv-x="1398" 
d="M813 1946h338l-162 -226h-319zM223 1597h346l385 -991l35 332l86 659h318l-209 -1597h-346l-385 991l-35 -332l-86 -659h-318z" />
    <glyph glyph-name="nacute" unicode="&#x144;" horiz-adv-x="1187" 
d="M735 1597h352l-268 -376h-319zM989 0h-323l90 686q19 148 -121 148q-63 0 -118 -31t-87 -70l-96 -733h-324l103 780l20 305h289v-143q65 78 154 124t192 46q186 0 263 -103t54 -276z" />
    <glyph glyph-name="Ncommaaccent" unicode="&#x145;" horiz-adv-x="1398" 
d="M737 -90l-16 -117q-20 -140 -99 -198t-235 -58l14 113q155 0 183 71h-162l24 189h291zM223 1597h346l385 -991l35 332l86 659h318l-209 -1597h-346l-385 991l-35 -332l-86 -659h-318z" />
    <glyph glyph-name="ncommaaccent" unicode="&#x146;" horiz-adv-x="1187" 
d="M633 -90l-17 -117q-20 -140 -98.5 -198t-234.5 -58l14 113q154 0 182 71h-162l25 189h291zM989 0h-323l90 686q19 148 -121 148q-63 0 -118 -31t-87 -70l-96 -733h-324l103 780l20 305h289v-143q65 78 154 124t192 46q186 0 263 -103t54 -276z" />
    <glyph glyph-name="Ncaron" unicode="&#x147;" horiz-adv-x="1398" 
d="M442 1946h285l117 -103l137 103h297l-285 -226h-327zM223 1597h346l385 -991l35 332l86 659h318l-209 -1597h-346l-385 991l-35 -332l-86 -659h-318z" />
    <glyph glyph-name="ncaron" unicode="&#x148;" horiz-adv-x="1187" 
d="M279 1597h276l125 -170l170 170h289l-324 -376h-311zM989 0h-323l90 686q19 148 -121 148q-63 0 -118 -31t-87 -70l-96 -733h-324l103 780l20 305h289v-143q65 78 154 124t192 46q186 0 263 -103t54 -276z" />
    <glyph glyph-name="Eng" unicode="&#x14a;" horiz-adv-x="1398" 
d="M223 1597h346l385 -991l35 332l86 659h318l-215 -1644q-51 -389 -451 -389q-119 0 -178 26l35 267q38 -15 102 -15q68 0 110 25.5t58 93.5l-401 1030l-35 -332l-86 -659h-318z" />
    <glyph glyph-name="eng" unicode="&#x14b;" horiz-adv-x="1187" 
d="M1085 733l-102 -780q-51 -389 -451 -389q-120 0 -178 26l35 267q38 -15 103 -15q75 0 118 30.5t54 115.5l92 698q19 148 -121 148q-63 0 -118 -31t-87 -70l-96 -733h-324l103 780l20 305h289v-143q65 78 154 124t192 46q186 0 263 -103t54 -276z" />
    <glyph glyph-name="Omacron" unicode="&#x14c;" horiz-adv-x="1378" 
d="M510 1735l27 196h610l-27 -196h-610zM770 1624q318 0 453.5 -191t83.5 -602l-9 -65q-53 -418 -213 -605.5t-471 -187.5q-318 0 -453 191t-83 602l8 65q53 418 213 605.5t471 187.5zM612 260h21q146 0 220.5 125.5t107.5 380.5l8 65q20 162 13 274.5t-58.5 172
t-151.5 59.5h-20q-146 0 -220.5 -125.5t-107.5 -380.5l-8 -65q-20 -162 -13 -274.5t58 -172t151 -59.5z" />
    <glyph glyph-name="omacron" unicode="&#x14d;" horiz-adv-x="1138" 
d="M328 1268l37 282h614l-37 -282h-614zM506 252q91 0 143.5 61t69.5 191l10 78q35 252 -156 252q-91 0 -143.5 -61t-69.5 -191l-10 -78q-35 -252 156 -252zM496 -27q-174 0 -288.5 69.5t-158 187.5t-22.5 274l10 78q32 251 165.5 390.5t381.5 139.5q131 0 229.5 -39.5
t155 -110.5t78.5 -167.5t6 -212.5l-11 -78q-72 -531 -546 -531z" />
    <glyph glyph-name="Obreve" unicode="&#x14e;" horiz-adv-x="1378" 
d="M819 1690q-108 0 -181.5 20t-110.5 56.5t-50.5 80t-7.5 99.5h219q-2 -42 32 -62t107 -20q75 0 119 21t45 61h228q-7 -57 -28.5 -99.5t-64.5 -80t-120.5 -57t-186.5 -19.5zM770 1624q318 0 453.5 -191t83.5 -602l-9 -65q-53 -418 -213 -605.5t-471 -187.5q-318 0 -453 191
t-83 602l8 65q53 418 213 605.5t471 187.5zM612 260h21q146 0 220.5 125.5t107.5 380.5l8 65q20 162 13 274.5t-58.5 172t-151.5 59.5h-20q-146 0 -220.5 -125.5t-107.5 -380.5l-8 -65q-20 -162 -13 -274.5t58 -172t151 -59.5z" />
    <glyph glyph-name="obreve" unicode="&#x14f;" horiz-adv-x="1138" 
d="M625 1192q-204 0 -281 109t-49 296h227q-21 -159 131 -159q151 0 172 159h236q-22 -188 -127 -296.5t-309 -108.5zM506 252q91 0 143.5 61t69.5 191l10 78q35 252 -156 252q-91 0 -143.5 -61t-69.5 -191l-10 -78q-35 -252 156 -252zM496 -27q-174 0 -288.5 69.5
t-158 187.5t-22.5 274l10 78q32 251 165.5 390.5t381.5 139.5q131 0 229.5 -39.5t155 -110.5t78.5 -167.5t6 -212.5l-11 -78q-72 -531 -546 -531z" />
    <glyph glyph-name="Ohungarumlaut" unicode="&#x150;" horiz-adv-x="1378" 
d="M625 1946h305l-146 -226h-284zM983 1946h305l-162 -226h-284zM770 1624q318 0 453.5 -191t83.5 -602l-9 -65q-53 -418 -213 -605.5t-471 -187.5q-318 0 -453 191t-83 602l8 65q53 418 213 605.5t471 187.5zM612 260h21q146 0 220.5 125.5t107.5 380.5l8 65
q20 162 13 274.5t-58.5 172t-151.5 59.5h-20q-146 0 -220.5 -125.5t-107.5 -380.5l-8 -65q-20 -162 -13 -274.5t58 -172t151 -59.5z" />
    <glyph glyph-name="ohungarumlaut" unicode="&#x151;" horiz-adv-x="1138" 
d="M524 1597h287l-221 -376h-252zM901 1597h285l-268 -376h-252zM506 252q91 0 143.5 61t69.5 191l10 78q35 252 -156 252q-91 0 -143.5 -61t-69.5 -191l-10 -78q-35 -252 156 -252zM496 -27q-174 0 -288.5 69.5t-158 187.5t-22.5 274l10 78q32 251 165.5 390.5t381.5 139.5
q131 0 229.5 -39.5t155 -110.5t78.5 -167.5t6 -212.5l-11 -78q-72 -531 -546 -531z" />
    <glyph glyph-name="OE" unicode="&#x152;" horiz-adv-x="1929" 
d="M942 1311h-88q-204 0 -299.5 -110.5t-128.5 -369.5l-8 -65q-31 -249 28.5 -364t245.5 -115h115zM80 766l8 65q27 214 85 360.5t154.5 236.5t225 129.5t305.5 39.5h1098l-37 -286h-645l-47 -353h542l-36 -286h-543l-51 -385h645l-37 -287h-1071q-235 0 -375.5 73.5
t-198 244t-22.5 448.5z" />
    <glyph glyph-name="oe" unicode="&#x153;" horiz-adv-x="1830" 
d="M1724 426h-698q-25 -207 182 -207q182 0 201 129h305l-4 -31q-21 -154 -149.5 -249t-352.5 -95q-263 0 -364 144q-110 -144 -348 -144q-174 0 -288.5 69.5t-158 187.5t-22.5 274l10 78q32 251 165.5 390.5t381.5 139.5q249 0 346 -147q115 147 350 147q139 0 237.5 -44
t149.5 -122t70 -186.5t0 -237.5zM506 252q91 0 143.5 61t69.5 191l10 78q35 252 -156 252q-91 0 -143.5 -61t-69.5 -191l-10 -78q-35 -252 156 -252zM1280 866q-89 0 -147 -52t-76 -155h375q15 207 -152 207z" />
    <glyph glyph-name="Racute" unicode="&#x154;" horiz-adv-x="1275" 
d="M719 1946h338l-162 -226h-320zM422 573l-76 -573h-332l209 1597h539q541 0 477 -495l-6 -47q-49 -346 -309 -441l170 -614h-349l-141 573h-182zM457 860h209q206 0 233 203l4 31q7 52 -1 91.5t-25.5 63t-44.5 38t-53 19.5t-56 5h-205z" />
    <glyph glyph-name="racute" unicode="&#x155;" horiz-adv-x="788" 
d="M551 1597h352l-268 -376h-320zM737 1112l29 -2l-43 -332h-27q-102 0 -170.5 -26t-101.5 -66l-90 -686h-324l103 780l20 305h289v-143q114 170 315 170z" />
    <glyph glyph-name="Rcommaaccent" unicode="&#x156;" horiz-adv-x="1275" 
d="M684 -90l-16 -117q-20 -140 -99 -198t-235 -58l14 113q154 0 182 71h-161l24 189h291zM422 573l-76 -573h-332l209 1597h539q541 0 477 -495l-6 -47q-49 -346 -309 -441l170 -614h-349l-141 573h-182zM457 860h209q206 0 233 203l4 31q7 52 -1 91.5t-25.5 63t-44.5 38
t-53 19.5t-56 5h-205z" />
    <glyph glyph-name="rcommaaccent" unicode="&#x157;" horiz-adv-x="788" 
d="M307 -90l-16 -117q-20 -140 -99 -198t-235 -58l14 113q155 0 183 71h-162l24 189h291zM737 1112l29 -2l-43 -332h-27q-102 0 -170.5 -26t-101.5 -66l-90 -686h-324l103 780l20 305h289v-143q114 170 315 170z" />
    <glyph glyph-name="Rcaron" unicode="&#x158;" horiz-adv-x="1275" 
d="M348 1946h285l117 -103l137 103h297l-285 -226h-328zM422 573l-76 -573h-332l209 1597h539q541 0 477 -495l-6 -47q-49 -346 -309 -441l170 -614h-349l-141 573h-182zM457 860h209q206 0 233 203l4 31q7 52 -1 91.5t-25.5 63t-44.5 38t-53 19.5t-56 5h-205z" />
    <glyph glyph-name="rcaron" unicode="&#x159;" horiz-adv-x="788" 
d="M94 1597h277l125 -170l170 170h288l-323 -376h-312zM737 1112l29 -2l-43 -332h-27q-102 0 -170.5 -26t-101.5 -66l-90 -686h-324l103 780l20 305h289v-143q114 170 315 170z" />
    <glyph glyph-name="Sacute" unicode="&#x15a;" horiz-adv-x="1292" 
d="M754 1946h338l-162 -226h-320zM571 670q-252 46 -360 164t-84 296l6 48q29 220 175 333t394 113q315 0 450 -138t99 -407l-6 -47h-332q21 158 -26 231.5t-182 73.5h-21q-86 0 -145 -42t-68 -115l-4 -31q-10 -77 46.5 -129t217.5 -82q248 -46 363 -164.5t90 -306.5l-6 -47
q-29 -221 -180 -334t-406 -113q-303 0 -448 134.5t-111 390.5l6 47h332q-21 -147 38 -216t181 -69h20q209 0 230 158l4 31q11 83 -49.5 136.5t-223.5 84.5z" />
    <glyph glyph-name="sacute" unicode="&#x15b;" horiz-adv-x="1081" 
d="M676 1597h352l-268 -376h-320zM547 664q81 -9 142.5 -23.5t117.5 -40.5t90 -62t49.5 -91t5.5 -125l-4 -31q-21 -150 -143.5 -234t-335.5 -84q-251 0 -365 88.5t-92 251.5l4 31h322q-9 -59 26 -92t115 -33q78 0 114 32t36 87q0 44 -33 66.5t-115 31.5q-222 26 -320 104
t-77 232l4 31q14 105 80.5 176t164.5 102t224 31q245 0 353.5 -91t84.5 -261l-4 -31h-317q9 68 -19.5 102.5t-107.5 34.5q-68 0 -108 -30t-40 -82q0 -41 33 -62t115 -28z" />
    <glyph glyph-name="Scircumflex" unicode="&#x15c;" horiz-adv-x="1292" 
d="M1188 1720h-285l-117 103l-137 -103h-297l285 226h328zM571 670q-252 46 -360 164t-84 296l6 48q29 220 175 333t394 113q315 0 450 -138t99 -407l-6 -47h-332q21 158 -26 231.5t-182 73.5h-21q-86 0 -145 -42t-68 -115l-4 -31q-10 -77 46.5 -129t217.5 -82
q248 -46 363 -164.5t90 -306.5l-6 -47q-29 -221 -180 -334t-406 -113q-303 0 -448 134.5t-111 390.5l6 47h332q-21 -147 38 -216t181 -69h20q209 0 230 158l4 31q11 83 -49.5 136.5t-223.5 84.5z" />
    <glyph glyph-name="scircumflex" unicode="&#x15d;" horiz-adv-x="1081" 
d="M1030 1221h-276l-125 170l-170 -170h-289l324 376h311zM547 664q81 -9 142.5 -23.5t117.5 -40.5t90 -62t49.5 -91t5.5 -125l-4 -31q-21 -150 -143.5 -234t-335.5 -84q-251 0 -365 88.5t-92 251.5l4 31h322q-9 -59 26 -92t115 -33q78 0 114 32t36 87q0 44 -33 66.5
t-115 31.5q-222 26 -320 104t-77 232l4 31q14 105 80.5 176t164.5 102t224 31q245 0 353.5 -91t84.5 -261l-4 -31h-317q9 68 -19.5 102.5t-107.5 34.5q-68 0 -108 -30t-40 -82q0 -41 33 -62t115 -28z" />
    <glyph glyph-name="Scedilla" unicode="&#x15e;" horiz-adv-x="1292" 
d="M571 670q-252 46 -360 164t-84 296l6 48q29 220 175 333t394 113q315 0 450 -138t99 -407l-6 -47h-332q21 158 -26 231.5t-182 73.5h-21q-86 0 -145 -42t-68 -115l-4 -31q-10 -77 46.5 -129t217.5 -82q248 -46 363 -164.5t90 -306.5l-6 -47q-29 -217 -177 -330.5
t-397 -116.5l-29 -55q185 -14 185 -160q0 -91 -70.5 -144.5t-187.5 -53.5q-153 0 -228 51l66 135q54 -35 152 -35q94 0 94 51q0 43 -92 43q-16 0 -36 -2.5t-32 -4.5l-12 -3l-23 58l70 129q-237 26 -347 158t-81 358l6 47h332q-21 -147 38 -216t181 -69h20q209 0 230 158
l4 31q11 83 -49.5 136.5t-223.5 84.5z" />
    <glyph glyph-name="scedilla" unicode="&#x15f;" horiz-adv-x="1081" 
d="M547 664q81 -9 142.5 -23.5t117.5 -40.5t90 -62t49.5 -91t5.5 -125l-4 -31q-21 -142 -132 -224.5t-304 -91.5l-29 -57q185 -14 185 -160q0 -91 -70.5 -144.5t-187.5 -53.5q-153 0 -228 51l66 135q54 -35 151 -35q95 0 95 51q0 43 -93 43q-16 0 -36 -2.5t-31 -4.5l-12 -3
l-23 58l68 127q-197 17 -285.5 102.5t-69.5 230.5l4 31h322q-9 -59 26 -92t115 -33q78 0 114 32t36 87q0 44 -33 66.5t-115 31.5q-222 26 -320 104t-77 232l4 31q14 105 80.5 176t164.5 102t224 31q245 0 353.5 -91t84.5 -261l-4 -31h-317q9 68 -19.5 102.5t-107.5 34.5
q-68 0 -108 -30t-40 -82q0 -41 33 -62t115 -28z" />
    <glyph glyph-name="Scaron" unicode="&#x160;" horiz-adv-x="1292" 
d="M383 1946h285l116 -103l138 103h297l-285 -226h-328zM571 670q-252 46 -360 164t-84 296l6 48q29 220 175 333t394 113q315 0 450 -138t99 -407l-6 -47h-332q21 158 -26 231.5t-182 73.5h-21q-86 0 -145 -42t-68 -115l-4 -31q-10 -77 46.5 -129t217.5 -82
q248 -46 363 -164.5t90 -306.5l-6 -47q-29 -221 -180 -334t-406 -113q-303 0 -448 134.5t-111 390.5l6 47h332q-21 -147 38 -216t181 -69h20q209 0 230 158l4 31q11 83 -49.5 136.5t-223.5 84.5z" />
    <glyph glyph-name="scaron" unicode="&#x161;" horiz-adv-x="1081" 
d="M219 1597h277l125 -170l170 170h288l-323 -376h-312zM547 664q81 -9 142.5 -23.5t117.5 -40.5t90 -62t49.5 -91t5.5 -125l-4 -31q-21 -150 -143.5 -234t-335.5 -84q-251 0 -365 88.5t-92 251.5l4 31h322q-9 -59 26 -92t115 -33q78 0 114 32t36 87q0 44 -33 66.5
t-115 31.5q-222 26 -320 104t-77 232l4 31q14 105 80.5 176t164.5 102t224 31q245 0 353.5 -91t84.5 -261l-4 -31h-317q9 68 -19.5 102.5t-107.5 34.5q-68 0 -108 -30t-40 -82q0 -41 33 -62t115 -28z" />
    <glyph glyph-name="Tcommaaccent" unicode="&#x162;" horiz-adv-x="1140" 
d="M602 -90l-16 -117q-20 -140 -99 -198t-235 -58l14 113q155 0 183 71h-162l24 189h291zM807 1311l-172 -1311h-332l172 1311h-369l37 286h1071l-36 -286h-371z" />
    <glyph glyph-name="tcommaaccent" unicode="&#x163;" horiz-adv-x="882" 
d="M545 -90l-17 -117q-20 -140 -98.5 -198t-234.5 -58l14 113q154 0 182 71h-162l25 189h291zM569 1085h279l-37 -282h-279l-53 -404q-10 -76 19 -111.5t118 -35.5q27 0 61.5 4.5t43.5 9.5l-35 -266q-54 -27 -154 -27q-119 0 -201 28t-123.5 80.5t-55 119t-2.5 151.5l59 451
h-168l37 282h168l41 308h323z" />
    <glyph glyph-name="Tcaron" unicode="&#x164;" horiz-adv-x="1140" 
d="M307 1946h285l117 -103l137 103h297l-285 -226h-328zM807 1311l-172 -1311h-332l172 1311h-369l37 286h1071l-36 -286h-371z" />
    <glyph glyph-name="tcaron" unicode="&#x165;" horiz-adv-x="882" 
d="M758 1638h194l-106 -417h-144zM569 1085h279l-37 -282h-279l-53 -404q-10 -76 19 -111.5t118 -35.5q27 0 61.5 4.5t43.5 9.5l-35 -266q-54 -27 -154 -27q-119 0 -201 28t-123.5 80.5t-55 119t-2.5 151.5l59 451h-168l37 282h168l41 308h323z" />
    <glyph glyph-name="Tbar" unicode="&#x166;" horiz-adv-x="1140" 
d="M807 1311l-49 -371h243l-32 -248h-244l-90 -692h-332l90 692h-243l32 248h244l49 371h-369l37 286h1071l-36 -286h-371z" />
    <glyph glyph-name="tbar" unicode="&#x167;" horiz-adv-x="882" 
d="M27 426l30 229h131l21 148h-168l37 282h168l41 308h323l-41 -308h279l-37 -282h-279l-20 -148h197l-31 -229h-197l-2 -27q-10 -76 19 -111.5t118 -35.5q27 0 61.5 4.5t43.5 9.5l-35 -266q-54 -27 -154 -27q-119 0 -201 28t-123.5 80.5t-55 119t-2.5 151.5l8 74h-131z" />
    <glyph glyph-name="Utilde" unicode="&#x168;" horiz-adv-x="1357" 
d="M1036 1939h174q-13 -126 -77 -184.5t-156 -58.5q-56 0 -115 24.5t-108 49t-80 24.5q-71 0 -76 -68h-174q13 126 77 185t156 59q56 0 115.5 -24.5t108.5 -49t80 -24.5q70 0 75 67zM600 -27q-318 0 -441.5 132.5t-88.5 400.5l143 1091h332l-142 -1081q-18 -133 26 -194.5
t179 -61.5q137 0 200 61t81 195l141 1081h332l-143 -1091q-18 -136 -55.5 -230.5t-108 -165t-183 -104t-272.5 -33.5z" />
    <glyph glyph-name="utilde" unicode="&#x169;" horiz-adv-x="1187" 
d="M889 1581h215q-13 -160 -87 -243t-171 -83q-47 0 -96.5 16.5t-83.5 37t-73 37t-67 16.5t-48.5 -19.5t-20.5 -56.5h-215q13 160 87 243t171 83q47 0 96.5 -16.5t83.5 -37t72.5 -37t66.5 -16.5t49 19.5t21 56.5zM139 1085h324l-90 -686q-19 -147 121 -147q63 0 118 30.5
t86 69.5l97 733h323l-102 -780l-21 -305h-288v143q-65 -77 -154.5 -123.5t-192.5 -46.5q-186 0 -263 103t-54 276z" />
    <glyph glyph-name="Umacron" unicode="&#x16a;" horiz-adv-x="1357" 
d="M500 1735l26 196h611l-27 -196h-610zM600 -27q-318 0 -441.5 132.5t-88.5 400.5l143 1091h332l-142 -1081q-18 -133 26 -194.5t179 -61.5q137 0 200 61t81 195l141 1081h332l-143 -1091q-18 -136 -55.5 -230.5t-108 -165t-183 -104t-272.5 -33.5z" />
    <glyph glyph-name="umacron" unicode="&#x16b;" horiz-adv-x="1187" 
d="M344 1268l37 282h614l-37 -282h-614zM139 1085h324l-90 -686q-19 -147 121 -147q63 0 118 30.5t86 69.5l97 733h323l-102 -780l-21 -305h-288v143q-65 -77 -154.5 -123.5t-192.5 -46.5q-186 0 -263 103t-54 276z" />
    <glyph glyph-name="Ubreve" unicode="&#x16c;" horiz-adv-x="1357" 
d="M809 1690q-108 0 -181.5 20t-110.5 56.5t-50.5 80t-7.5 99.5h219q-2 -42 32 -62t107 -20q75 0 119 21t45 61h227q-7 -57 -28 -99.5t-64.5 -80t-120.5 -57t-186 -19.5zM600 -27q-318 0 -441.5 132.5t-88.5 400.5l143 1091h332l-142 -1081q-18 -133 26 -194.5t179 -61.5
q137 0 200 61t81 195l141 1081h332l-143 -1091q-18 -136 -55.5 -230.5t-108 -165t-183 -104t-272.5 -33.5z" />
    <glyph glyph-name="ubreve" unicode="&#x16d;" horiz-adv-x="1187" 
d="M641 1192q-204 0 -281 109t-49 296h228q-21 -159 131 -159q151 0 172 159h235q-22 -188 -127 -296.5t-309 -108.5zM139 1085h324l-90 -686q-19 -147 121 -147q63 0 118 30.5t86 69.5l97 733h323l-102 -780l-21 -305h-288v143q-65 -77 -154.5 -123.5t-192.5 -46.5
q-186 0 -263 103t-54 276z" />
    <glyph glyph-name="Uring" unicode="&#x16e;" horiz-adv-x="1357" 
d="M1024 1782q0 -102 -70.5 -171t-169.5 -69q-85 0 -140.5 54.5t-55.5 136.5q0 102 70 170.5t169 68.5q85 0 141 -54t56 -136zM911 1767q0 41 -27 68t-67 27q-50 0 -83.5 -32.5t-33.5 -82.5q0 -41 27.5 -67.5t67.5 -26.5q50 0 83 32t33 82zM600 -27q-318 0 -441.5 132.5
t-88.5 400.5l143 1091h332l-142 -1081q-18 -133 26 -194.5t179 -61.5q137 0 200 61t81 195l141 1081h332l-143 -1091q-18 -136 -55.5 -230.5t-108 -165t-183 -104t-272.5 -33.5z" />
    <glyph glyph-name="uring" unicode="&#x16f;" horiz-adv-x="1187" 
d="M889 1434q0 -102 -70.5 -171t-169.5 -69q-85 0 -140.5 54t-55.5 136q0 102 70 171t169 69q85 0 141 -54t56 -136zM776 1419q0 41 -27 67.5t-67 26.5q-50 0 -83.5 -32t-33.5 -82q0 -41 27 -67.5t67 -26.5q50 0 83.5 32t33.5 82zM139 1085h324l-90 -686q-19 -147 121 -147
q63 0 118 30.5t86 69.5l97 733h323l-102 -780l-21 -305h-288v143q-65 -77 -154.5 -123.5t-192.5 -46.5q-186 0 -263 103t-54 276z" />
    <glyph glyph-name="Uhungarumlaut" unicode="&#x170;" horiz-adv-x="1357" 
d="M614 1946h306l-146 -226h-285zM973 1946h305l-162 -226h-285zM600 -27q-318 0 -441.5 132.5t-88.5 400.5l143 1091h332l-142 -1081q-18 -133 26 -194.5t179 -61.5q137 0 200 61t81 195l141 1081h332l-143 -1091q-18 -136 -55.5 -230.5t-108 -165t-183 -104t-272.5 -33.5z
" />
    <glyph glyph-name="uhungarumlaut" unicode="&#x171;" horiz-adv-x="1187" 
d="M541 1597h286l-221 -376h-252zM918 1597h284l-268 -376h-252zM139 1085h324l-90 -686q-19 -147 121 -147q63 0 118 30.5t86 69.5l97 733h323l-102 -780l-21 -305h-288v143q-65 -77 -154.5 -123.5t-192.5 -46.5q-186 0 -263 103t-54 276z" />
    <glyph glyph-name="Uogonek" unicode="&#x172;" horiz-adv-x="1357" 
d="M844 0q-57 -14 -102.5 -55.5t-45.5 -98.5q0 -29 21 -45t59 -16q48 0 88 22l47 -196q-35 -21 -93 -36t-113 -15q-125 0 -193 48.5t-68 145.5q0 118 93 221q-282 12 -391 143.5t-76 387.5l143 1091h332l-142 -1081q-18 -133 26 -194.5t179 -61.5q137 0 200 61t81 195
l141 1081h332l-143 -1091q-28 -214 -113 -338t-262 -168z" />
    <glyph glyph-name="uogonek" unicode="&#x173;" horiz-adv-x="1187" 
d="M139 1085h324l-90 -686q-19 -147 121 -147q63 0 118 30.5t86 69.5l97 733h323l-102 -780l-21 -305q-59 -17 -103 -57.5t-44 -96.5q0 -29 21 -45t59 -16q48 0 88 22l47 -196q-35 -21 -93.5 -36t-113.5 -15q-125 0 -192.5 48t-67.5 146q0 134 111 240v149
q-65 -77 -154.5 -123.5t-192.5 -46.5q-186 0 -263 103t-54 276z" />
    <glyph glyph-name="Wcircumflex" unicode="&#x174;" horiz-adv-x="1918" 
d="M1501 1720h-284l-117 103l-137 -103h-297l284 226h328zM1083 -4l-57 1202l-358 -1202h-461l-60 1601h324l37 -1144l342 1144h436l55 -1146l326 1146h322l-478 -1601h-428z" />
    <glyph glyph-name="wcircumflex" unicode="&#x175;" horiz-adv-x="1568" 
d="M1274 1221h-277l-125 170l-170 -170h-288l323 376h312zM782 748l-247 -748h-416l-39 1085h307l-4 -735l246 735h393l57 -735l178 735h314l-326 -1085h-407z" />
    <glyph glyph-name="Ycircumflex" unicode="&#x176;" horiz-adv-x="1280" 
d="M1184 1720h-285l-117 103l-137 -103h-297l285 226h328zM770 489l-63 -489h-332l63 489l-313 1108h356l170 -702l353 702h368z" />
    <glyph glyph-name="ycircumflex" unicode="&#x177;" horiz-adv-x="1128" 
d="M1057 1221h-277l-125 170l-170 -170h-288l323 376h311zM514 393l293 692h358l-518 -1028l-201 -467h-385l236 467l-246 1028h346z" />
    <glyph glyph-name="Ydieresis" unicode="&#x178;" horiz-adv-x="1280" 
d="M752 1935l-27 -204h-272l26 204h273zM1110 1935l-27 -204h-272l27 204h272zM770 489l-63 -489h-332l63 489l-313 1108h356l170 -702l353 702h368z" />
    <glyph glyph-name="Zacute" unicode="&#x179;" horiz-adv-x="1226" 
d="M719 1946h338l-162 -226h-320zM8 221l785 1096l-293 -6h-328l37 286h1022l-29 -221l-784 -1095l291 6h370l-37 -287h-1062z" />
    <glyph glyph-name="zacute" unicode="&#x17a;" horiz-adv-x="1021" 
d="M643 1597h352l-268 -376h-319zM-25 221l549 588l-227 -6h-225l37 282h882l-28 -221l-549 -588l227 7h266l-37 -283h-923z" />
    <glyph glyph-name="Zdotaccent" unicode="&#x17b;" horiz-adv-x="1226" 
d="M899 1935l-27 -204h-272l27 204h272zM8 221l785 1096l-293 -6h-328l37 286h1022l-29 -221l-784 -1095l291 6h370l-37 -287h-1062z" />
    <glyph glyph-name="zdotaccent" unicode="&#x17c;" horiz-adv-x="1021" 
d="M786 1581l-45 -342h-342l45 342h342zM-25 221l549 588l-227 -6h-225l37 282h882l-28 -221l-549 -588l227 7h266l-37 -283h-923z" />
    <glyph glyph-name="Zcaron" unicode="&#x17d;" horiz-adv-x="1226" 
d="M348 1946h285l117 -103l137 103h297l-285 -226h-328zM8 221l785 1096l-293 -6h-328l37 286h1022l-29 -221l-784 -1095l291 6h370l-37 -287h-1062z" />
    <glyph glyph-name="zcaron" unicode="&#x17e;" horiz-adv-x="1021" 
d="M186 1597h277l125 -170l170 170h289l-324 -376h-311zM-25 221l549 588l-227 -6h-225l37 282h882l-28 -221l-549 -588l227 7h266l-37 -283h-923z" />
    <glyph glyph-name="Scommaaccent" unicode="&#x218;" horiz-adv-x="1292" 
d="M678 -90l-16 -117q-20 -140 -99 -198t-235 -58l14 113q154 0 182 71h-162l25 189h291zM571 670q-252 46 -360 164t-84 296l6 48q29 220 175 333t394 113q315 0 450 -138t99 -407l-6 -47h-332q21 158 -26 231.5t-182 73.5h-21q-86 0 -145 -42t-68 -115l-4 -31
q-10 -77 46.5 -129t217.5 -82q248 -46 363 -164.5t90 -306.5l-6 -47q-29 -221 -180 -334t-406 -113q-303 0 -448 134.5t-111 390.5l6 47h332q-21 -147 38 -216t181 -69h20q209 0 230 158l4 31q11 83 -49.5 136.5t-223.5 84.5z" />
    <glyph glyph-name="scommaaccent" unicode="&#x219;" horiz-adv-x="1081" 
d="M573 -90l-16 -117q-20 -140 -99 -198t-235 -58l15 113q154 0 182 71h-162l25 189h290zM547 664q81 -9 142.5 -23.5t117.5 -40.5t90 -62t49.5 -91t5.5 -125l-4 -31q-21 -150 -143.5 -234t-335.5 -84q-251 0 -365 88.5t-92 251.5l4 31h322q-9 -59 26 -92t115 -33
q78 0 114 32t36 87q0 44 -33 66.5t-115 31.5q-222 26 -320 104t-77 232l4 31q14 105 80.5 176t164.5 102t224 31q245 0 353.5 -91t84.5 -261l-4 -31h-317q9 68 -19.5 102.5t-107.5 34.5q-68 0 -108 -30t-40 -82q0 -41 33 -62t115 -28z" />
    <glyph glyph-name="Ymacron" unicode="&#x232;" horiz-adv-x="1280" 
d="M463 1735l26 196h611l-27 -196h-610zM770 489l-63 -489h-332l63 489l-313 1108h356l170 -702l353 702h368z" />
    <glyph glyph-name="ymacron" unicode="&#x233;" horiz-adv-x="1128" 
d="M326 1268l36 282h615l-37 -282h-614zM514 393l293 692h358l-518 -1028l-201 -467h-385l236 467l-246 1028h346z" />
    <glyph glyph-name="dotlessj" unicode="&#x237;" horiz-adv-x="548" 
d="M8 -12l144 1097h323l-147 -1132q-51 -389 -451 -389q-119 0 -178 26l35 267q38 -15 102 -15q75 0 118 30.5t54 115.5z" />
    <glyph glyph-name="circumflex" unicode="&#x2c6;" horiz-adv-x="1024" 
d="M1001 1221h-276l-125 170l-170 -170h-289l324 376h311z" />
    <glyph glyph-name="caron" unicode="&#x2c7;" horiz-adv-x="1024" 
d="M190 1597h277l125 -170l170 170h289l-324 -376h-311z" />
    <glyph glyph-name="breve" unicode="&#x2d8;" horiz-adv-x="1024" 
d="M567 1192q-105 0 -177.5 30.5t-107.5 84.5t-47.5 128.5t3.5 161.5h227q-21 -159 131 -159q151 0 172 159h236q-22 -188 -127.5 -296.5t-309.5 -108.5z" />
    <glyph glyph-name="dotaccent" unicode="&#x2d9;" horiz-adv-x="1024" 
d="M791 1581l-46 -342h-342l46 342h342z" />
    <glyph glyph-name="ring" unicode="&#x2da;" horiz-adv-x="1024" 
d="M815 1434q0 -102 -70.5 -171t-169.5 -69q-85 0 -140.5 54t-55.5 136q0 102 70 171t169 69q85 0 141 -54t56 -136zM702 1419q0 41 -27 67.5t-67 26.5q-50 0 -83 -32t-33 -82q0 -41 27 -67.5t67 -26.5q50 0 83 32t33 82z" />
    <glyph glyph-name="ogonek" unicode="&#x2db;" horiz-adv-x="1232" 
d="M498 0q-59 -17 -103.5 -57.5t-44.5 -96.5q0 -29 21 -45t59 -16q48 0 88 22l47 -196q-35 -21 -93.5 -36t-113.5 -15q-125 0 -192.5 48t-67.5 146q0 70 32 134t84.5 111t115 81.5t129.5 54.5z" />
    <glyph glyph-name="tilde" unicode="&#x2dc;" horiz-adv-x="1024" 
d="M815 1581h215q-13 -160 -87 -243t-171 -83q-47 0 -96.5 16.5t-83.5 37t-72.5 37t-66.5 16.5t-49 -19.5t-21 -56.5h-215q13 160 87 243t171 83q47 0 96.5 -16.5t83.5 -37t72.5 -37t66.5 -16.5t49 19.5t21 56.5z" />
    <glyph glyph-name="hungarumlaut" unicode="&#x2dd;" horiz-adv-x="1024" 
d="M467 1597h287l-222 -376h-251zM844 1597h284l-268 -376h-252z" />
    <glyph glyph-name="Bdotaccent" unicode="&#x1e02;" horiz-adv-x="1292" 
d="M899 1935l-27 -204h-272l27 204h272zM223 1597h529q81 0 148 -10.5t132 -40.5t106 -77.5t60.5 -127t5.5 -184.5l-6 -47q-15 -119 -63.5 -185.5t-141.5 -99.5q95 -32 137 -120t25 -220l-6 -47q-11 -82 -35.5 -147.5t-56.5 -110.5t-77.5 -78.5t-91.5 -52.5t-105 -30.5
t-110.5 -15t-115.5 -3.5h-543zM659 672h-227l-49 -385h219q43 0 75 6.5t63 23.5t51 52.5t26 87.5l4 30q13 98 -32.5 141.5t-129.5 43.5zM713 1311h-195l-47 -350h197q177 0 196 157l4 31q11 86 -34 124t-121 38z" />
    <glyph glyph-name="bdotaccent" unicode="&#x1e03;" horiz-adv-x="1175" 
d="M545 1638l-84 -639q98 113 280 113q203 0 292.5 -141t56.5 -389l-11 -78q-16 -120 -50.5 -215.5t-89.5 -167t-136.5 -110t-184.5 -38.5q-111 0 -186.5 43t-114.5 117l-36 -133h-291l57 307l174 1331h324zM543 252q182 0 213 252l10 78q17 124 -22 188t-130 64
q-48 0 -89 -19t-59 -37t-40 -45l-49 -375q20 -41 61 -73.5t105 -32.5zM557 1935l-27 -204h-272l27 204h272z" />
    <glyph glyph-name="Ddotaccent" unicode="&#x1e0a;" horiz-adv-x="1357" 
d="M930 1935l-27 -204h-272l26 204h273zM1286 831l-8 -65q-27 -214 -85 -360.5t-154.5 -236.5t-225 -129.5t-305.5 -39.5h-494l209 1597h467q235 0 375.5 -73.5t198 -244t22.5 -448.5zM383 287h129q204 0 299.5 110t128.5 369l8 65q31 249 -28.5 364.5t-245.5 115.5h-156z
" />
    <glyph glyph-name="ddotaccent" unicode="&#x1e0b;" horiz-adv-x="1191" 
d="M389 -27q-203 0 -292 141.5t-56 389.5l10 78q16 120 50.5 215t89.5 166.5t136.5 110t184.5 38.5q104 0 175 -37t101 -84l86 647h324l-176 -1333l-21 -305h-288v143q-104 -170 -324 -170zM588 834q-182 0 -213 -252l-10 -78q-17 -124 21.5 -188t129.5 -64q110 0 189 100
l49 375q-20 41 -61 74t-105 33zM1210 1935l-26 -204h-273l27 204h272z" />
    <glyph glyph-name="Fdotaccent" unicode="&#x1e1e;" horiz-adv-x="1124" 
d="M895 1935l-27 -204h-272l27 204h272zM223 1597h969l-37 -286h-637l-47 -353h535l-37 -286h-535l-88 -672h-332z" />
    <glyph glyph-name="fdotaccent" unicode="&#x1e1f;" horiz-adv-x="841" 
d="M590 1241l-21 -156h238l-37 -282h-238l-104 -803h-324l105 803h-168l37 282h168l24 191q51 389 451 389q117 0 178 -27l-35 -266q-35 14 -102 14q-75 0 -118 -30t-54 -115zM788 1935l-26 -204h-273l27 204h272z" />
    <glyph glyph-name="Mdotaccent" unicode="&#x1e40;" horiz-adv-x="1779" 
d="M1180 1935l-27 -204h-272l26 204h273zM1378 1022l-420 -1022h-337l-152 1022l-37 -363l-86 -659h-332l209 1597h484l145 -1022l414 1022h510l-209 -1597h-332l86 659z" />
    <glyph glyph-name="mdotaccent" unicode="&#x1e41;" horiz-adv-x="1767" 
d="M1169 1581l-45 -342h-342l45 342h342zM1049 750l-99 -750h-323l92 702q8 64 -22 98t-95 34q-54 0 -98.5 -25t-71.5 -59l-98 -750h-324l103 780l20 305h289v-122q119 149 319 149q107 0 179 -44t106 -120q65 85 145 124.5t187 39.5q168 0 248 -103t59 -259l-98 -750h-324
l92 702q8 64 -21.5 98t-94.5 34q-54 0 -98.5 -25t-71.5 -59z" />
    <glyph glyph-name="Pdotaccent" unicode="&#x1e56;" horiz-adv-x="1247" 
d="M889 1935l-27 -204h-272l26 204h273zM422 573l-76 -573h-332l209 1597h539q541 0 477 -495l-6 -47q-12 -88 -38 -159t-60 -120.5t-80 -86.5t-93 -59t-105 -35t-109.5 -17.5t-112.5 -4.5h-213zM457 860h209q206 0 233 203l4 31q7 52 -1 91.5t-25.5 63t-44.5 38t-53 19.5
t-56 5h-205z" />
    <glyph glyph-name="pdotaccent" unicode="&#x1e57;" horiz-adv-x="1175" 
d="M889 1581l-45 -342h-342l45 342h342zM274 -410h-323l158 1190l20 305h289v-143q104 170 323 170q203 0 292.5 -141t56.5 -389l-11 -78q-16 -120 -50.5 -215.5t-89.5 -167t-136.5 -110t-184.5 -38.5q-104 0 -175 37t-101 84zM543 252q182 0 213 252l10 78q17 124 -22 188
t-130 64q-48 0 -89 -19t-59 -37t-40 -45l-49 -375q20 -41 61 -73.5t105 -32.5z" />
    <glyph glyph-name="Tdotaccent" unicode="&#x1e6a;" horiz-adv-x="1140" 
d="M858 1935l-27 -204h-272l27 204h272zM807 1311l-172 -1311h-332l172 1311h-369l37 286h1071l-36 -286h-371z" />
    <glyph glyph-name="tdotaccent" unicode="&#x1e6b;" horiz-adv-x="882" 
d="M569 1085h279l-37 -282h-279l-53 -404q-10 -76 19 -111.5t118 -35.5q27 0 61.5 4.5t43.5 9.5l-35 -266q-54 -27 -154 -27q-119 0 -201 28t-123.5 80.5t-55 119t-2.5 151.5l59 451h-168l37 282h168l41 308h323zM621 1690l-27 -205h-272l26 205h273z" />
    <glyph glyph-name="Wgrave" unicode="&#x1e80;" horiz-adv-x="1918" 
d="M823 1946h338l82 -226h-319zM1083 -4l-57 1202l-358 -1202h-461l-60 1601h324l37 -1144l342 1144h436l55 -1146l326 1146h322l-478 -1601h-428z" />
    <glyph glyph-name="wgrave" unicode="&#x1e81;" horiz-adv-x="1568" 
d="M514 1597h352l138 -376h-320zM782 748l-247 -748h-416l-39 1085h307l-4 -735l246 735h393l57 -735l178 735h314l-326 -1085h-407z" />
    <glyph glyph-name="Wacute" unicode="&#x1e82;" horiz-adv-x="1918" 
d="M1067 1946h338l-162 -226h-319zM1083 -4l-57 1202l-358 -1202h-461l-60 1601h324l37 -1144l342 1144h436l55 -1146l326 1146h322l-478 -1601h-428z" />
    <glyph glyph-name="wacute" unicode="&#x1e83;" horiz-adv-x="1568" 
d="M920 1597h352l-268 -376h-320zM782 748l-247 -748h-416l-39 1085h307l-4 -735l246 735h393l57 -735l178 735h314l-326 -1085h-407z" />
    <glyph glyph-name="Wdieresis" unicode="&#x1e84;" horiz-adv-x="1918" 
d="M1069 1935l-27 -204h-272l27 204h272zM1427 1935l-26 -204h-273l27 204h272zM1083 -4l-57 1202l-358 -1202h-461l-60 1601h324l37 -1144l342 1144h436l55 -1146l326 1146h322l-478 -1601h-428z" />
    <glyph glyph-name="wdieresis" unicode="&#x1e85;" horiz-adv-x="1568" 
d="M842 1581l-45 -342h-342l45 342h342zM1282 1581l-45 -342h-342l45 342h342zM782 748l-247 -748h-416l-39 1085h307l-4 -735l246 735h393l57 -735l178 735h314l-326 -1085h-407z" />
    <glyph glyph-name="Eszett" unicode="&#x1e9e;" horiz-adv-x="1648" 
d="M641 909l305 424q-50 4 -86 4q-184 0 -274.5 -63t-108.5 -193l-141 -1081h-332l143 1092q17 135 62 230.5t129 165t215 103t315 33.5q297 0 478 -76l-25 -205l-285 -393l68 -8q110 -13 199.5 -50.5t153 -97t93 -145t15.5 -188.5l-6 -47q-59 -441 -539 -441
q-287 0 -408 129t-86 396l6 47h332q-27 -151 17.5 -218t136.5 -67h20q72 0 121 38t60 124l4 31q11 90 -41 143t-178 68l-390 47z" />
    <glyph glyph-name="Ygrave" unicode="&#x1ef2;" horiz-adv-x="1280" 
d="M506 1946h338l82 -226h-320zM770 489l-63 -489h-332l63 489l-313 1108h356l170 -702l353 702h368z" />
    <glyph glyph-name="ygrave" unicode="&#x1ef3;" horiz-adv-x="1128" 
d="M297 1597h352l137 -376h-319zM514 393l293 692h358l-518 -1028l-201 -467h-385l236 467l-246 1028h346z" />
    <glyph glyph-name="enspace" unicode="&#x2002;" horiz-adv-x="1024" 
 />
    <glyph glyph-name="emspace" unicode="&#x2003;" horiz-adv-x="2048" 
 />
    <glyph glyph-name="threeperemspace" unicode="&#x2004;" horiz-adv-x="681" 
 />
    <glyph glyph-name="fourperemspace" unicode="&#x2005;" horiz-adv-x="512" 
 />
    <glyph glyph-name="sixperemspace" unicode="&#x2006;" horiz-adv-x="342" 
 />
    <glyph glyph-name="figurespace" unicode="&#x2007;" horiz-adv-x="1228" 
 />
    <glyph glyph-name="punctuationspace" unicode="&#x2008;" horiz-adv-x="368" 
 />
    <glyph glyph-name="thinspace" unicode="&#x2009;" horiz-adv-x="307" 
 />
    <glyph glyph-name="hairspace" unicode="&#x200a;" horiz-adv-x="102" 
 />
    <glyph glyph-name="zerowidthspace" unicode="&#x200b;" horiz-adv-x="0" 
 />
    <glyph glyph-name="figuredash" unicode="&#x2012;" horiz-adv-x="1228" 
d="M55 575l37 283h1065l-37 -283h-1065z" />
    <glyph glyph-name="endash" unicode="&#x2013;" horiz-adv-x="1024" 
d="M55 575l37 283h860l-37 -283h-860z" />
    <glyph glyph-name="emdash" unicode="&#x2014;" horiz-adv-x="2048" 
d="M55 575l37 283h1884l-37 -283h-1884z" />
    <glyph glyph-name="uni2015" unicode="&#x2015;" horiz-adv-x="2457" 
d="M55 575l37 283h2294l-37 -283h-2294z" />
    <glyph glyph-name="doublebar" unicode="&#x2016;" horiz-adv-x="940" 
d="M-23 -246l259 1966h315l-258 -1966h-316zM381 -246l258 1966h315l-258 -1966h-315z" />
    <glyph glyph-name="quoteleft" unicode="&#x2018;" horiz-adv-x="544" 
d="M135 1016l35 266q48 369 399 369l-20 -156q-78 0 -131 -34.5t-70 -102.5h174l-45 -342h-342z" />
    <glyph glyph-name="quoteright" unicode="&#x2019;" horiz-adv-x="544" 
d="M551 1597l-35 -266q-48 -368 -399 -368l20 155q78 0 131 34.5t70 102.5h-174l45 342h342z" />
    <glyph glyph-name="quotesinglbase" unicode="&#x201a;" horiz-adv-x="544" 
d="M387 342l-35 -266q-48 -369 -399 -369l20 156q78 0 131 34.5t70 102.5h-174l45 342h342z" />
    <glyph glyph-name="reversequoteleft" unicode="&#x201b;" horiz-adv-x="544" 
d="M211 1597h340l-45 -342h-174q-3 -66 43 -101.5t123 -35.5l-21 -155q-167 0 -245.5 94.5t-55.5 273.5z" />
    <glyph glyph-name="quotedblleft" unicode="&#x201c;" horiz-adv-x="995" 
d="M586 1016l35 266q48 369 399 369l-21 -156q-78 0 -130.5 -34.5t-69.5 -102.5h174l-45 -342h-342zM135 1016l35 266q48 369 399 369l-20 -156q-78 0 -131 -34.5t-70 -102.5h174l-45 -342h-342z" />
    <glyph glyph-name="quotedblright" unicode="&#x201d;" horiz-adv-x="995" 
d="M551 1597l-35 -266q-48 -368 -399 -368l20 155q78 0 131 34.5t70 102.5h-174l45 342h342zM1001 1597l-34 -266q-48 -368 -400 -368l21 155q78 0 130.5 34.5t69.5 102.5h-174l45 342h342z" />
    <glyph glyph-name="quotedblbase" unicode="&#x201e;" horiz-adv-x="995" 
d="M387 342l-35 -266q-48 -369 -399 -369l20 156q78 0 131 34.5t70 102.5h-174l45 342h342zM838 342l-35 -266q-48 -369 -400 -369l21 156q78 0 131 34.5t70 102.5h-174l45 342h342z" />
    <glyph glyph-name="reversequotedblleft" unicode="&#x201f;" horiz-adv-x="995" 
d="M211 1597h340l-45 -342h-174q-3 -66 43 -101.5t123 -35.5l-21 -155q-167 0 -245.5 94.5t-55.5 273.5zM662 1597h339l-45 -342h-174q-3 -66 43 -101.5t123 -35.5l-20 -155q-167 0 -245.5 94.5t-55.5 273.5z" />
    <glyph glyph-name="dagger" unicode="&#x2020;" horiz-adv-x="845" 
d="M348 895l45 264h162l-25 -264l-45 -266h-161zM102 1171l23 181l270 -11l-22 -159zM872 1352l-22 -181l-270 11l22 159zM446 1638h183l-47 -274h-162z" />
    <glyph glyph-name="daggerdbl" unicode="&#x2021;" horiz-adv-x="845" 
d="M446 1638h183l-47 -274h-162zM365 1022l28 137h162l-8 -137l-29 -137h-162zM102 1171l23 181l270 -11l-22 -159zM872 1352l-22 -181l-270 11l22 159zM285 416l45 264h162l-25 -264l-45 -266h-162zM39 692l22 180l271 -10l-23 -160zM809 872l-23 -180l-270 10l23 160z" />
    <glyph glyph-name="bullet" unicode="&#x2022;" horiz-adv-x="911" 
d="M819 1047l-86 -660h-657l86 660h657z" />
    <glyph glyph-name="ellipsis" unicode="&#x2026;" horiz-adv-x="2048" 
d="M481 342l-45 -342h-342l45 342h342zM1137 342l-45 -342h-342l45 342h342zM1792 342l-45 -342h-342l45 342h342z" />
    <glyph glyph-name="perthousand" unicode="&#x2030;" horiz-adv-x="2869" 
d="M1901 385l-3 -23q-8 -90 -48 -165t-98 -123t-126.5 -74.5t-136.5 -26.5q-188 0 -284 105.5t-81 279.5l2 23q8 90 48 165t98 123t127 74.5t137 26.5q188 0 284 -105.5t81 -279.5zM2761 385l-2 -23q-8 -90 -48 -165t-98 -123t-127 -74.5t-137 -26.5q-188 0 -283.5 105.5
t-80.5 279.5l2 23q8 90 48 165t98 123t126.5 74.5t136.5 26.5q188 0 284 -105.5t81 -279.5zM356 1237l-2 -23q-6 -64 32 -105.5t97 -41.5h21q58 0 100.5 39.5t48.5 107.5l2 23q6 64 -32 105.5t-97 41.5h-20q-58 0 -101 -39.5t-49 -107.5zM1661 360l2 23q6 64 -32 105.5
t-97 41.5h-21q-58 0 -100.5 -39.5t-48.5 -107.5l-2 -23q-6 -64 32 -105.5t97 -41.5h20q58 0 101 39.5t49 107.5zM2521 360l2 23q6 64 -32 105.5t-97 41.5h-20q-58 0 -101 -39.5t-49 -107.5l-2 -23q-6 -64 32 -105.5t97 -41.5h21q58 0 100.5 39.5t48.5 107.5zM117 1212l2 23
q8 90 48 165t98 123t126.5 74.5t136.5 26.5q86 0 174 -31q152 -55 363 -55q138 0 265 21.5t198 44.5l-21 -154l-794 -1450h-283l711 1296q-62 -16 -148 -16q-53 0 -98 6q0 -7 -1 -23t-1 -24l-2 -22q-8 -90 -48 -165t-98 -123.5t-127 -75t-137 -26.5q-188 0 -283.5 105.5
t-80.5 279.5z" />
    <glyph glyph-name="tripleprime" unicode="&#x2034;" horiz-adv-x="1286" 
d="M205 1597h317l-104 -661h-248zM791 936h-250l69 661h285zM983 1597h315l-137 -661h-248z" />
    <glyph glyph-name="guilsinglleft" unicode="&#x2039;" horiz-adv-x="647" 
d="M596 1153l-39 -295l-246 -172l201 -172l-37 -274l-403 301l41 311z" />
    <glyph glyph-name="guilsinglright" unicode="&#x203a;" horiz-adv-x="647" 
d="M31 240l39 295l245 172l-200 172l37 274l403 -301l-41 -311z" />
    <glyph glyph-name="interrobang" unicode="&#x203d;" horiz-adv-x="1017" 
d="M575 467h-174l101 854q-53 -26 -83 -89t-44 -175h-295l6 47q35 262 158 391t360 129q125 0 214 -26.5t136.5 -75.5t68.5 -108t21 -134q0 -86 -23 -159t-61 -126t-84 -101t-94.5 -93.5t-90.5 -92.5t-73.5 -109t-42.5 -132zM637 342l-45 -342h-342l45 342h342zM743 1214
q0 80 -67 109l-60 -369q45 58 66 88t41 78.5t20 93.5z" />
    <glyph glyph-name="fraction" unicode="&#x2044;" horiz-adv-x="409" 
d="M-348 0h-275l1389 1597h274z" />
    <glyph glyph-name="uni2070" unicode="&#x2070;" 
d="M670 1384l-52 -372q-14 -111 -89 -175.5t-205 -64.5q-129 0 -205 68.5t-62 171.5l52 372q16 111 90.5 175.5t203.5 64.5t205 -68.5t62 -171.5zM375 1020l47 356q5 35 -29 35h-4q-32 0 -37 -35l-47 -356q-5 -35 29 -35h4q32 0 37 35z" />
    <glyph glyph-name="uni2074" unicode="&#x2074;" 
d="M530 799h-245l18 139h-268l24 199l342 460h234l-60 -448h66l-27 -211h-65zM348 1280l-94 -131h76z" />
    <glyph glyph-name="uni2075" unicode="&#x2075;" 
d="M59 1055h246q-13 -70 29 -70h4q35 0 43 57l2 15q8 61 -41 61h-4q-30 0 -49 -22l-203 71l76 430h522l-27 -211h-321l-17 -92q13 9 43 17t58 8q117 0 170.5 -68t38.5 -184l-4 -31q-17 -130 -93.5 -197t-207.5 -67t-205.5 72t-61.5 192z" />
    <glyph glyph-name="uni2076" unicode="&#x2076;" 
d="M350 1092h-4q-10 0 -20 -6t-14 -12l-5 -5q-4 -17 -4 -31q0 -53 31 -53h4q15 0 26.5 11.5t14.5 33.5l2 14q3 22 -5.5 35t-25.5 13zM682 1624l-27 -211q-169 0 -252 -67q-33 -26 -47 -70q40 27 95 27q90 -2 141 -64.5t37 -171.5l-4 -31q-17 -130 -93.5 -197t-207.5 -67
q-100 0 -164 45t-85 115t-9 158l4 30q27 211 163 357q78 84 185.5 115.5t263.5 31.5z" />
    <glyph glyph-name="uni2077" unicode="&#x2077;" 
d="M88 1311l37 286h582l-21 -161l-346 -637h-262l330 587h-99l-10 -75h-211z" />
    <glyph glyph-name="uni2078" unicode="&#x2078;" 
d="M324 772q-130 0 -206.5 68t-62.5 172l4 30q16 119 125 164q-38 21 -59.5 63t-13.5 103l4 31q3 25 13.5 52.5t33 58t53 54.5t79 40t105.5 16q79 0 137 -25t85.5 -63.5t38.5 -77.5t6 -74l-4 -30q-15 -113 -125 -148q47 -18 72 -63.5t16 -108.5l-4 -30q-15 -111 -95 -171.5
t-202 -60.5zM377 1305h4q28 0 33 43l2 14q6 49 -23 49h-4q-28 0 -33 -43l-2 -14q-6 -49 23 -49zM334 985h4q35 0 43 57l2 15q6 51 -33 51h-4q-35 0 -43 -57l-2 -15q-6 -51 33 -51z" />
    <glyph glyph-name="uni2079" unicode="&#x2079;" 
d="M377 1305h4q10 0 20 5.5t15 11.5l4 5q4 17 4 31q0 53 -31 53h-4q-15 0 -26.5 -11.5t-14.5 -33.5l-2 -14q-6 -47 31 -47zM45 772l27 211q167 0 252 68q33 27 47 69q-39 -26 -95 -26q-90 2 -141 64t-37 171l4 31q17 130 93.5 197t207.5 67q100 0 164 -44.5t85.5 -114.5
t9.5 -158l-5 -31q-26 -210 -163 -356q-78 -84 -186 -116t-263 -32z" />
    <glyph glyph-name="uni207A" unicode="&#x207a;" 
d="M293 1468h213l-23 -163h164l-26 -213h-164l-23 -164h-213l23 164h-164l26 213h164z" />
    <glyph glyph-name="uni207B" unicode="&#x207b;" 
d="M106 1305h541l-26 -213h-541z" />
    <glyph glyph-name="uni207C" unicode="&#x207c;" 
d="M123 1432h541l-27 -213h-541zM90 1178h541l-27 -213h-541z" />
    <glyph glyph-name="uni207D" unicode="&#x207d;" horiz-adv-x="419" 
d="M86 1188l2 18q13 125 61 227t115 164h258q-66 -72 -122 -177t-68 -214l-2 -18q-12 -106 13.5 -209t64.5 -180h-238q-43 67 -69.5 171.5t-14.5 217.5z" />
    <glyph glyph-name="uni207E" unicode="&#x207e;" horiz-adv-x="419" 
d="M444 1208l-2 -18q-13 -125 -61 -227t-115 -164h-258q67 72 123 177.5t68 213.5l2 18q12 106 -13.5 209t-64.5 180h237q43 -67 69.5 -171.5t14.5 -217.5z" />
    <glyph glyph-name="uni2080" unicode="&#x2080;" 
d="M565 586l-51 -373q-14 -111 -89.5 -175.5t-205.5 -64.5q-129 0 -204.5 68.5t-61.5 171.5l51 373q16 111 90.5 175t204.5 64q129 0 204.5 -68t61.5 -171zM270 221l47 357q5 34 -28 34h-4q-32 0 -37 -34l-47 -357q-5 -35 28 -35h4q32 0 37 35z" />
    <glyph glyph-name="uni2081" unicode="&#x2081;" 
d="M494 0h-539l27 211h147l39 291l-78 -47l-98 174l278 174h183l-78 -592h145z" />
    <glyph glyph-name="uni2082" unicode="&#x2082;" 
d="M520 211l-26 -211h-557l20 160l324 309q33 33 38 63l5 31q6 49 -27 49h-4q-19 0 -29 -18t-14 -62h-246l2 19q30 274 301 274q64 0 114 -16.5t79.5 -42.5t48 -59t23.5 -63t1 -58l-4 -31q-8 -62 -35.5 -105t-84.5 -98l-150 -141h221z" />
    <glyph glyph-name="uni2083" unicode="&#x2083;" 
d="M201 256q-13 -70 28 -70h4q35 0 43 58l3 14q6 51 -35 51h-99l25 197h96q20 0 30 9.5t13 33.5l2 14q6 49 -26 49h-4q-19 0 -29 -18t-14 -62h-246l2 19q30 274 301 274q64 0 114 -16.5t79.5 -42.5t48 -59t23.5 -63t1 -58l-4 -31q-15 -112 -125 -147q47 -18 72 -63.5
t16 -108.5l-4 -31q-15 -111 -95 -171.5t-202 -60.5q-131 0 -205 72.5t-61 192.5l2 18h246z" />
    <glyph glyph-name="uni2084" unicode="&#x2084;" 
d="M426 0h-246l19 139h-269l25 199l342 461h233l-59 -449h66l-27 -211h-66zM244 481l-94 -131h75z" />
    <glyph glyph-name="uni2085" unicode="&#x2085;" 
d="M-45 256h246q-13 -70 28 -70h4q35 0 43 58l3 14q8 61 -41 61h-5q-30 0 -49 -22l-202 72l75 430h523l-27 -211h-322l-16 -92q12 9 42 16.5t58 7.5q117 0 170.5 -68t38.5 -184l-4 -30q-17 -130 -93.5 -197.5t-207.5 -67.5t-205 72.5t-61 192.5z" />
    <glyph glyph-name="uni2086" unicode="&#x2086;" 
d="M246 293h-4q-10 0 -20 -6t-14 -11l-5 -6q-4 -16 -4 -30q0 -54 30 -54h4q15 0 26.5 11.5t14.5 33.5l2 15q6 47 -30 47zM578 825l-27 -211q-169 0 -252 -67q-33 -26 -47 -70q40 27 94 27q90 -2 141 -64.5t37 -171.5l-4 -30q-17 -130 -93.5 -197.5t-207.5 -67.5
q-100 0 -164 45t-85 115t-9 158l4 31q26 209 164 356q78 84 185.5 115.5t263.5 31.5z" />
    <glyph glyph-name="uni2087" unicode="&#x2087;" 
d="M-16 512l36 287h582l-20 -162l-346 -637h-263l330 588h-98l-10 -76h-211z" />
    <glyph glyph-name="uni2088" unicode="&#x2088;" 
d="M219 -27q-130 0 -206 68t-62 172l4 31q16 119 125 164q-39 21 -60.5 62.5t-13.5 102.5l4 31q4 32 21 67t49 71.5t88 59.5t127 23q64 0 114 -16.5t79.5 -42.5t48 -59t23.5 -63t1 -58l-4 -31q-15 -112 -125 -147q47 -18 72 -63.5t16 -108.5l-4 -31q-15 -111 -95 -171.5
t-202 -60.5zM272 506h4q28 0 33 43l2 14q6 49 -22 49h-4q-28 0 -33 -43l-2 -14q-6 -49 22 -49zM229 186h4q35 0 43 58l3 14q6 51 -33 51h-4q-35 0 -43 -57l-2 -14q-6 -52 32 -52z" />
    <glyph glyph-name="uni2089" unicode="&#x2089;" 
d="M272 506h4q10 0 20 5.5t14 10.5l5 6q4 17 4 31q0 53 -30 53h-4q-15 0 -26.5 -11.5t-14.5 -33.5l-2 -14q-6 -47 30 -47zM-59 -27l26 211q167 0 252 68q33 26 47 70q-41 -27 -94 -27q-90 2 -141 64t-37 171l4 31q17 130 93.5 197t207.5 67q76 0 131.5 -25.5t85 -69.5
t40 -100.5t1.5 -121.5l-4 -31q-26 -209 -164 -356q-78 -84 -185.5 -116t-262.5 -32z" />
    <glyph glyph-name="uni208A" unicode="&#x208a;" 
d="M188 670h213l-22 -164h164l-27 -213h-164l-22 -164h-213l22 164h-164l27 213h164z" />
    <glyph glyph-name="uni208B" unicode="&#x208b;" 
d="M2 506h541l-27 -213h-541z" />
    <glyph glyph-name="uni208C" unicode="&#x208c;" 
d="M18 633h541l-27 -213h-540zM-14 379h540l-26 -213h-541z" />
    <glyph glyph-name="uni208D" unicode="&#x208d;" horiz-adv-x="419" 
d="M-18 389l2 19q13 125 61 227t115 164h258q-67 -72 -123 -177.5t-68 -213.5l-2 -19q-12 -106 13.5 -209t64.5 -180h-237q-43 67 -69.5 171.5t-14.5 217.5z" />
    <glyph glyph-name="uni208E" unicode="&#x208e;" horiz-adv-x="419" 
d="M340 410l-2 -19q-13 -125 -61 -227t-115 -164h-258q66 72 122 177t68 214l2 19q12 106 -13.5 209t-64.5 180h238q43 -67 69.5 -171.5t14.5 -217.5z" />
    <glyph glyph-name="Euro" unicode="&#x20ac;" horiz-adv-x="1228" 
d="M180 633h-135l39 289h133q59 362 205 532t373 170q237 0 334 -131t63 -403l-8 -66h-283q22 164 -1.5 237.5t-100.5 73.5h-19q-84 0 -137 -103t-86 -310h416l-180 -289h-273q-14 -187 13 -279t106 -92h18q143 0 177 250h282l-4 -31q-35 -256 -157.5 -382t-323.5 -126
q-252 0 -364.5 157.5t-86.5 502.5z" />
    <glyph glyph-name="ruble" unicode="&#x20bd;" horiz-adv-x="1228" 
d="M819 207h-383l-26 -207h-332l26 207h-143l37 287h143l11 79h-144l37 287h145l97 737h438q541 0 477 -495l-6 -47q-12 -88 -38 -159t-60 -120.5t-80 -86.5t-93 -59t-105 -35t-109.5 -17.5t-112.5 -4.5h-113l-10 -79h381zM520 860h109q206 0 233 203l4 31q7 52 -1 91.5
t-25.5 63t-44.5 38t-53 19.5t-56 5h-104z" />
    <glyph glyph-name="numero" unicode="&#x2116;" horiz-adv-x="2306" 
d="M223 1597h346l385 -991l35 332l86 659h318l-209 -1597h-346l-385 991l-35 -332l-86 -659h-318zM1870 770q-181 0 -281.5 110t-75.5 289l9 60q25 184 134.5 291.5t287.5 107.5q181 0 281 -110t75 -289l-8 -60q-25 -184 -134.5 -291.5t-287.5 -107.5zM2011 1169l8 60
q21 155 -98 155q-99 0 -119 -155l-8 -60q-21 -155 98 -155q99 0 119 155zM2171 371h-746l33 243h746z" />
    <glyph glyph-name="published" unicode="&#x2117;" horiz-adv-x="1884" 
d="M117 799q0 168 65 321t175.5 263.5t263.5 175.5t321 65t321 -65t263.5 -175.5t175.5 -263.5t65 -321t-65 -321t-175.5 -263.5t-263.5 -176t-321 -65.5t-321 65.5t-263.5 176t-175.5 263.5t-65 321zM231 799q0 -145 56.5 -276.5t151.5 -226.5t226.5 -151.5t276.5 -56.5
t276.5 56.5t226.5 151.5t151.5 226.5t56.5 276.5q0 193 -95 356.5t-259 258.5t-357 95t-357 -95t-259 -258.5t-95 -356.5zM848 629v-312h-287v963h498q51 0 96 -7.5t90.5 -29t77.5 -55.5t52 -90.5t20 -130.5v-25q0 -74 -20 -130.5t-52 -90.5t-77.5 -55.5t-90.5 -29t-96 -7.5
h-211zM848 842h145q111 0 111 106v13q0 106 -111 106h-145v-225z" />
    <glyph glyph-name="servicemark" unicode="&#x2120;" horiz-adv-x="1144" 
d="M211 1307q-95 12 -137.5 49.5t-42.5 118.5v8q0 80 51.5 127t150.5 47q105 0 154 -50.5t49 -154.5v-14h-129q0 54 -17 78t-57 24h-8q-28 0 -44.5 -14.5t-16.5 -36.5v-4q0 -29 20.5 -43.5t71.5 -22.5q96 -12 140 -50t44 -118v-10q0 -83 -53.5 -129.5t-153.5 -46.5
q-206 0 -206 207v4h129q0 -96 77 -96h7q33 0 49 16.5t16 40.5v4q0 30 -20 44.5t-74 21.5zM930 1415l-84 -330h-139l-84 330l4 -123v-207h-131v553h194l86 -325l84 325h197v-553h-131v207z" />
    <glyph glyph-name="trademark" unicode="&#x2122;" horiz-adv-x="1144" 
d="M301 1524v-439h-131v439h-135v114h403v-114h-137zM930 1415l-84 -330h-139l-84 330l4 -123v-207h-131v553h194l86 -325l84 325h197v-553h-131v207z" />
    <glyph glyph-name="uni2153" unicode="&#x2153;" horiz-adv-x="1638" 
d="M598 799h-539l27 211h147l39 290l-77 -47l-99 174l279 175h182l-78 -592h146zM266 0h-274l1388 1597h275zM1225 256q-13 -70 28 -70h4q35 0 43 58l3 14q6 51 -35 51h-99l25 197h96q20 0 30 9.5t13 33.5l2 14q6 49 -26 49h-4q-19 0 -29 -18t-14 -62h-246l2 19
q30 274 301 274q64 0 114 -16.5t79.5 -42.5t48 -59t23.5 -63t1 -58l-4 -31q-15 -112 -125 -147q47 -18 72 -63.5t16 -108.5l-4 -31q-15 -111 -95 -171.5t-202 -60.5q-131 0 -205 72.5t-61 192.5l2 18h246z" />
    <glyph glyph-name="uni2154" unicode="&#x2154;" horiz-adv-x="1638" 
d="M625 1010l-27 -211h-557l20 159l324 310q34 34 39 63l4 31q6 49 -27 49h-4q-19 0 -29 -18t-14 -62h-245l2 19q30 274 301 274q79 0 136.5 -25t85 -63.5t38.5 -77.5t6 -74l-4 -30q-8 -61 -36 -104t-85 -99l-150 -141h222zM266 0h-274l1388 1597h275zM1225 256
q-13 -70 28 -70h4q35 0 43 58l3 14q6 51 -35 51h-99l25 197h96q20 0 30 9.5t13 33.5l2 14q6 49 -26 49h-4q-19 0 -29 -18t-14 -62h-246l2 19q30 274 301 274q64 0 114 -16.5t79.5 -42.5t48 -59t23.5 -63t1 -58l-4 -31q-15 -112 -125 -147q47 -18 72 -63.5t16 -108.5l-4 -31
q-15 -111 -95 -171.5t-202 -60.5q-131 0 -205 72.5t-61 192.5l2 18h246z" />
    <glyph glyph-name="uni2155" unicode="&#x2155;" horiz-adv-x="1638" 
d="M598 799h-539l27 211h147l39 290l-77 -47l-99 174l279 175h182l-78 -592h146zM266 0h-274l1388 1597h275zM979 256h246q-13 -70 28 -70h4q35 0 43 58l3 14q8 61 -41 61h-5q-30 0 -49 -22l-202 72l75 430h523l-27 -211h-322l-16 -92q12 9 42 16.5t58 7.5q117 0 170.5 -68
t38.5 -184l-4 -30q-17 -130 -93.5 -197.5t-207.5 -67.5t-205 72.5t-61 192.5z" />
    <glyph glyph-name="uni2156" unicode="&#x2156;" horiz-adv-x="1638" 
d="M625 1010l-27 -211h-557l20 159l324 310q34 34 39 63l4 31q6 49 -27 49h-4q-19 0 -29 -18t-14 -62h-245l2 19q30 274 301 274q79 0 136.5 -25t85 -63.5t38.5 -77.5t6 -74l-4 -30q-8 -61 -36 -104t-85 -99l-150 -141h222zM266 0h-274l1388 1597h275zM979 256h246
q-13 -70 28 -70h4q35 0 43 58l3 14q8 61 -41 61h-5q-30 0 -49 -22l-202 72l75 430h523l-27 -211h-322l-16 -92q12 9 42 16.5t58 7.5q117 0 170.5 -68t38.5 -184l-4 -30q-17 -130 -93.5 -197.5t-207.5 -67.5t-205 72.5t-61 192.5z" />
    <glyph glyph-name="uni2157" unicode="&#x2157;" horiz-adv-x="1638" 
d="M305 1055q-13 -70 29 -70h4q35 0 43 57l2 15q6 51 -35 51h-98l24 197h97q20 0 30 9.5t13 33.5l2 14q6 49 -27 49h-4q-19 0 -29 -18t-14 -62h-246l2 19q30 274 301 274q79 0 137 -25t85.5 -63.5t38.5 -77.5t6 -74l-4 -30q-15 -113 -125 -148q47 -18 72 -63.5t16 -108.5
l-4 -30q-15 -111 -95 -171.5t-202 -60.5q-131 0 -205.5 72t-61.5 192l2 19h246zM266 0h-274l1388 1597h275zM979 256h246q-13 -70 28 -70h4q35 0 43 58l3 14q8 61 -41 61h-5q-30 0 -49 -22l-202 72l75 430h523l-27 -211h-322l-16 -92q12 9 42 16.5t58 7.5q117 0 170.5 -68
t38.5 -184l-4 -30q-17 -130 -93.5 -197.5t-207.5 -67.5t-205 72.5t-61 192.5z" />
    <glyph glyph-name="uni2158" unicode="&#x2158;" horiz-adv-x="1638" 
d="M530 799h-245l18 139h-268l24 199l342 460h234l-60 -448h66l-27 -211h-65zM348 1280l-94 -131h76zM266 0h-274l1388 1597h275zM979 256h246q-13 -70 28 -70h4q35 0 43 58l3 14q8 61 -41 61h-5q-30 0 -49 -22l-202 72l75 430h523l-27 -211h-322l-16 -92q12 9 42 16.5
t58 7.5q117 0 170.5 -68t38.5 -184l-4 -30q-17 -130 -93.5 -197.5t-207.5 -67.5t-205 72.5t-61 192.5z" />
    <glyph glyph-name="uni2159" unicode="&#x2159;" horiz-adv-x="1638" 
d="M598 799h-539l27 211h147l39 290l-77 -47l-99 174l279 175h182l-78 -592h146zM266 0h-274l1388 1597h275zM1270 293h-4q-10 0 -20 -6t-14 -11l-5 -6q-4 -16 -4 -30q0 -54 30 -54h4q15 0 26.5 11.5t14.5 33.5l2 15q6 47 -30 47zM1602 825l-27 -211q-169 0 -252 -67
q-33 -26 -47 -70q40 27 94 27q90 -2 141 -64.5t37 -171.5l-4 -30q-17 -130 -93.5 -197.5t-207.5 -67.5q-100 0 -164 45t-85 115t-9 158l4 31q26 209 164 356q78 84 185.5 115.5t263.5 31.5z" />
    <glyph glyph-name="uni215A" unicode="&#x215a;" horiz-adv-x="1638" 
d="M59 1055h246q-13 -70 29 -70h4q35 0 43 57l2 15q8 61 -41 61h-4q-30 0 -49 -22l-203 71l76 430h522l-27 -211h-321l-17 -92q13 9 43 17t58 8q117 0 170.5 -68t38.5 -184l-4 -31q-17 -130 -93.5 -197t-207.5 -67t-205.5 72t-61.5 192zM266 0h-274l1388 1597h275zM1270 293
h-4q-10 0 -20 -6t-14 -11l-5 -6q-4 -16 -4 -30q0 -54 30 -54h4q15 0 26.5 11.5t14.5 33.5l2 15q6 47 -30 47zM1602 825l-27 -211q-169 0 -252 -67q-33 -26 -47 -70q40 27 94 27q90 -2 141 -64.5t37 -171.5l-4 -30q-17 -130 -93.5 -197.5t-207.5 -67.5q-100 0 -164 45
t-85 115t-9 158l4 31q26 209 164 356q78 84 185.5 115.5t263.5 31.5z" />
    <glyph glyph-name="uni215B" unicode="&#x215b;" horiz-adv-x="1638" 
d="M598 799h-539l27 211h147l39 290l-77 -47l-99 174l279 175h182l-78 -592h146zM266 0h-274l1388 1597h275zM1243 -27q-130 0 -206 68t-62 172l4 31q16 119 125 164q-39 21 -60.5 62.5t-13.5 102.5l4 31q4 32 21 67t49 71.5t88 59.5t127 23q64 0 114 -16.5t79.5 -42.5
t48 -59t23.5 -63t1 -58l-4 -31q-15 -112 -125 -147q47 -18 72 -63.5t16 -108.5l-4 -31q-15 -111 -95 -171.5t-202 -60.5zM1296 506h4q28 0 33 43l2 14q6 49 -22 49h-4q-28 0 -33 -43l-2 -14q-6 -49 22 -49zM1253 186h4q35 0 43 58l3 14q6 51 -33 51h-4q-35 0 -43 -57l-2 -14
q-6 -52 32 -52z" />
    <glyph glyph-name="uni215C" unicode="&#x215c;" horiz-adv-x="1638" 
d="M305 1055q-13 -70 29 -70h4q35 0 43 57l2 15q6 51 -35 51h-98l24 197h97q20 0 30 9.5t13 33.5l2 14q6 49 -27 49h-4q-19 0 -29 -18t-14 -62h-246l2 19q30 274 301 274q79 0 137 -25t85.5 -63.5t38.5 -77.5t6 -74l-4 -30q-15 -113 -125 -148q47 -18 72 -63.5t16 -108.5
l-4 -30q-15 -111 -95 -171.5t-202 -60.5q-131 0 -205.5 72t-61.5 192l2 19h246zM266 0h-274l1388 1597h275zM1243 -27q-130 0 -206 68t-62 172l4 31q16 119 125 164q-39 21 -60.5 62.5t-13.5 102.5l4 31q4 32 21 67t49 71.5t88 59.5t127 23q64 0 114 -16.5t79.5 -42.5
t48 -59t23.5 -63t1 -58l-4 -31q-15 -112 -125 -147q47 -18 72 -63.5t16 -108.5l-4 -31q-15 -111 -95 -171.5t-202 -60.5zM1296 506h4q28 0 33 43l2 14q6 49 -22 49h-4q-28 0 -33 -43l-2 -14q-6 -49 22 -49zM1253 186h4q35 0 43 58l3 14q6 51 -33 51h-4q-35 0 -43 -57l-2 -14
q-6 -52 32 -52z" />
    <glyph glyph-name="uni215D" unicode="&#x215d;" horiz-adv-x="1638" 
d="M59 1055h246q-13 -70 29 -70h4q35 0 43 57l2 15q8 61 -41 61h-4q-30 0 -49 -22l-203 71l76 430h522l-27 -211h-321l-17 -92q13 9 43 17t58 8q117 0 170.5 -68t38.5 -184l-4 -31q-17 -130 -93.5 -197t-207.5 -67t-205.5 72t-61.5 192zM266 0h-274l1388 1597h275zM1243 -27
q-130 0 -206 68t-62 172l4 31q16 119 125 164q-39 21 -60.5 62.5t-13.5 102.5l4 31q4 32 21 67t49 71.5t88 59.5t127 23q64 0 114 -16.5t79.5 -42.5t48 -59t23.5 -63t1 -58l-4 -31q-15 -112 -125 -147q47 -18 72 -63.5t16 -108.5l-4 -31q-15 -111 -95 -171.5t-202 -60.5z
M1296 506h4q28 0 33 43l2 14q6 49 -22 49h-4q-28 0 -33 -43l-2 -14q-6 -49 22 -49zM1253 186h4q35 0 43 58l3 14q6 51 -33 51h-4q-35 0 -43 -57l-2 -14q-6 -52 32 -52z" />
    <glyph glyph-name="uni215E" unicode="&#x215e;" horiz-adv-x="1638" 
d="M88 1311l37 286h582l-21 -161l-346 -637h-262l330 587h-99l-10 -75h-211zM266 0h-274l1388 1597h275zM1243 -27q-130 0 -206 68t-62 172l4 31q16 119 125 164q-39 21 -60.5 62.5t-13.5 102.5l4 31q4 32 21 67t49 71.5t88 59.5t127 23q64 0 114 -16.5t79.5 -42.5t48 -59
t23.5 -63t1 -58l-4 -31q-15 -112 -125 -147q47 -18 72 -63.5t16 -108.5l-4 -31q-15 -111 -95 -171.5t-202 -60.5zM1296 506h4q28 0 33 43l2 14q6 49 -22 49h-4q-28 0 -33 -43l-2 -14q-6 -49 22 -49zM1253 186h4q35 0 43 58l3 14q6 51 -33 51h-4q-35 0 -43 -57l-2 -14
q-6 -52 32 -52z" />
    <glyph glyph-name="uni215F" unicode="&#x215f;" horiz-adv-x="1024" 
d="M598 799h-539l27 211h147l39 290l-77 -47l-99 174l279 175h182l-78 -592h146zM266 0h-274l1388 1597h275z" />
    <glyph glyph-name="arrowleft" unicode="&#x2190;" horiz-adv-x="1884" 
d="M915 1597h406l-655 -655h1075v-287h-1075l655 -655h-406l-798 799z" />
    <glyph glyph-name="arrowup" unicode="&#x2191;" horiz-adv-x="1884" 
d="M143 420v405l799 799l799 -799v-405l-656 655v-1075h-286v1075z" />
    <glyph glyph-name="arrowright" unicode="&#x2192;" horiz-adv-x="1884" 
d="M563 1597h406l798 -798l-798 -799h-406l656 655h-1076v287h1076z" />
    <glyph glyph-name="arrowdown" unicode="&#x2193;" horiz-adv-x="1884" 
d="M143 772v406l656 -656v1075h286v-1075l656 656v-406l-799 -799z" />
    <glyph glyph-name="uni2196" unicode="&#x2196;" horiz-adv-x="1884" 
d="M432 0h-289v1597h1598v-288h-1106l1134 -1133l-204 -205l-1133 1135v-1106z" />
    <glyph glyph-name="uni2197" unicode="&#x2197;" horiz-adv-x="1884" 
d="M143 1309v288h1598v-1597h-289v1106l-1133 -1135l-204 205l1134 1133h-1106z" />
    <glyph glyph-name="uni2198" unicode="&#x2198;" horiz-adv-x="1884" 
d="M143 0v289h1106l-1134 1132l204 205l1133 -1134v1105h289v-1597h-1598z" />
    <glyph glyph-name="uni2199" unicode="&#x2199;" horiz-adv-x="1884" 
d="M1741 289v-289h-1598v1597h289v-1105l1133 1134l204 -205l-1134 -1132h1106z" />
    <glyph glyph-name="minus" unicode="&#x2212;" horiz-adv-x="1228" 
d="M70 655l36 287h1057l-37 -287h-1056z" />
    <glyph glyph-name="approxequal" unicode="&#x2248;" horiz-adv-x="1228" 
d="M420 1208q72 0 140 -21t111.5 -45.5t96.5 -45.5t98 -21q49 0 93 18.5t65.5 36t46.5 44.5l131 -152q-126 -195 -332 -195q-72 0 -140 21t-112 46t-98 46t-100 21q-107 0 -201 -99l-131 152q126 194 332 194zM360 766q72 0 140.5 -21t112 -45.5t96.5 -45.5t98 -21
q112 0 205 98l131 -151q-126 -195 -332 -195q-72 0 -140.5 21t-112.5 45.5t-98 45.5t-100 21q-47 0 -89.5 -18t-64 -36t-46.5 -44l-131 151q126 195 331 195z" />
    <glyph glyph-name="notequal" unicode="&#x2260;" horiz-adv-x="1228" 
d="M1157 1378l-156 -213h191l-37 -286h-362l-117 -160h459l-37 -287h-631l-156 -213h-235l155 213h-190l37 287h362l117 160h-459l37 286h631l156 213h235z" />
    <glyph glyph-name="equivalence" unicode="&#x2261;" horiz-adv-x="1228" 
d="M127 1102l37 287h1057l-37 -287h-1057zM70 655l36 287h1057l-37 -287h-1056zM12 209l37 287h1057l-37 -287h-1057z" />
    <glyph glyph-name="lessequal" unicode="&#x2264;" horiz-adv-x="1228" 
d="M1186 1112l-611 -172l566 -174l-41 -311l-1014 329l41 314l1100 329zM1087 358l-24 -186l-1014 330l25 186z" />
    <glyph glyph-name="greaterequal" unicode="&#x2265;" horiz-adv-x="1228" 
d="M84 770l610 172l-565 174l41 311l1014 -329l-41 -314l-1100 -329zM1130 688l-24 -184l-1100 -330l25 184z" />
    <glyph glyph-name="squaremultiply" unicode="&#x22a0;" horiz-adv-x="1884" 
d="M143 1597h1598v-1597h-1598v1597zM1456 1313h-1028v-1028h1028v1028zM692 344h-205v205l250 250l-250 250v204h205l250 -249l250 249h205v-204l-250 -250l250 -250v-205h-205l-250 250z" />
    <glyph glyph-name="house" unicode="&#x2302;" horiz-adv-x="1740" 
d="M1597 0h-1454v922l727 696l727 -696v-922z" />
    <glyph glyph-name="blacksquare" unicode="&#x25a0;" horiz-adv-x="1884" 
d="M1741 0h-1598v1597h1598v-1597z" />
    <glyph glyph-name="blacksquare" unicode="&#xe740;" horiz-adv-x="1884" 
d="M1741 0h-1598v1597h1598v-1597z" />
    <glyph glyph-name="whitesquare" unicode="&#x25a1;" horiz-adv-x="1884" 
d="M1741 0h-1598v1597h1598v-1597zM1456 1313h-1028v-1028h1028v1028z" />
    <glyph glyph-name="blacksmallsquare" unicode="&#x25aa;" horiz-adv-x="1392" 
d="M1229 0h-1086v1085h1086v-1085z" />
    <glyph glyph-name="whitesmallsquare" unicode="&#x25ab;" horiz-adv-x="1392" 
d="M143 1085h1086v-1085h-1086v1085zM944 801h-516v-516h516v516z" />
    <glyph glyph-name="triagup" unicode="&#x25b2;" horiz-adv-x="1904" 
d="M1110 1624l668 -1624h-320l-506 1264l-506 -1264h-319l668 1624h315z" />
    <glyph glyph-name="triagrt" unicode="&#x25ba;" horiz-adv-x="1904" 
d="M1788 956v-315l-1624 -668v320l1263 506l-1263 506v319z" />
    <glyph glyph-name="triagdn" unicode="&#x25bc;" horiz-adv-x="1904" 
d="M795 -27l-668 1624h319l506 -1265l506 1265h320l-668 -1624h-315z" />
    <glyph glyph-name="triaglf" unicode="&#x25c4;" horiz-adv-x="1904" 
d="M117 956l1624 668v-319l-1266 -506l1266 -506v-320l-1624 668v315z" />
    <glyph glyph-name="whitecircle" unicode="&#x25cb;" horiz-adv-x="1884" 
d="M117 799q0 168 65 321t175.5 263.5t263.5 175.5t321 65t321 -65t263.5 -175.5t175.5 -263.5t65 -321t-65 -321t-175.5 -263.5t-263.5 -176t-321 -65.5t-321 65.5t-263.5 176t-175.5 263.5t-65 321zM401 799q0 -147 72.5 -271.5t197 -197t271.5 -72.5t271.5 72.5t197 197
t72.5 271.5t-72.5 271.5t-197 196.5t-271.5 72t-271.5 -72t-197 -196.5t-72.5 -271.5z" />
    <glyph glyph-name="whitecircle" unicode="&#x25ef;" horiz-adv-x="1884" 
d="M117 799q0 168 65 321t175.5 263.5t263.5 175.5t321 65t321 -65t263.5 -175.5t175.5 -263.5t65 -321t-65 -321t-175.5 -263.5t-263.5 -176t-321 -65.5t-321 65.5t-263.5 176t-175.5 263.5t-65 321zM401 799q0 -147 72.5 -271.5t197 -197t271.5 -72.5t271.5 72.5t197 197
t72.5 271.5t-72.5 271.5t-197 196.5t-271.5 72t-271.5 -72t-197 -196.5t-72.5 -271.5z" />
    <glyph glyph-name="blackcircle" unicode="&#x25cf;" horiz-adv-x="1884" 
d="M117 799q0 168 65 321t175.5 263.5t263.5 175.5t321 65t321 -65t263.5 -175.5t175.5 -263.5t65 -321t-65 -321t-175.5 -263.5t-263.5 -176t-321 -65.5t-321 65.5t-263.5 176t-175.5 263.5t-65 321z" />
    <glyph glyph-name="uni25E2" unicode="&#x25e2;" horiz-adv-x="1904" 
d="M1855 111l-110 -113l-111 -111l-1620 676l224 228l1251 -537l-535 1251l228 226z" />
    <glyph glyph-name="uni25E3" unicode="&#x25e3;" horiz-adv-x="1904" 
d="M160 -2l-111 113l674 1620l227 -226l-536 -1251l1253 537l223 -228l-1620 -676z" />
    <glyph glyph-name="uni25E4" unicode="&#x25e4;" horiz-adv-x="1904" 
d="M49 1491l221 221l1620 -674l-223 -227l-1253 535l536 -1252l-227 -223z" />
    <glyph glyph-name="uni25E5" unicode="&#x25e5;" horiz-adv-x="1904" 
d="M1855 1491l-673 -1620l-228 223l535 1252l-1251 -535l-224 227l1620 674z" />
    <glyph glyph-name="uni2605" unicode="&#x2605;" horiz-adv-x="1802" 
d="M901 369l-532 -389l202 628l-532 387h659l203 627l203 -627h659l-532 -387l203 -628z" />
    <glyph glyph-name="ballotboxwithx" unicode="&#x2612;" horiz-adv-x="1392" 
d="M143 1085h1086v-1085h-1086v1085zM944 801h-516v-516h516v516zM885 344h-398v397h398v-397z" />
    <glyph glyph-name="uni263C" unicode="&#x263c;" horiz-adv-x="1966" 
d="M1067 391l-86 -414l-86 414q0 -80 -59 -135q-17 -16 -61 -45.5t-61.5 -53.5t-17.5 -61q0 -19 6 -37t12 -26l7 -8q-45 13 -69.5 48t-24.5 79q0 61 43 104q41 41 62.5 97t21.5 98l-353 -232l232 352q-53 -53 -135 -53q-19 0 -64.5 8.5t-62.5 8.5q-31 0 -55 -10t-36 -24.5
t-19.5 -29.5t-8.5 -25l-2 -10q-17 31 -17 58q0 59 42.5 100t103.5 41q42 0 89.5 17.5t74.5 35t32 25.5l-413 86l413 86q-80 0 -135 59q-16 18 -37.5 48.5t-34 47t-35.5 30t-52 13.5q-19 0 -37 -6t-26 -12l-9 -6q13 45 48 69.5t79 24.5q61 0 104 -43q41 -41 97 -62.5
t98 -21.5l-232 352l353 -231q-54 54 -54 135q0 19 8.5 64.5t8.5 62.5q0 31 -10 55t-24.5 36t-29 19.5t-24.5 8.5l-10 2q29 16 57 16q59 0 100 -42t41 -103q0 -42 17.5 -89.5t35 -75t25.5 -32.5l86 414l86 -414q0 80 59 135q17 16 61 45.5t61.5 53.5t17.5 61q0 19 -6 37
t-12 26l-7 9q45 -13 69.5 -48t24.5 -79q0 -62 -43 -105q-41 -41 -62.5 -96.5t-21.5 -97.5l353 231l-232 -352q53 53 135 53q19 0 64.5 -8t62.5 -8q31 0 55 10t36 24.5t19.5 29t8.5 24.5l2 10q17 -31 17 -57q0 -59 -42.5 -100t-103.5 -41q-42 0 -89.5 -17.5t-74.5 -35
t-32 -25.5l413 -86l-413 -86q79 0 135 -60q16 -18 37.5 -48.5t34 -47t35.5 -30t52 -13.5q19 0 37 6t26 12l9 7q-13 -45 -48.5 -70t-78.5 -25q-61 0 -104 43q-41 41 -97 62.5t-98 21.5l232 -352l-353 232q54 -54 54 -136q0 -19 -8.5 -64.5t-8.5 -62.5q0 -31 10 -55
t24.5 -35.5t29 -19t24.5 -8.5l10 -2q-31 -17 -57 -17q-59 0 -100 42.5t-41 103.5q0 42 -17.5 89.5t-35 74.5t-25.5 32z" />
    <glyph glyph-name="uni263E" unicode="&#x263e;" horiz-adv-x="1966" 
d="M1278 1491q-181 0 -333.5 -92.5t-241.5 -252t-89 -347.5q0 -141 52.5 -269.5t141.5 -221t212 -147.5t258 -55q99 0 197 31q-218 -157 -492 -157q-167 0 -318.5 65t-261 174.5t-174.5 261t-65 318.5t65 318.5t174.5 261t261 174.5t318.5 65q268 0 492 -158
q-109 31 -197 31z" />
    <glyph glyph-name="spade" unicode="&#x2660;" horiz-adv-x="1843" 
d="M924 1618q66 -99 199 -238t278 -233q60 -39 104 -73t90.5 -79t75.5 -90t47.5 -102t18.5 -119q0 -150 -105 -253t-256 -103q-142 0 -246 93.5t-163 235.5l-6 -2q17 -210 54 -356.5t113 -298.5h-413q76 152 113.5 299t54.5 356l-6 2q-27 -67 -65.5 -124t-89 -104
t-116.5 -74t-139 -27q-151 0 -256 103t-105 253q0 62 18.5 119t47.5 102t75.5 90t90.5 79t104 73q146 95 279 233.5t199 237.5h4z" />
    <glyph glyph-name="club" unicode="&#x2663;" horiz-adv-x="1843" 
d="M715 0q76 152 113.5 299t54.5 356l-6 2q-27 -67 -65.5 -124t-89 -104t-116.5 -74t-139 -27q-151 0 -256 103t-105 253q0 161 99 265t258 104q84 0 172 -47l4 4q-78 118 -78 239q0 154 103.5 261.5t257.5 107.5t257 -107.5t103 -261.5q0 -121 -78 -239l4 -4q88 47 172 47
q159 0 258 -104t99 -265q0 -150 -105 -253t-256 -103q-142 0 -246 93.5t-163 235.5l-6 -2q17 -210 54 -356.5t113 -298.5h-413z" />
    <glyph glyph-name="heart" unicode="&#x2665;" horiz-adv-x="1843" 
d="M924 -20h-4q-59 88 -193.5 259t-284.5 341q-64 73 -114 136.5t-105 148.5t-86 170t-31 161q0 185 107 303.5t285 118.5q92 0 163.5 -25.5t120.5 -73t80.5 -100.5t55.5 -123h8q24 70 55.5 123t80.5 100.5t120.5 73t163.5 25.5q178 0 284.5 -118.5t106.5 -303.5
q0 -76 -31 -161t-86 -170t-105 -148.5t-114 -136.5q-149 -169 -283.5 -340t-193.5 -260z" />
    <glyph glyph-name="diamond" unicode="&#x2666;" horiz-adv-x="1843" 
d="M1673 799q-218 -170 -415 -386t-334 -433h-4q-137 217 -334.5 433t-415.5 386q218 170 415.5 386t334.5 433h4q137 -217 334 -433t415 -386z" />
    <glyph glyph-name="uni267B" unicode="&#x267b;" horiz-adv-x="1966" 
d="M1767 545l2 -4l-196 -342q-41 -60 -60 -77q-44 -38 -120 -38h-117v-100l-232 278l232 277v-101h297q34 0 66.5 11t54.5 27t39.5 31.5t25.5 26.5zM381 250h-4l-197 344q-23 42 -31.5 65.5t-5.5 63t29 82.5l57 100l-86 49l357 64l121 -340l-84 49q-144 -246 -148 -256
q-27 -46 -29 -101.5t10 -87.5zM827 1595v2h396q37 -1 56 -3t46 -11t47 -29t39 -53l57 -100l88 49l-124 -340l-355 64l84 49l-147 256q-27 47 -74 76t-80 35zM410 1225l137 243q21 38 69 64q63 34 131.5 30.5t126.5 -33t80 -69.5l-237 -411zM913 84h-276q-43 0 -90 27
q-45 26 -76 70.5t-42.5 91.5t-9.5 91.5t19 73.5h475v-354zM1651 1079l141 -239q20 -36 20 -90q1 -99 -78 -178.5t-151 -79.5l-237 411z" />
    <glyph glyph-name="uni267C" unicode="&#x267c;" horiz-adv-x="1966" 
d="M598 1321l-106 -188l237 -138l184 320q-17 30 -62 52.5t-98 25.5t-102 -23q-37 -21 -53 -49zM807 1421v-2q4 0 11 -1.5t26.5 -7.5t36.5 -14.5t37.5 -26.5t33.5 -40l115 -199l-66 -38l275 -50l96 265l-67 -39l-45 78q-28 49 -60 62t-86 13h-307zM659 248h215v274h-368
q-13 -22 -15 -57t7.5 -71.5t33.5 -71t58 -54.5q36 -20 69 -20zM467 377h2q-5 10 -10.5 27.5t-5 63t21.5 81.5l115 199l65 -39l-94 264l-276 -49l67 -39l-45 -78q-20 -34 -22.5 -65t4 -48.5t24.5 -50.5zM1563 834l-109 186l-237 -137l184 -320q57 0 118 61.5t60 139.5
q0 42 -16 70zM1546 602l-2 2q-2 -3 -6.5 -8.5t-19.5 -20t-31.5 -25t-42 -19.5t-51.5 -9h-230v78l-180 -215l180 -215v78h90q57 0 85 21.5t55 66.5zM131 799q0 221 108.5 407.5t295 295t407.5 108.5t407.5 -108.5t295 -295t108.5 -407.5t-108.5 -407.5t-295 -295
t-407.5 -108.5t-407.5 108.5t-295 295t-108.5 407.5z" />
    <glyph glyph-name="uni267D" unicode="&#x267d;" horiz-adv-x="1966" 
d="M492 1133l106 188q16 28 53 49q49 26 102 23t98 -25.5t62 -52.5l-184 -320zM807 1419v2h307q54 0 86 -13t60 -62l45 -78l67 39l-96 -265l-275 50l66 38l-115 199q-21 36 -57 58.5t-62 26.5zM874 248h-215q-33 0 -69 20q-34 20 -58 54.5t-33.5 71t-7.5 71.5t15 57h368
v-274zM469 377h-2l-154 266q-18 33 -24.5 50.5t-4 48.5t22.5 65l45 78l-67 39l276 49l94 -264l-65 39l-115 -199q-21 -36 -22.5 -79t7.5 -68zM1454 1020l109 -186q16 -28 16 -70q1 -78 -60 -139.5t-118 -61.5l-184 320zM1544 604l2 -2l-153 -266q-18 -30 -31 -46t-41 -29
t-68 -13h-90v-78l-180 215l180 215v-78h230q42 0 79.5 20.5t54.5 41.5zM123 799q0 167 65 318.5t174.5 261t261 174.5t318.5 65t318.5 -65t261 -174.5t174.5 -261t65 -318.5t-65 -318.5t-174.5 -261t-261 -174.5t-318.5 -65t-318.5 65t-261 174.5t-174.5 261t-65 318.5z
M201 799q0 -202 99 -372.5t269.5 -270t372.5 -99.5t372.5 99.5t269.5 270t99 372.5q0 151 -58.5 288.5t-157.5 236.5t-236.5 157.5t-288.5 58.5t-288.5 -58.5t-236.5 -157.5t-157.5 -236.5t-58.5 -288.5z" />
    <glyph glyph-name="mediumwhitecircle" unicode="&#x26aa;" horiz-adv-x="1372" 
d="M117 543q0 155 76 286t207 207t286 76t286 -76t207 -207t76 -286q0 -116 -45 -221.5t-121 -182t-181.5 -121.5t-221.5 -45t-221.5 45t-181.5 121.5t-121 182t-45 221.5zM401 543q0 -119 83.5 -202t201.5 -83t201.5 83t83.5 202q0 118 -83 201t-202 83t-202 -83t-83 -201z
" />
    <glyph glyph-name="mediumblackcircle" unicode="&#x26ab;" horiz-adv-x="1372" 
d="M117 543q0 155 76 286t207 207t286 76t286 -76t207 -207t76 -286q0 -116 -45 -221.5t-121 -182t-181.5 -121.5t-221.5 -45t-221.5 45t-181.5 121.5t-121 182t-45 221.5z" />
    <glyph glyph-name="anglebracketleft" unicode="&#x3008;" horiz-adv-x="747" 
d="M836 1720l-461 -983l203 -983h-334l-203 983l461 983h334z" />
    <glyph glyph-name="anglebracketright" unicode="&#x3009;" horiz-adv-x="747" 
d="M-96 -246l461 983l-203 983h334l202 -983l-460 -983h-334z" />
    <glyph glyph-name="fi" unicode="&#xe38c;" horiz-adv-x="1386" 
d="M590 1241l-21 -156h238l-37 -282h-238l-104 -803h-324l105 803h-168l37 282h168l24 191q51 389 451 389q117 0 178 -27l-35 -266q-35 14 -102 14q-75 0 -118 -30t-54 -115zM852 0l141 1085h324l-141 -1085h-324zM1391 1581l-45 -342h-342l45 342h342z" />
    <glyph glyph-name="fi" unicode="&#xfb01;" horiz-adv-x="1386" 
d="M590 1241l-21 -156h238l-37 -282h-238l-104 -803h-324l105 803h-168l37 282h168l24 191q51 389 451 389q117 0 178 -27l-35 -266q-35 14 -102 14q-75 0 -118 -30t-54 -115zM852 0l141 1085h324l-141 -1085h-324zM1391 1581l-45 -342h-342l45 342h342z" />
    <glyph glyph-name="fl" unicode="&#xe38d;" horiz-adv-x="1386" 
d="M590 1241l-21 -156h238l-37 -282h-238l-104 -803h-324l105 803h-168l37 282h168l24 191q51 389 451 389q117 0 178 -27l-35 -266q-35 14 -102 14q-75 0 -118 -30t-54 -115zM852 0l215 1638h324l-215 -1638h-324z" />
    <glyph glyph-name="fl" unicode="&#xfb02;" horiz-adv-x="1386" 
d="M590 1241l-21 -156h238l-37 -282h-238l-104 -803h-324l105 803h-168l37 282h168l24 191q51 389 451 389q117 0 178 -27l-35 -266q-35 14 -102 14q-75 0 -118 -30t-54 -115zM852 0l215 1638h324l-215 -1638h-324z" />
    <glyph glyph-name="invertedbreve" unicode="&#xe411;" horiz-adv-x="1024" 
d="M625 1626q105 0 177.5 -30.5t107.5 -84.5t47.5 -128.5t-3.5 -161.5h-227q21 159 -131 159q-151 0 -172 -159h-236q22 188 127.5 296.5t309.5 108.5z" />
    <glyph glyph-name="doublegrave" unicode="&#xe412;" horiz-adv-x="1024" 
d="M487 1597h287l88 -376h-252zM113 1597h284l138 -376h-252z" />
    <glyph glyph-name="caronSlovak" unicode="&#xe413;" horiz-adv-x="1024" 
d="M741 1638h195l-107 -417h-143z" />
    <glyph glyph-name="commaaccent" unicode="&#xe414;" horiz-adv-x="1232" 
d="M545 -90l-17 -117q-20 -140 -98.5 -198t-234.5 -58l14 113q154 0 182 71h-162l25 189h291z" />
    <glyph glyph-name="commaaccent" unicode="&#xf6c3;" horiz-adv-x="1232" 
d="M545 -90l-17 -117q-20 -140 -98.5 -198t-234.5 -58l14 113q154 0 182 71h-162l25 189h291z" />
    <glyph glyph-name="dotbelow" unicode="&#xe415;" horiz-adv-x="1232" 
d="M203 -410l41 310h309l-41 -310h-309z" />
    <glyph glyph-name="altcedilla" unicode="&#xe416;" horiz-adv-x="1232" 
d="M627 -242q0 -91 -70.5 -144.5t-187.5 -53.5q-153 0 -228 51l66 135q54 -35 151 -35q95 0 95 51q0 43 -93 43q-57 0 -100 -16l14 109q55 20 142 20q98 0 154.5 -40.5t56.5 -119.5z" />
    <glyph glyph-name="grave.cap" unicode="&#xe421;" horiz-adv-x="1024" 
d="M377 1946h338l82 -226h-320z" />
    <glyph glyph-name="acute.cap" unicode="&#xe422;" horiz-adv-x="1024" 
d="M621 1946h337l-161 -226h-320z" />
    <glyph glyph-name="circumflex.cap" unicode="&#xe423;" horiz-adv-x="1024" 
d="M1055 1720h-285l-117 103l-137 -103h-297l285 226h327z" />
    <glyph glyph-name="tilde.cap" unicode="&#xe424;" horiz-adv-x="1024" 
d="M870 1939h174q-13 -126 -77 -184.5t-156 -58.5q-56 0 -115 24.5t-108 49t-80 24.5q-71 0 -76 -68h-174q13 126 77.5 185t156.5 59q56 0 115 -24.5t108 -49t80 -24.5q70 0 75 67z" />
    <glyph glyph-name="macron.cap" unicode="&#xe425;" horiz-adv-x="1024" 
d="M334 1735l26 196h611l-27 -196h-610z" />
    <glyph glyph-name="breve.cap" unicode="&#xe426;" horiz-adv-x="1024" 
d="M643 1690q-108 0 -181.5 20t-110.5 56.5t-50.5 80t-7.5 99.5h219q-2 -42 32 -62t107 -20q75 0 119 21t45 61h227q-7 -57 -28 -99.5t-64.5 -80t-120.5 -57t-186 -19.5z" />
    <glyph glyph-name="invertedbreve.cap" unicode="&#xe427;" horiz-adv-x="1024" 
d="M662 1976q108 0 181.5 -20t110.5 -56.5t50.5 -80t7.5 -99.5h-219q2 41 -32.5 61.5t-107.5 20.5q-75 0 -119 -21t-45 -61h-227q7 57 28.5 99.5t64.5 80t120.5 57t186.5 19.5z" />
    <glyph glyph-name="dotaccent.cap" unicode="&#xe428;" horiz-adv-x="1024" 
d="M801 1935l-27 -204h-272l26 204h273z" />
    <glyph glyph-name="dieresis.cap" unicode="&#xe429;" horiz-adv-x="1024" 
d="M623 1935l-27 -204h-272l26 204h273zM981 1935l-27 -204h-272l27 204h272z" />
    <glyph glyph-name="ring.cap" unicode="&#xe42a;" horiz-adv-x="1024" 
d="M858 1782q0 -102 -70.5 -171t-169.5 -69q-85 0 -140.5 54.5t-55.5 136.5q0 102 70.5 170.5t169.5 68.5q85 0 140.5 -54t55.5 -136zM745 1767q0 41 -27 68t-67 27q-50 0 -83 -32t-33 -83q0 -41 27 -67.5t67 -26.5q50 0 83 32t33 82z" />
    <glyph glyph-name="hungarumlaut.cap" unicode="&#xe42b;" horiz-adv-x="1024" 
d="M449 1946h305l-146 -226h-284zM807 1946h305l-162 -226h-284z" />
    <glyph glyph-name="doublegrave.cap" unicode="&#xe42c;" horiz-adv-x="1024" 
d="M582 1946h305l63 -226h-284zM223 1946h305l80 -226h-284z" />
    <glyph glyph-name="caron.cap" unicode="&#xe42d;" horiz-adv-x="1024" 
d="M250 1946h285l116 -103l137 103h297l-284 -226h-328z" />
    <glyph glyph-name="commaaccent.cap" unicode="&#xe42e;" horiz-adv-x="1024" 
d="M500 1720l6 52q13 114 91 163.5t222 49.5l-10 -82q-146 0 -174 -60h156l-17 -123h-274z" />
    <glyph glyph-name="exclamdown.cap" unicode="&#xe441;" horiz-adv-x="542" 
d="M373 0h-402l234 1130h229zM164 1255l45 342h342l-45 -342h-342z" />
    <glyph glyph-name="questiondown.cap" unicode="&#xe444;" horiz-adv-x="1017" 
d="M430 258q83 0 125 65t63 218h326l-6 -47q-35 -263 -158.5 -392t-359.5 -129q-125 0 -214 26.5t-136.5 75.5t-68.5 108t-21 134q0 86 23 159t61 126t84 101t94.5 93.5t90.5 92.5t73.5 109t42.5 132h229q0 -103 -38 -198.5t-92 -166.5t-107.5 -135.5t-91.5 -130.5t-38 -126
q0 -115 119 -115zM408 1255l45 342h342l-45 -342h-342z" />
    <glyph glyph-name="guilsinglleft.cap" unicode="&#xe451;" horiz-adv-x="647" 
d="M608 1255l-39 -294l-245 -173l200 -172l-37 -274l-403 301l41 311z" />
    <glyph glyph-name="guilsinglright.cap" unicode="&#xe452;" horiz-adv-x="647" 
d="M43 342l39 295l246 172l-201 172l37 274l403 -301l-41 -311z" />
    <glyph glyph-name="guillemotleft.cap" unicode="&#xe453;" horiz-adv-x="1157" 
d="M608 1255l-39 -294l-245 -173l200 -172l-37 -274l-403 301l41 311zM1120 1255l-39 -294l-245 -173l200 -172l-37 -274l-403 301l41 311z" />
    <glyph glyph-name="guillemotright.cap" unicode="&#xe454;" horiz-adv-x="1157" 
d="M555 342l39 295l246 172l-201 172l37 274l403 -301l-41 -311zM43 342l39 295l246 172l-201 172l37 274l403 -301l-41 -311z" />
    <glyph glyph-name="slash.cap" unicode="&#xe461;" horiz-adv-x="780" 
d="M252 0h-315l602 1597h315z" />
    <glyph glyph-name="backslash.cap" unicode="&#xe462;" horiz-adv-x="780" 
d="M145 1597h316l184 -1597h-315z" />
    <glyph glyph-name="bar.cap" unicode="&#xe463;" horiz-adv-x="534" 
d="M10 0l209 1597h316l-209 -1597h-316z" />
    <glyph glyph-name="doublebar.cap" unicode="&#xe464;" horiz-adv-x="940" 
d="M10 0l209 1597h316l-209 -1597h-316zM414 0l209 1597h315l-209 -1597h-315z" />
    <glyph glyph-name="brokenbar.cap" unicode="&#xe465;" horiz-adv-x="534" 
d="M121 848l98 749h316l-99 -749h-315zM10 0l99 750h315l-98 -750h-316z" />
    <glyph glyph-name="bullet.cap" unicode="&#xe466;" horiz-adv-x="911" 
d="M831 1128l-86 -659h-657l86 659h657z" />
    <glyph glyph-name="onethirdemdash" unicode="&#xe471;" horiz-adv-x="681" 
d="M573 575h-518l37 283h518z" />
    <glyph glyph-name="threequarteremdash" unicode="&#xe472;" horiz-adv-x="1536" 
d="M55 575l37 283h1372l-37 -283h-1372z" />
    <glyph glyph-name="periodcentered.cap" unicode="&#xe481;" horiz-adv-x="544" 
d="M471 971l-45 -342h-342l45 342h342z" />
    <glyph glyph-name="hyphen.cap" unicode="&#xe482;" horiz-adv-x="655" 
d="M66 657l36 283h560l-37 -283h-559z" />
    <glyph glyph-name="onethirdemdash.cap" unicode="&#xe483;" horiz-adv-x="681" 
d="M584 657h-518l36 283h519z" />
    <glyph glyph-name="endash.cap" unicode="&#xe484;" horiz-adv-x="1024" 
d="M66 657l36 283h861l-37 -283h-860z" />
    <glyph glyph-name="threequarteremdash.cap" unicode="&#xe485;" horiz-adv-x="1536" 
d="M66 657l36 283h1373l-37 -283h-1372z" />
    <glyph glyph-name="emdash.cap" unicode="&#xe486;" horiz-adv-x="2048" 
d="M66 657l36 283h1885l-37 -283h-1884z" />
    <glyph glyph-name="figuredash.cap" unicode="&#xe487;" horiz-adv-x="1228" 
d="M66 657l36 283h1065l-37 -283h-1064z" />
    <glyph glyph-name="uni2015.cap" unicode="&#xe488;" horiz-adv-x="2457" 
d="M66 657l36 283h2294l-37 -283h-2293z" />
    <glyph glyph-name="parenleft.cap" unicode="&#xe491;" horiz-adv-x="747" 
d="M92 768l6 59q26 249 123.5 447.5t233.5 322.5h333q-132 -140 -236.5 -345t-127.5 -425l-6 -59q-12 -91 -4 -186.5t22.5 -174.5t40.5 -158.5t50.5 -137.5t52.5 -111h-334q-83 132 -130.5 336t-23.5 432z" />
    <glyph glyph-name="parenright.cap" unicode="&#xe492;" horiz-adv-x="747" 
d="M664 829l-7 -59q-26 -249 -123.5 -447.5t-232.5 -322.5h-334q132 140 237 345t128 425l6 59q12 91 4 186.5t-22.5 174.5t-40.5 158.5t-50.5 137.5t-52.5 111h334q83 -132 130.5 -336t23.5 -432z" />
    <glyph glyph-name="bracketleft.cap" unicode="&#xe493;" horiz-adv-x="747" 
d="M227 1597h561l-36 -282h-240l-135 -1032h239l-36 -283h-562z" />
    <glyph glyph-name="bracketright.cap" unicode="&#xe494;" horiz-adv-x="747" 
d="M528 0h-561l37 283h240l135 1032h-240l37 282h561z" />
    <glyph glyph-name="braceleft.cap" unicode="&#xe495;" horiz-adv-x="747" 
d="M788 1597l-36 -282q-79 0 -122.5 -34.5t-54.5 -121.5l-16 -123q-12 -94 -50.5 -148t-111.5 -89q64 -35 88.5 -89.5t12.5 -148.5l-15 -104q-13 -98 19 -136t114 -38l-36 -283h-56q-74 0 -133.5 11t-110.5 37t-82.5 67t-45 104.5t-2.5 145.5l18 141q10 81 -23.5 116
t-109.5 35l37 283q80 0 122 38t54 130l16 125q13 100 52 171.5t101 113t139.5 60.5t176.5 19h55z" />
    <glyph glyph-name="braceright.cap" unicode="&#xe496;" horiz-adv-x="747" 
d="M-33 0l37 283q79 0 122 34t54 121l17 123q12 94 50 148.5t111 89.5q-63 35 -87.5 89t-12.5 148l14 105q13 98 -19 136t-114 38l37 282h55q93 0 164 -18t125 -58t76.5 -113t9.5 -175l-18 -141q-10 -81 23.5 -116.5t109.5 -35.5l-37 -283q-80 0 -122 -38t-54 -130l-16 -124
q-13 -100 -52 -171.5t-101 -113.5t-139.5 -61t-176.5 -19h-56z" />
    <glyph glyph-name="anglebracketleft.cap" unicode="&#xe497;" horiz-adv-x="747" 
d="M778 1597l-385 -798l176 -799h-333l-177 799l385 798h334z" />
    <glyph glyph-name="anglebracketright.cap" unicode="&#xe498;" horiz-adv-x="747" 
d="M-20 0l385 799l-177 798h334l176 -798l-385 -799h-333z" />
    <glyph glyph-name="lowline" unicode="&#xe511;" horiz-adv-x="655" 
d="M-14 0l37 283h483l-37 -283h-483z" />
    <glyph glyph-name="underscoremonospace" unicode="&#xe512;" horiz-adv-x="1228" 
d="M-66 -379l37 283h1057l-37 -283h-1057z" />
    <glyph glyph-name="underscoremonospace" unicode="&#xff3f;" horiz-adv-x="1228" 
d="M-66 -379l37 283h1057l-37 -283h-1057z" />
    <glyph glyph-name="at.cap" unicode="&#xe513;" horiz-adv-x="2029" 
d="M977 -20h20q356 0 664 225l106 -168q-355 -268 -780 -268q-186 0 -344 43.5t-278 128.5t-198.5 205.5t-108.5 280.5t-5 347l10 78q25 191 92 350t165 274t225 195t274.5 119t310.5 39q161 0 300.5 -29.5t256.5 -93.5t195 -157.5t112.5 -227.5t12.5 -297l-10 -78
q-19 -144 -64 -253t-105.5 -177.5t-142 -111.5t-165.5 -59.5t-185 -16.5h-194l-6 121q-114 -148 -289 -148q-194 0 -277.5 129.5t-54.5 343.5l10 78q29 213 140.5 339t293.5 126q200 0 277 -148l33 121h250l-54 -280l-61 -473q119 0 193 36.5t120 126t66 246.5l10 78
q17 132 -12.5 236.5t-91 170.5t-152.5 109t-188 60.5t-207 17.5h-21q-345 0 -568 -194t-273 -572l-11 -78q-26 -191 16.5 -343.5t140 -250t238 -149t314.5 -51.5zM1180 971q-19 37 -61 66.5t-105 29.5q-167 0 -195 -215l-10 -78q-14 -106 21 -164.5t122 -58.5q59 0 107 29.5
t78 66.5z" />
    <glyph glyph-name="zero.inf" unicode="&#xe571;" 
d="M512 176l-51 -373q-14 -111 -89.5 -175t-205.5 -64q-129 0 -204.5 68t-61.5 171l51 373q16 111 90.5 175.5t204.5 64.5q129 0 204.5 -68.5t61.5 -171.5zM217 -188l47 356q5 35 -28 35h-5q-31 0 -36 -35l-48 -356q-5 -35 29 -35h4q32 0 37 35z" />
    <glyph glyph-name="one.inf" unicode="&#xe572;" 
d="M440 -410h-538l26 211h148l39 291l-78 -47l-98 174l278 174h182l-77 -592h145z" />
    <glyph glyph-name="two.inf" unicode="&#xe573;" 
d="M467 -199l-27 -211h-557l21 160l323 309q34 34 39 64l4 31q6 49 -26 49h-4q-19 0 -29 -18t-14 -62h-246l2 18q30 275 301 275q79 0 136.5 -25t85 -63.5t38.5 -77.5t6 -74l-4 -31q-8 -61 -35.5 -103.5t-85.5 -98.5l-149 -142h221z" />
    <glyph glyph-name="three.inf" unicode="&#xe574;" 
d="M147 -154q-13 -69 29 -69h4q35 0 43 57l2 14q6 52 -35 52h-98l25 196h96q20 0 30 9.5t13 33.5l2 15q6 49 -27 49h-4q-19 0 -29 -18t-14 -62h-245l2 18q30 275 301 275q79 0 136.5 -25t85 -63.5t38.5 -77.5t6 -74l-4 -31q-15 -112 -125 -147q47 -18 72 -63.5t16 -108.5
l-4 -31q-15 -111 -95 -171t-202 -60q-131 0 -205 72t-61 192l2 18h245z" />
    <glyph glyph-name="four.inf" unicode="&#xe575;" 
d="M373 -410h-246l18 140h-268l25 198l342 461h233l-59 -448h65l-26 -211h-66zM190 72l-94 -131h76z" />
    <glyph glyph-name="five.inf" unicode="&#xe576;" 
d="M-98 -154h245q-13 -69 29 -69h4q35 0 43 57l2 14q8 62 -41 62h-4q-29 0 -49 -23l-203 72l76 430h522l-26 -211h-322l-16 -92q13 9 42.5 17t57.5 8q117 0 170.5 -68t38.5 -184l-4 -31q-17 -130 -93.5 -197t-207.5 -67t-205 72t-61 192z" />
    <glyph glyph-name="six.inf" unicode="&#xe577;" 
d="M193 -117h-5q-10 0 -19.5 -5.5t-14.5 -11.5l-4 -5q-5 -17 -5 -31q0 -53 31 -53h4q15 0 26.5 11.5t14.5 33.5l2 14q6 47 -30 47zM524 416l-26 -211q-167 0 -252 -68q-33 -27 -47 -69q39 26 94 26q90 -2 141 -64t37 -171l-4 -31q-17 -130 -93.5 -197t-207.5 -67
q-76 0 -131.5 25.5t-85 69.5t-40 100.5t-1.5 121.5l4 31q26 209 164 356q78 84 185.5 116t262.5 32z" />
    <glyph glyph-name="seven.inf" unicode="&#xe578;" 
d="M-70 102l37 287h582l-21 -162l-346 -637h-262l330 588h-98l-11 -76h-211z" />
    <glyph glyph-name="eight.inf" unicode="&#xe579;" 
d="M166 -436q-130 0 -206 67.5t-62 171.5l4 31q16 119 125 164q-38 21 -60 63t-14 103l4 31q4 32 21 67t49 71.5t88 59.5t127 23q79 0 136.5 -25t85 -63.5t38.5 -77.5t6 -74l-4 -31q-15 -112 -125 -147q47 -18 72 -63.5t16 -108.5l-4 -31q-15 -111 -95 -171t-202 -60z
M219 96h4q28 0 33 43l2 15q6 49 -22 49h-5q-27 0 -32 -43l-2 -15q-6 -49 22 -49zM176 -223h4q35 0 43 57l2 14q6 52 -32 52h-5q-35 0 -43 -58l-2 -14q-6 -51 33 -51z" />
    <glyph glyph-name="nine.inf" unicode="&#xe57a;" 
d="M219 96h4q10 0 20 6t15 12l4 5q4 17 4 31q0 53 -30 53h-5q-15 0 -26.5 -11.5t-14.5 -33.5l-2 -15q-6 -47 31 -47zM-113 -436l27 211q169 0 252 67q33 26 47 70q-41 -27 -94 -27q-90 2 -141 64.5t-37 171.5l4 31q17 130 93.5 197t207.5 67q100 0 164 -45t85 -115t9 -158
l-4 -30q-26 -210 -164 -357q-78 -84 -185.5 -115.5t-263.5 -31.5z" />
    <glyph glyph-name="plus.inf" unicode="&#xe57b;" 
d="M135 260h213l-22 -164h163l-26 -213h-164l-23 -164h-213l23 164h-164l27 213h164z" />
    <glyph glyph-name="minus.inf" unicode="&#xe57c;" 
d="M-51 96h540l-26 -213h-541z" />
    <glyph glyph-name="equal.inf" unicode="&#xe57d;" 
d="M-35 223h541l-27 -213h-540zM-68 -31h541l-27 -213h-540z" />
    <glyph glyph-name="parenleft.inf" unicode="&#xe57e;" horiz-adv-x="419" 
d="M-72 -20l2 18q13 125 61 227t115 164h259q-67 -72 -123 -177.5t-68 -213.5l-2 -18q-12 -106 13.5 -209.5t64.5 -180.5h-238q-43 67 -69.5 172t-14.5 218z" />
    <glyph glyph-name="parenright.inf" unicode="&#xe57f;" horiz-adv-x="419" 
d="M287 0l-2 -18q-13 -125 -61 -227.5t-115 -164.5h-259q67 72 123 177.5t68 214.5l2 18q12 106 -13.5 209t-64.5 180h238q43 -67 69.5 -171.5t14.5 -217.5z" />
    <glyph glyph-name="Anocross" unicode="&#xe731;" horiz-adv-x="1312" 
d="M537 1602h456l191 -1602h-357l-108 1231l-434 -1231h-357z" />
    <glyph glyph-name="idotaccent" unicode="&#xe785;" horiz-adv-x="544" 
d="M10 0l142 1085h323l-141 -1085h-324zM549 1581l-45 -342h-342l45 342h342z" />
    <glyph glyph-name="interrobangdown" unicode="&#xe935;" horiz-adv-x="1017" 
d="M-74 -98q0 88 22.5 158t59 117t81.5 86t92 74.5t87.5 72.5t71.5 90t41 118h174l-92 -753q53 24 83.5 86t45.5 172h295l-6 -47q-34 -261 -158.5 -386.5t-362.5 -125.5q-124 0 -212 26.5t-135 75t-67 106t-20 130.5zM319 743l46 342h342l-45 -342h-343zM223 -45
q0 -74 66 -96l53 319q-32 -34 -46.5 -50.5t-35 -46.5t-29 -60t-8.5 -66z" />
    <glyph glyph-name="interrobangdown.cap" unicode="&#xe99b;" horiz-adv-x="1017" 
d="M-20 317q0 86 23 159t61 126t84 101t94.5 93.5t90.5 92.5t73.5 109t42.5 132h174l-101 -854q52 24 82 88.5t45 176.5h295l-6 -47q-35 -263 -158.5 -392t-359.5 -129q-125 0 -214 26.5t-136.5 75.5t-68.5 108t-21 134zM387 1255l45 342h342l-45 -342h-342zM281 383
q0 -82 65 -111l60 369q-45 -60 -64.5 -88.5t-40 -77t-20.5 -92.5z" />
    <glyph glyph-name="registered.cap" unicode="&#xe99c;" horiz-adv-x="1884" 
d="M117 799q0 168 65 321t175.5 263.5t263.5 175.5t321 65t321 -65t263.5 -175.5t175.5 -263.5t65 -321t-65 -321t-175.5 -263.5t-263.5 -176t-321 -65.5t-321 65.5t-263.5 176t-175.5 263.5t-65 321zM231 799q0 -145 56.5 -276.5t151.5 -226.5t226.5 -151.5t276.5 -56.5
t276.5 56.5t226.5 151.5t151.5 226.5t56.5 276.5q0 193 -95 356.5t-259 258.5t-357 95t-357 -95t-259 -258.5t-95 -356.5zM815 629v-312h-289v963h498q52 0 97 -7.5t90 -29t77 -55.5t52 -90.5t20 -130.5v-25q0 -202 -141 -272l141 -353h-303l-99 312h-143zM815 842h146
q110 0 110 106v13q0 106 -110 106h-146v-225z" />
    <glyph glyph-name="period.T" unicode="&#xf182;" 
d="M424 342l-45 -342h-342l45 342h342z" />
    <glyph glyph-name="comma.T" unicode="&#xf183;" 
d="M424 342l-35 -266q-48 -369 -399 -369l20 156q78 0 131 34.5t70 102.5h-174l45 342h342z" />
    <glyph glyph-name="colon.T" unicode="&#xf184;" 
d="M424 342l-45 -342h-342l45 342h342zM508 971l-45 -342h-342l45 342h342z" />
    <glyph glyph-name="semicolon.T" unicode="&#xf185;" 
d="M508 971l-45 -342h-342l45 342h342zM424 342l-35 -266q-48 -369 -399 -369l20 156q78 0 131 34.5t70 102.5h-174l45 342h342z" />
    <glyph glyph-name="onesixteenth" unicode="&#xf215;" horiz-adv-x="2252" 
d="M598 799h-539l27 211h147l39 290l-77 -47l-99 174l279 175h182l-78 -592h146zM266 0h-274l1388 1597h275zM1518 0h-539l27 211h147l39 291l-78 -47l-98 174l278 174h183l-78 -592h145zM1884 293h-4q-10 0 -20 -6t-14 -11l-5 -6q-4 -16 -4 -30q0 -54 31 -54h4
q15 0 26.5 11.5t14.5 33.5l2 15q6 47 -31 47zM2216 825l-27 -211q-169 0 -252 -67q-33 -26 -47 -70q40 27 95 27q90 -2 141 -64.5t37 -171.5l-4 -30q-17 -130 -93.5 -197.5t-207.5 -67.5q-76 0 -131.5 25.5t-85.5 70t-40.5 101t-1.5 121.5l5 31q26 210 163 356
q78 84 185.5 115.5t263.5 31.5z" />
    <glyph glyph-name="threesixteenths" unicode="&#xf216;" horiz-adv-x="2252" 
d="M305 1055q-13 -70 29 -70h4q35 0 43 57l2 15q6 51 -35 51h-98l24 197h97q20 0 30 9.5t13 33.5l2 14q6 49 -27 49h-4q-19 0 -29 -18t-14 -62h-246l2 19q30 274 301 274q79 0 137 -25t85.5 -63.5t38.5 -77.5t6 -74l-4 -30q-15 -113 -125 -148q47 -18 72 -63.5t16 -108.5
l-4 -30q-15 -111 -95 -171.5t-202 -60.5q-131 0 -205.5 72t-61.5 192l2 19h246zM266 0h-274l1388 1597h275zM1518 0h-539l27 211h147l39 291l-78 -47l-98 174l278 174h183l-78 -592h145zM1884 293h-4q-10 0 -20 -6t-14 -11l-5 -6q-4 -16 -4 -30q0 -54 31 -54h4
q15 0 26.5 11.5t14.5 33.5l2 15q6 47 -31 47zM2216 825l-27 -211q-169 0 -252 -67q-33 -26 -47 -70q40 27 95 27q90 -2 141 -64.5t37 -171.5l-4 -30q-17 -130 -93.5 -197.5t-207.5 -67.5q-76 0 -131.5 25.5t-85.5 70t-40.5 101t-1.5 121.5l5 31q26 210 163 356
q78 84 185.5 115.5t263.5 31.5z" />
    <glyph glyph-name="fivesixteenths" unicode="&#xf217;" horiz-adv-x="2252" 
d="M59 1055h246q-13 -70 29 -70h4q35 0 43 57l2 15q8 61 -41 61h-4q-30 0 -49 -22l-203 71l76 430h522l-27 -211h-321l-17 -92q13 9 43 17t58 8q117 0 170.5 -68t38.5 -184l-4 -31q-17 -130 -93.5 -197t-207.5 -67t-205.5 72t-61.5 192zM266 0h-274l1388 1597h275zM1518 0
h-539l27 211h147l39 291l-78 -47l-98 174l278 174h183l-78 -592h145zM1884 293h-4q-10 0 -20 -6t-14 -11l-5 -6q-4 -16 -4 -30q0 -54 31 -54h4q15 0 26.5 11.5t14.5 33.5l2 15q6 47 -31 47zM2216 825l-27 -211q-169 0 -252 -67q-33 -26 -47 -70q40 27 95 27q90 -2 141 -64.5
t37 -171.5l-4 -30q-17 -130 -93.5 -197.5t-207.5 -67.5q-76 0 -131.5 25.5t-85.5 70t-40.5 101t-1.5 121.5l5 31q26 210 163 356q78 84 185.5 115.5t263.5 31.5z" />
    <glyph glyph-name="sevensixteenths" unicode="&#xf218;" horiz-adv-x="2252" 
d="M88 1311l37 286h582l-21 -161l-346 -637h-262l330 587h-99l-10 -75h-211zM266 0h-274l1388 1597h275zM1518 0h-539l27 211h147l39 291l-78 -47l-98 174l278 174h183l-78 -592h145zM1884 293h-4q-10 0 -20 -6t-14 -11l-5 -6q-4 -16 -4 -30q0 -54 31 -54h4q15 0 26.5 11.5
t14.5 33.5l2 15q6 47 -31 47zM2216 825l-27 -211q-169 0 -252 -67q-33 -26 -47 -70q40 27 95 27q90 -2 141 -64.5t37 -171.5l-4 -30q-17 -130 -93.5 -197.5t-207.5 -67.5q-76 0 -131.5 25.5t-85.5 70t-40.5 101t-1.5 121.5l5 31q26 210 163 356q78 84 185.5 115.5
t263.5 31.5z" />
    <glyph glyph-name="ninesixteenths" unicode="&#xf219;" horiz-adv-x="2252" 
d="M377 1305h4q10 0 20 5.5t15 11.5l4 5q4 17 4 31q0 53 -31 53h-4q-15 0 -26.5 -11.5t-14.5 -33.5l-2 -14q-6 -47 31 -47zM45 772l27 211q167 0 252 68q33 27 47 69q-39 -26 -95 -26q-90 2 -141 64t-37 171l4 31q17 130 93.5 197t207.5 67q100 0 164 -44.5t85.5 -114.5
t9.5 -158l-5 -31q-26 -210 -163 -356q-78 -84 -186 -116t-263 -32zM266 0h-274l1388 1597h275zM1518 0h-539l27 211h147l39 291l-78 -47l-98 174l278 174h183l-78 -592h145zM1884 293h-4q-10 0 -20 -6t-14 -11l-5 -6q-4 -16 -4 -30q0 -54 31 -54h4q15 0 26.5 11.5t14.5 33.5
l2 15q6 47 -31 47zM2216 825l-27 -211q-169 0 -252 -67q-33 -26 -47 -70q40 27 95 27q90 -2 141 -64.5t37 -171.5l-4 -30q-17 -130 -93.5 -197.5t-207.5 -67.5q-76 0 -131.5 25.5t-85.5 70t-40.5 101t-1.5 121.5l5 31q26 210 163 356q78 84 185.5 115.5t263.5 31.5z" />
    <glyph glyph-name="elevensixteenths" unicode="&#xf220;" horiz-adv-x="2867" 
d="M598 799h-539l27 211h147l39 290l-77 -47l-99 174l279 175h182l-78 -592h146zM1212 799h-538l26 211h148l39 290l-78 -47l-98 174l278 175h182l-77 -592h145zM881 0h-275l1389 1597h274zM2132 0h-539l27 211h147l39 291l-77 -47l-99 174l279 174h182l-78 -592h146z
M2499 293h-5q-10 0 -19.5 -6t-14.5 -11l-4 -6q-5 -16 -5 -30q0 -54 31 -54h4q15 0 26.5 11.5t14.5 33.5l2 15q6 47 -30 47zM2830 825l-26 -211q-169 0 -252 -67q-33 -26 -47 -70q41 27 94 27q90 -2 141 -64.5t37 -171.5l-4 -30q-17 -130 -93.5 -197.5t-207.5 -67.5
q-100 0 -164 45t-85 115t-9 158l4 31q26 209 164 356q78 84 185.5 115.5t262.5 31.5z" />
    <glyph glyph-name="thirteensixteenths" unicode="&#xf221;" horiz-adv-x="2867" 
d="M598 799h-539l27 211h147l39 290l-77 -47l-99 174l279 175h182l-78 -592h146zM920 1055q-13 -70 28 -70h4q35 0 43 57l2 15q6 51 -34 51h-99l25 197h96q20 0 30 9.5t13 33.5l2 14q6 49 -26 49h-5q-19 0 -29 -18t-14 -62h-245l2 19q30 274 301 274q79 0 136.5 -25
t85 -63.5t38.5 -77.5t6 -74l-4 -30q-15 -113 -125 -148q47 -18 72 -63.5t16 -108.5l-4 -30q-15 -111 -95 -171.5t-202 -60.5q-131 0 -205 72t-61 192l2 19h246zM881 0h-275l1389 1597h274zM2132 0h-539l27 211h147l39 291l-77 -47l-99 174l279 174h182l-78 -592h146z
M2499 293h-5q-10 0 -19.5 -6t-14.5 -11l-4 -6q-5 -16 -5 -30q0 -54 31 -54h4q15 0 26.5 11.5t14.5 33.5l2 15q6 47 -30 47zM2830 825l-26 -211q-169 0 -252 -67q-33 -26 -47 -70q41 27 94 27q90 -2 141 -64.5t37 -171.5l-4 -30q-17 -130 -93.5 -197.5t-207.5 -67.5
q-100 0 -164 45t-85 115t-9 158l4 31q26 209 164 356q78 84 185.5 115.5t262.5 31.5z" />
    <glyph glyph-name="fifteensixteenths" unicode="&#xf222;" horiz-adv-x="2867" 
d="M598 799h-539l27 211h147l39 290l-77 -47l-99 174l279 175h182l-78 -592h146zM674 1055h246q-13 -70 28 -70h4q35 0 43 57l2 15q8 61 -41 61h-4q-30 0 -49 -22l-203 71l76 430h522l-26 -211h-322l-16 -92q13 9 42.5 17t57.5 8q117 0 170.5 -68t38.5 -184l-4 -31
q-17 -130 -93.5 -197t-207.5 -67t-205 72t-61 192zM881 0h-275l1389 1597h274zM2132 0h-539l27 211h147l39 291l-77 -47l-99 174l279 174h182l-78 -592h146zM2499 293h-5q-10 0 -19.5 -6t-14.5 -11l-4 -6q-5 -16 -5 -30q0 -54 31 -54h4q15 0 26.5 11.5t14.5 33.5l2 15
q6 47 -30 47zM2830 825l-26 -211q-169 0 -252 -67q-33 -26 -47 -70q41 27 94 27q90 -2 141 -64.5t37 -171.5l-4 -30q-17 -130 -93.5 -197.5t-207.5 -67.5q-100 0 -164 45t-85 115t-9 158l4 31q26 209 164 356q78 84 185.5 115.5t262.5 31.5z" />
    </font>
</defs>
</svg>
