<?xml version="1.0" standalone="no"?>
<!DOCTYPE svg PUBLIC "-//W3C//DTD SVG 1.1//EN" "http://www.w3.org/Graphics/SVG/1.1/DTD/svg11.dtd" >
<svg xmlns="http://www.w3.org/2000/svg" xmlns:xlink="http://www.w3.org/1999/xlink" version="1.1">
<metadata>
Created by FontForge 20170731 at Thu Jan 27 16:36:04 2022
 By Aleksey,,,
Copyright (c) 2014, Cooper Hewitt Smithsonian Design Museum (cooperhewitt.org)
</metadata>
<defs>
<font id="CooperHewitt-Book" horiz-adv-x="614" >
  <font-face 
    font-family="Cooper Hewitt"
    font-weight="705"
    font-stretch="normal"
    units-per-em="2048"
    panose-1="0 0 0 0 0 0 0 0 0 0"
    ascent="1536"
    descent="-512"
    x-height="1085"
    cap-height="1597"
    bbox="-451 -438 2824 1970"
    underline-thickness="40"
    underline-position="-224"
    unicode-range="U+0020-F222"
  />
<missing-glyph horiz-adv-x="1982" 
d="M193 0v1597h1597v-1597h-1597zM991 707l-571 -572h1143zM420 1462l571 -571l572 571h-1143zM899 799l-563 563v-1126zM1083 799l564 -563v1126z" />
    <glyph glyph-name=".notdef" horiz-adv-x="1982" 
d="M193 0v1597h1597v-1597h-1597zM991 707l-571 -572h1143zM420 1462l571 -571l572 571h-1143zM899 799l-563 563v-1126zM1083 799l564 -563v1126z" />
    <glyph glyph-name=".null" horiz-adv-x="0" 
 />
    <glyph glyph-name="nonmarkingreturn" horiz-adv-x="682" 
 />
    <glyph glyph-name="space" unicode=" " horiz-adv-x="409" 
 />
    <glyph glyph-name="exclam" unicode="!" horiz-adv-x="442" 
d="M133 1597h176l-39 -1210h-98zM313 184v-184h-184v184h184z" />
    <glyph glyph-name="quotedbl" unicode="&#x22;" horiz-adv-x="692" 
d="M141 1597h154l-23 -550h-100zM399 1597h152l-29 -550h-102z" />
    <glyph glyph-name="numbersign" unicode="#" horiz-adv-x="1228" 
d="M186 981v135h213l109 481h133l-109 -481h306l108 481h135l-108 -481h188v-135h-219l-82 -365h182v-135h-213l-108 -481h-133l106 481h-305l-106 -481h-136l109 481h-188v135h219l82 365h-183zM502 981l-82 -365h305l82 365h-305z" />
    <glyph glyph-name="dollar" unicode="$" horiz-adv-x="1228" 
d="M891 1720l-64 -264q130 -43 194 -147.5t64 -259.5v-33h-143q0 234 -145 309l-111 -459q213 -31 313.5 -116t100.5 -240v-16q0 -178 -125 -281.5t-344 -103.5q-74 0 -123 8l-57 -240h-125l65 273q-128 52 -195 155.5t-67 241.5v14h145q0 -96 38.5 -167t109.5 -111l115 479
q-207 33 -299.5 119t-92.5 225v14q0 169 129 269t340 100q52 0 95 -6l57 237h125zM635 236q144 0 229.5 66t85.5 183v11q0 111 -69.5 167t-223.5 82l-120 -501q39 -8 92 -8h6zM293 1120q0 -96 62.5 -153t209.5 -84l115 475q-40 4 -62 4h-8q-136 0 -226.5 -63t-90.5 -169v-10
z" />
    <glyph glyph-name="percent" unicode="%" horiz-adv-x="1886" 
d="M680 0h-137l598 1440q-124 -31 -234 -31q-96 0 -170 14q29 -69 29 -153v-23q0 -167 -97.5 -258.5t-246.5 -91.5t-246.5 91.5t-97.5 258.5v23q0 167 97.5 258.5t246.5 91.5q68 0 135 -23q164 -63 367 -63q98 0 216 22t165 43v-96zM1122 350q0 167 97 258.5t245 91.5
q149 0 246.5 -91.5t97.5 -258.5v-22q0 -167 -97.5 -259t-246.5 -92q-148 0 -245 92t-97 259v22zM645 1276q0 105 -62 164t-155 59h-12q-93 0 -155 -59t-62 -164v-35q0 -105 62 -164t155 -59h12q93 0 155 59t62 164v35zM1243 322q0 -105 61 -164.5t154 -59.5h12
q94 0 156 59.5t62 164.5v34q0 105 -62 164.5t-156 59.5h-12q-93 0 -154 -59.5t-61 -164.5v-34z" />
    <glyph glyph-name="ampersand" unicode="&#x26;" horiz-adv-x="1353" 
d="M543 -23q-213 0 -335 116.5t-122 322.5v20q0 141 69.5 242t190.5 186q-73 80 -112.5 133.5t-66 123t-26.5 147.5v20q0 146 99.5 239t279.5 93q182 0 281.5 -92.5t99.5 -239.5v-20q0 -70 -25 -128.5t-83.5 -113.5t-99 -84.5t-125.5 -85.5q-3 -2 -5 -3.5t-5 -3t-5 -3.5
l436 -473q86 169 86 428v6h150q0 -331 -135 -545l241 -262h-186l-144 154q-180 -177 -458 -177zM551 111h12q210 0 344 145l-469 510q-98 -71 -151.5 -148t-53.5 -176v-18q0 -145 80 -229t238 -84zM289 1286v-18q0 -89 44 -163.5t128 -162.5q44 28 65 41.5t58.5 39.5t56 43
t44 43.5t37.5 49t21 51t9 58.5v18q0 85 -58.5 144t-165.5 59h-14q-107 0 -166 -59t-59 -144z" />
    <glyph glyph-name="quotesingle" unicode="'" horiz-adv-x="444" 
d="M141 1597h162l-31 -550h-100z" />
    <glyph glyph-name="parenleft" unicode="(" horiz-adv-x="649" 
d="M104 717v41q0 138 18 260.5t44 212t72 183.5t85 156.5t99 149.5h158q-79 -111 -132 -202.5t-102 -209.5t-72.5 -254.5t-23.5 -295.5v-41q0 -159 23.5 -296t72.5 -254.5t102 -209.5t132 -203h-158q-60 87 -99.5 149.5t-85 156.5t-71.5 184t-44 212.5t-18 260.5z" />
    <glyph glyph-name="parenright" unicode=")" horiz-adv-x="649" 
d="M545 758v-41q0 -138 -17.5 -260t-44 -212.5t-71.5 -184t-85 -157.5t-100 -149h-157q79 111 132 203t101.5 209.5t72 254.5t23.5 296v41q0 159 -23.5 295.5t-72 254.5t-101.5 209.5t-132 202.5h157q60 -86 100 -149.5t85 -156.5t71.5 -183.5t44 -212.5t17.5 -260z" />
    <glyph glyph-name="asterisk" unicode="*" horiz-adv-x="796" 
d="M344 1638h109l-11 -299h-88zM20 1327l35 103l281 -103l-27 -82zM219 924l-88 63l184 234l70 -50zM741 1430l33 -103l-287 -82l-26 82zM664 987l-86 -63l-168 247l71 50z" />
    <glyph glyph-name="plus" unicode="+" horiz-adv-x="1228" 
d="M547 1315h135v-449h448v-135h-448v-448h-135v448h-449v135h449v449z" />
    <glyph glyph-name="comma" unicode="," horiz-adv-x="442" 
d="M313 184v-147q0 -279 -231 -279v86q66 0 101.5 36t41.5 120h-96v184h184z" />
    <glyph glyph-name="hyphen" unicode="-" horiz-adv-x="673" 
d="M82 651v131h510v-131h-510z" />
    <glyph glyph-name="period" unicode="." horiz-adv-x="442" 
d="M313 184v-184h-184v184h184z" />
    <glyph glyph-name="slash" unicode="/" horiz-adv-x="675" 
d="M645 1720l-471 -1966h-143l471 1966h143z" />
    <glyph glyph-name="zero" unicode="0" horiz-adv-x="1228" 
d="M127 1139q0 106 27.5 192t84.5 151.5t152.5 101.5t222.5 36t222.5 -36t152.5 -101.5t85 -151.5t28 -192v-680q0 -106 -28 -192t-85 -152t-152.5 -102t-222.5 -36t-222.5 36t-152.5 102t-84.5 152t-27.5 192v680zM956 1122q0 176 -78 271.5t-257 95.5h-13
q-179 0 -257.5 -95.5t-78.5 -271.5v-647q0 -176 78.5 -271t257.5 -95h13q179 0 257 95t78 271v647z" />
    <glyph glyph-name="one" unicode="1" horiz-adv-x="1228" 
d="M1124 0h-979v133h418v1276l-377 -256l-73 113l501 340h95v-1473h415v-133z" />
    <glyph glyph-name="two" unicode="2" horiz-adv-x="1228" 
d="M492 133h622v-133h-999v92l690 733q92 95 128 166.5t36 159.5v20q0 146 -95.5 232t-252.5 86h-13q-176 0 -262 -101t-86 -323h-145v49q0 506 499 506q238 0 369 -116.5t131 -309.5v-25q0 -123 -39.5 -210t-146.5 -201l-590 -627z" />
    <glyph glyph-name="three" unicode="3" horiz-adv-x="1228" 
d="M250 512q0 -204 92 -303.5t262 -99.5h21q95 0 173 32t129.5 103.5t51.5 171.5v28q0 148 -94 227t-242 79h-233v131h225q149 0 241.5 71t92.5 213v15q0 140 -94.5 224.5t-249.5 84.5h-21q-176 0 -260 -100.5t-84 -323.5h-145v49q0 506 499 506q238 0 369 -115.5
t131 -306.5v-31q0 -135 -66.5 -223.5t-181.5 -128.5q119 -43 188.5 -137.5t69.5 -235.5v-32q0 -191 -142.5 -312t-367.5 -121q-255 0 -382.5 134.5t-127.5 377.5v23h146z" />
    <glyph glyph-name="four" unicode="4" horiz-adv-x="1228" 
d="M897 0h-145v424h-684v98l688 1075h141v-1040h264v-133h-264v-424zM754 1348l-506 -793l176 2h328v582z" />
    <glyph glyph-name="five" unicode="5" horiz-adv-x="1228" 
d="M104 512h146q0 -204 92 -303.5t262 -99.5h21q70 0 132.5 22t112.5 65t79.5 115.5t29.5 165.5v37q0 93 -29.5 165.5t-80 115.5t-113.5 64.5t-135 21.5h-19q-117 0 -217.5 -56.5t-144.5 -160.5l-123 36l39 897h948v-133h-807l-27 -567q137 115 348 115q224 0 365 -132.5
t141 -371.5v-25q0 -161 -67 -277t-181 -172.5t-262 -56.5q-255 0 -382.5 134.5t-127.5 377.5v23z" />
    <glyph glyph-name="six" unicode="6" horiz-adv-x="1228" 
d="M1059 1620v-131q-110 0 -216 -28t-210 -93t-178 -162q-114 -148 -162 -350q145 148 360 148q140 0 246.5 -54t170 -169t63.5 -279v-21q0 -246 -137.5 -375t-372.5 -129q-227 0 -368.5 149.5t-141.5 412.5v22q0 431 225 731q125 167 318 247.5t403 80.5zM627 872
q-119 0 -216 -61t-151 -164q-2 -31 -2 -94v-21q0 -193 102 -308t256 -115h13q164 0 261 97t97 269v35q0 172 -94 267t-254 95h-12z" />
    <glyph glyph-name="seven" unicode="7" horiz-adv-x="1228" 
d="M119 1024v573h1007v-90l-612 -1507h-158l598 1466l-225 -2h-477v-440h-133z" />
    <glyph glyph-name="eight" unicode="8" horiz-adv-x="1228" 
d="M614 -23q-226 0 -368 119.5t-142 309.5v32q0 142 69 237t189 140q-115 42 -181 131.5t-66 224.5v31q0 190 130.5 304t368.5 114t369 -114t131 -304v-31q0 -135 -67 -224.5t-183 -131.5q120 -45 190 -140t70 -237v-32q0 -190 -142 -309.5t-368 -119.5zM586 750
q-147 0 -241.5 -81t-94.5 -229v-28q0 -76 29.5 -135.5t79.5 -95.5t112.5 -54t132.5 -18h21q70 0 132.5 18t112.5 54t79.5 95.5t29.5 135.5v28q0 148 -94.5 229t-241.5 81h-57zM625 1489h-21q-155 0 -249.5 -82t-94.5 -221v-17q0 -141 93 -214.5t241 -73.5h41q148 0 241 73.5
t93 214.5v17q0 139 -94.5 221t-249.5 82z" />
    <glyph glyph-name="nine" unicode="9" horiz-adv-x="1228" 
d="M170 -23v132q110 0 216 27.5t210 92.5t178 162q110 142 162 348q-145 -145 -361 -145q-104 0 -190.5 31.5t-151.5 92.5t-101 157.5t-36 220.5v20q0 246 137.5 375t372.5 129q227 0 368.5 -149t141.5 -412v-23q0 -431 -225 -731q-125 -167 -318 -247.5t-403 -80.5z
M602 725q118 0 215.5 61t149.5 162q4 66 4 96v21q0 193 -102.5 308.5t-256.5 115.5h-12q-164 0 -261 -97.5t-97 -269.5v-35q0 -172 94 -267t254 -95h12z" />
    <glyph glyph-name="colon" unicode=":" horiz-adv-x="442" 
d="M313 184v-184h-184v184h184zM313 891v-184h-184v184h184z" />
    <glyph glyph-name="semicolon" unicode=";" horiz-adv-x="442" 
d="M313 184v-147q0 -279 -231 -279v86q66 0 101.5 36t41.5 120h-96v184h184zM313 891v-184h-184v184h184z" />
    <glyph glyph-name="less" unicode="&#x3c;" horiz-adv-x="1228" 
d="M98 870l1032 482v-148l-888 -405l888 -406v-147l-1032 481v143z" />
    <glyph glyph-name="equal" unicode="=" horiz-adv-x="1228" 
d="M98 940v135h1032v-135h-1032zM98 522v135h1032v-135h-1032z" />
    <glyph glyph-name="greater" unicode="&#x3e;" horiz-adv-x="1228" 
d="M1130 870v-143l-1032 -481v147l887 406l-887 405v148z" />
    <glyph glyph-name="question" unicode="?" horiz-adv-x="931" 
d="M473 1487q-63 0 -110.5 -21t-78.5 -58t-50 -95t-27 -125.5t-8 -155.5h-146v25q0 101 11.5 181.5t40.5 153.5t75.5 122t120.5 77.5t172 28.5q207 0 304 -112t97 -314q0 -83 -19 -151t-50 -116t-69 -91.5l-76 -87t-70 -92t-53.5 -117.5t-24.5 -152h-96q-3 84 12.5 158
t42.5 129.5t60.5 106.5t67.5 97t62 91t46 99t18 112q0 153 -56 230t-196 77zM555 184v-184h-184v184h184z" />
    <glyph glyph-name="at" unicode="@" horiz-adv-x="1968" 
d="M1026 -319h12q387 0 674 213l66 -89q-303 -237 -746 -237q-212 0 -389.5 67t-305 192t-198.5 311t-71 415v82q0 229 69.5 415t195.5 311t302 192t387 67q145 0 274.5 -31.5t240.5 -98t192 -162.5t126.5 -232.5t45.5 -300.5v-62q0 -144 -27 -252t-73.5 -175.5t-117.5 -109
t-149.5 -57.5t-179.5 -16h-94l-21 149q-45 -77 -124.5 -124.5t-192.5 -47.5q-103 0 -182.5 39.5t-126 107.5t-70 152t-23.5 181v49q0 77 14 146t45.5 130.5t77.5 106t114 70.5t151 26q112 0 191.5 -48t125.5 -124l21 149h110l-12 -301v-551q69 2 120.5 10.5t102 28.5t85 56
t61.5 90t40 133t13 182v62q0 149 -41 270t-111.5 202t-167 136t-204.5 79.5t-228 24.5h-12q-183 0 -336 -59.5t-263 -169.5t-171.5 -275t-61.5 -368v-82q0 -209 62 -375t174 -274.5t266 -165.5t340 -57zM952 223q92 0 161.5 49t111.5 115v434q-42 66 -111.5 115t-161.5 49
q-146 0 -218 -97.5t-72 -258.5v-49q0 -161 72 -259t218 -98z" />
    <glyph glyph-name="A" unicode="A" horiz-adv-x="1251" 
d="M520 1614h211l461 -1614h-160l-114 410h-584l-115 -410h-160zM625 1452l-254 -909h508z" />
    <glyph glyph-name="B" unicode="B" horiz-adv-x="1200" 
d="M152 1597h405q103 0 188.5 -22.5t153 -68.5t105.5 -125t38 -185v-41q0 -246 -237 -330q278 -84 278 -362v-41q0 -110 -39 -193t-108 -132t-155.5 -73t-190.5 -24h-438v1597zM600 754h-301v-621h301q146 0 239 73.5t93 221.5v31q0 148 -93 221.5t-239 73.5zM563 1464h-264
v-577h264q146 0 237 66t91 206v33q0 140 -91 206t-237 66z" />
    <glyph glyph-name="C" unicode="C" horiz-adv-x="1265" 
d="M268 758q0 -339 93.5 -493t295.5 -154h15q176 0 258 103t82 306h151v-20q0 -255 -126 -389t-378 -134q-278 0 -410 185.5t-132 595.5v82q0 410 131.5 595t410.5 185q504 0 504 -547v-57h-151q0 248 -80 359.5t-260 111.5h-15q-201 0 -295 -154t-94 -493v-82z" />
    <glyph glyph-name="D" unicode="D" horiz-adv-x="1308" 
d="M1192 758q0 -204 -41.5 -351t-123 -236t-193.5 -130t-261 -41h-421v1597h421q150 0 261.5 -41t193 -129.5t123 -235.5t41.5 -351v-82zM299 133h262q118 0 205 34t149.5 107.5t93.5 194t31 289.5v82q0 331 -120 477.5t-359 146.5h-262v-1331z" />
    <glyph glyph-name="E" unicode="E" horiz-adv-x="1124" 
d="M152 1597h890v-133h-743v-583h641v-131h-641v-617h743v-133h-890v1597z" />
    <glyph glyph-name="F" unicode="F" horiz-adv-x="1050" 
d="M152 1597h858v-133h-711v-583h608v-131h-608v-750h-147v1597z" />
    <glyph glyph-name="G" unicode="G" horiz-adv-x="1327" 
d="M698 -23q-294 0 -437.5 186.5t-143.5 594.5v82q0 406 140.5 593t420.5 187q508 0 508 -547v-57h-150q0 248 -81 359.5t-265 111.5h-12q-206 0 -307 -155.5t-101 -491.5v-82q0 -340 101.5 -493.5t322.5 -153.5h15q112 0 196 35t133 87v422h-274v131h422v-624
q-177 -185 -488 -185z" />
    <glyph glyph-name="H" unicode="H" horiz-adv-x="1308" 
d="M1010 1597h147v-1597h-147v750h-711v-750h-147v1597h147v-716h711v716z" />
    <glyph glyph-name="I" unicode="I" horiz-adv-x="471" 
d="M309 1597v-1597h-147v1597h147z" />
    <glyph glyph-name="J" unicode="J" horiz-adv-x="1013" 
d="M725 1597h147v-1105q0 -251 -95.5 -383t-311.5 -132q-220 0 -313 129t-93 386v28h140q0 -214 61.5 -311.5t202.5 -97.5q140 0 201 96.5t61 308.5v1081z" />
    <glyph glyph-name="K" unicode="K" horiz-adv-x="1150" 
d="M299 1597v-876l602 876h180l-475 -671l475 -926h-168l-401 793l-213 -301v-492h-147v1597h147z" />
    <glyph glyph-name="L" unicode="L" horiz-adv-x="1005" 
d="M975 0h-823v1597h147v-1464h676v-133z" />
    <glyph glyph-name="M" unicode="M" horiz-adv-x="1644" 
d="M1354 1341l-465 -1341h-133l-465 1341l8 -356v-985h-147v1597h206l465 -1343l465 1343h207v-1597h-147v985z" />
    <glyph glyph-name="N" unicode="N" horiz-adv-x="1349" 
d="M1198 1597v-1597h-160l-755 1348l8 -371v-977h-139v1597h159l754 -1347l-6 371v976h139z" />
    <glyph glyph-name="O" unicode="O" horiz-adv-x="1329" 
d="M664 -23q-278 0 -412.5 186t-134.5 595v82q0 409 134.5 594.5t412.5 185.5q279 0 413.5 -185.5t134.5 -594.5v-82q0 -409 -134.5 -595t-413.5 -186zM657 111h15q202 0 295.5 154t93.5 493v82q0 339 -93.5 493t-295.5 154h-15q-202 0 -295.5 -154t-93.5 -493v-82
q0 -339 93.5 -493t295.5 -154z" />
    <glyph glyph-name="P" unicode="P" horiz-adv-x="1173" 
d="M299 649v-649h-147v1597h442q74 0 139 -11.5t131 -42.5t113 -80.5t76.5 -131t29.5 -188.5v-41q0 -106 -29.5 -187.5t-76.5 -131t-113 -80.5t-131 -42.5t-139 -11.5h-295zM299 782h299q46 0 88 7t88.5 29t80 56.5t55.5 94.5t22 139v31q0 79 -22 139t-55.5 94.5t-80 56
t-88.5 28.5t-88 7h-299v-682z" />
    <glyph glyph-name="Q" unicode="Q" horiz-adv-x="1329" 
d="M664 -23q-278 0 -412.5 186t-134.5 595v82q0 409 134.5 594.5t412.5 185.5q279 0 413.5 -185.5t134.5 -594.5v-82q0 -314 -78.5 -494.5t-238.5 -245.5l86 -223h-135l-72 191q-79 -9 -110 -9zM723 463l121 -316q110 56 163.5 205.5t53.5 405.5v82q0 339 -93.5 493
t-295.5 154h-15q-202 0 -295.5 -154t-93.5 -493v-82q0 -339 93.5 -493t295.5 -154h15q37 0 55 2l-131 350h127z" />
    <glyph glyph-name="R" unicode="R" horiz-adv-x="1196" 
d="M299 649v-649h-147v1597h442q74 0 139 -11.5t131 -42.5t113 -80.5t76.5 -131t29.5 -188.5v-41q0 -333 -276 -422l276 -680h-161l-254 651q-25 -2 -74 -2h-295zM299 782h299q46 0 88 7t88.5 29t80 56.5t55.5 94.5t22 139v31q0 79 -22 139t-55.5 94.5t-80 56t-88.5 28.5
t-88 7h-299v-682z" />
    <glyph glyph-name="S" unicode="S" horiz-adv-x="1230" 
d="M590 758q-477 64 -477 413v21q0 198 136 313t365 115q261 0 382.5 -130t121.5 -384v-49h-147q0 227 -83 328.5t-267 101.5h-15q-149 0 -245.5 -75t-96.5 -202v-16q0 -89 33.5 -148t118.5 -101t229 -62q257 -35 374.5 -141t117.5 -293v-21q0 -211 -141 -331t-382 -120
q-252 0 -386 137t-134 386v20h148q0 -204 99 -306.5t267 -102.5h15q165 0 263.5 81.5t98.5 225.5v18q0 141 -93 217t-302 105z" />
    <glyph glyph-name="T" unicode="T" horiz-adv-x="1054" 
d="M600 1464v-1464h-147v1464h-406v133h961v-133h-408z" />
    <glyph glyph-name="U" unicode="U" horiz-adv-x="1308" 
d="M653 -23q-263 0 -387.5 119t-124.5 400v1101h148v-1091q0 -150 41 -237.5t118 -122.5t205 -35q192 0 279.5 87.5t87.5 307.5v1091h147v-1101q0 -143 -32 -243t-98 -161t-159.5 -88t-224.5 -27z" />
    <glyph glyph-name="V" unicode="V" horiz-adv-x="1251" 
d="M731 -16h-211l-461 1613h160l406 -1452l407 1452h160z" />
    <glyph glyph-name="W" unicode="W" horiz-adv-x="1832" 
d="M1249 -16l-334 1454l-331 -1454h-203l-297 1613h156l249 -1431l328 1431h199l327 -1431l250 1431h156l-297 -1613h-203z" />
    <glyph glyph-name="X" unicode="X" horiz-adv-x="1255" 
d="M63 0l463 813l-463 784h173l391 -671l391 671h174l-465 -784l465 -813h-168l-397 702l-396 -702h-168z" />
    <glyph glyph-name="Y" unicode="Y" horiz-adv-x="1181" 
d="M666 483v-483h-148v483l-475 1114h160l389 -931l387 931h162z" />
    <glyph glyph-name="Z" unicode="Z" horiz-adv-x="1153" 
d="M82 102l786 1368l-258 -6h-508v133h949v-102l-787 -1368l258 6h549v-133h-989v102z" />
    <glyph glyph-name="bracketleft" unicode="[" horiz-adv-x="649" 
d="M137 1720h426v-135h-280v-1696h280v-135h-426v1966z" />
    <glyph glyph-name="backslash" unicode="\" horiz-adv-x="673" 
d="M502 -246l-471 1966h143l471 -1966h-143z" />
    <glyph glyph-name="bracketright" unicode="]" horiz-adv-x="649" 
d="M512 -246h-426v135h283v1696h-283v135h426v-1966z" />
    <glyph glyph-name="asciicircum" unicode="^" horiz-adv-x="1228" 
d="M686 1597l481 -1032h-147l-406 887l-405 -887h-148l482 1032h143z" />
    <glyph glyph-name="underscore" unicode="_" horiz-adv-x="655" 
d="M98 -276v131h459v-131h-459z" />
    <glyph glyph-name="grave" unicode="`" horiz-adv-x="1024" 
d="M246 1597h155l185 -340h-148z" />
    <glyph glyph-name="a" unicode="a" horiz-adv-x="1048" 
d="M811 0l-23 152q-134 -175 -382 -175q-147 0 -230.5 82t-83.5 215v21q0 68 20.5 122t53 88.5t80.5 59.5t95 38t105 22l328 51v29q0 146 -56 214t-196 68q-74 0 -125.5 -20t-78 -58t-37.5 -81.5t-11 -100.5h-137v18q0 53 9.5 101t36.5 97.5t69 84.5t113 57.5t163 22.5
q110 0 188 -28.5t122.5 -83.5t64 -126t19.5 -165v-398l12 -307h-119zM442 102q226 0 332 172v297l-315 -51q-223 -40 -223 -215v-18q0 -79 52 -132t154 -53z" />
    <glyph glyph-name="b" unicode="b" horiz-adv-x="1099" 
d="M279 1638v-677q102 147 307 147q108 0 189.5 -41.5t130 -116.5t72 -171t23.5 -212v-49q0 -116 -23.5 -212t-72 -171t-130 -116.5t-189.5 -41.5q-221 0 -324 170l-20 -147h-119l12 307v1331h144zM279 811v-537q100 -168 274 -168q150 0 225.5 109t75.5 303v49
q0 194 -75.5 303t-225.5 109q-174 0 -274 -168z" />
    <glyph glyph-name="c" unicode="c" horiz-adv-x="1069" 
d="M246 518q0 -193 76.5 -302.5t232.5 -109.5q142 0 209 77t67 194h138v-33q0 -53 -14 -104t-46.5 -99t-79.5 -84t-118 -58t-158 -22q-116 0 -204 42t-141.5 116.5t-80.5 170.5t-27 212v49q0 116 27 212t80.5 170.5t141.5 116.5t204 42q107 0 190 -34t130.5 -90t71.5 -121
t24 -134v-41h-138q0 133 -67.5 212t-208.5 79q-156 0 -232.5 -109.5t-76.5 -302.5v-49z" />
    <glyph glyph-name="d" unicode="d" horiz-adv-x="1105" 
d="M520 1108q201 0 307 -147v677h144v-1331l12 -307h-121l-20 145q-45 -75 -125.5 -121.5t-196.5 -46.5q-108 0 -189.5 41.5t-130 116.5t-72.5 171t-24 212v49q0 116 24 212t72.5 171t130 116.5t189.5 41.5zM551 106q171 0 276 168v537q-105 168 -276 168
q-150 0 -225.5 -109t-75.5 -303v-49q0 -194 75.5 -303t225.5 -109z" />
    <glyph glyph-name="e" unicode="e" horiz-adv-x="1114" 
d="M1014 483h-768q5 -184 84.5 -284.5t238.5 -100.5q78 0 139 22.5t97 59t54 79.5t18 89h137v-8q0 -65 -27.5 -128t-80 -116.5t-140 -86t-197.5 -32.5q-96 0 -174.5 27.5t-132.5 76.5t-91 118t-54 149t-17 172v45q0 115 27.5 212t82.5 172t144 117t205 42t204.5 -42
t142.5 -117t81 -172t27 -212v-82zM557 987q-150 0 -228 -101.5t-83 -283.5h622q-6 183 -83 284t-228 101z" />
    <glyph glyph-name="f" unicode="f" horiz-adv-x="778" 
d="M379 1319v-234h305v-129h-305v-956h-143v956h-173v129h173v252q0 169 85 246.5t232 77.5q91 0 152 -23v-125q-13 6 -49 12.5t-68 6.5q-109 0 -159 -45t-50 -168z" />
    <glyph glyph-name="g" unicode="g" horiz-adv-x="1099" 
d="M823 -2v201q-104 -144 -307 -144q-107 0 -188.5 39.5t-130.5 109.5t-73 159.5t-24 195.5v45q0 83 14.5 157t47 138t80.5 110t118 72.5t156 26.5q220 0 324 -168l20 145h119l-12 -307v-788q0 -94 -23.5 -169t-73 -133t-133 -89t-196.5 -31q-114 0 -197 31.5t-131 88
t-70 127.5t-22 158v27h137q0 -157 66 -232t215 -75q152 0 218 75.5t66 229.5zM823 811q-105 168 -276 168q-148 0 -224.5 -101t-76.5 -274v-45q0 -175 76 -275t225 -100q169 0 276 166v461z" />
    <glyph glyph-name="h" unicode="h" horiz-adv-x="1081" 
d="M279 1638v-684q118 154 348 154q157 0 243 -95.5t86 -252.5v-760h-143v739q0 120 -62 180t-173 60q-194 0 -299 -168v-811h-144v1638h144z" />
    <glyph glyph-name="i" unicode="i" horiz-adv-x="442" 
d="M150 0v1085h143v-1085h-143zM313 1526v-185h-184v185h184z" />
    <glyph glyph-name="j" unicode="j" horiz-adv-x="442" 
d="M150 -90v1175h143v-1194q0 -168 -85 -245.5t-233 -77.5q-92 0 -151 22v125q40 -18 117 -18q109 0 159 45t50 168zM313 1526v-185h-184v185h184z" />
    <glyph glyph-name="k" unicode="k" horiz-adv-x="1026" 
d="M133 0v1638h143v-1126l517 573h178l-373 -411l373 -674h-164l-307 565l-224 -246v-319h-143z" />
    <glyph glyph-name="l" unicode="l" horiz-adv-x="442" 
d="M150 0v1638h143v-1638h-143z" />
    <glyph glyph-name="m" unicode="m" horiz-adv-x="1648" 
d="M1524 0h-144v766q0 117 -54.5 165t-154.5 48q-54 0 -99 -15t-77.5 -42t-52.5 -51t-41 -56v-815h-143v766q0 117 -54.5 165t-154.5 48q-54 0 -99 -15t-77.5 -42t-52.5 -51t-41 -56v-815h-144v778l-12 307h119l20 -147q49 76 133 123t203 47q107 0 178.5 -46t102.5 -134
q47 81 132.5 130.5t209.5 49.5q146 0 224.5 -84t78.5 -238v-786z" />
    <glyph glyph-name="n" unicode="n" horiz-adv-x="1081" 
d="M956 0h-143v739q0 120 -62 180t-173 60q-194 0 -299 -168v-811h-144v778l-12 307h119l20 -153q116 176 365 176q157 0 243 -95.5t86 -252.5v-760z" />
    <glyph glyph-name="o" unicode="o" horiz-adv-x="1114" 
d="M557 -23q-116 0 -205.5 42t-143.5 116.5t-81 171t-27 211.5v49q0 115 27 211.5t81 171t143.5 116.5t205.5 42t205.5 -42t143.5 -116.5t81 -171t27 -211.5v-49q0 -115 -27 -211.5t-81 -171t-143.5 -116.5t-205.5 -42zM557 106q156 0 233.5 109.5t77.5 302.5v49
q0 193 -77.5 302.5t-233.5 109.5t-233.5 -109.5t-77.5 -302.5v-49q0 -193 77.5 -302.5t233.5 -109.5z" />
    <glyph glyph-name="p" unicode="p" horiz-adv-x="1099" 
d="M586 -23q-206 0 -307 146v-533h-144v1188l-12 307h119l20 -147q105 170 324 170q108 0 189.5 -41.5t130 -116.5t72 -171t23.5 -212v-49q0 -116 -23.5 -212t-72 -171t-130 -116.5t-189.5 -41.5zM279 811v-537q100 -168 274 -168q150 0 225.5 109t75.5 303v49
q0 194 -75.5 303t-225.5 109q-174 0 -274 -168z" />
    <glyph glyph-name="q" unicode="q" horiz-adv-x="1103" 
d="M825 -410v537q-105 -150 -309 -150q-108 0 -189.5 41.5t-130 116.5t-72.5 171t-24 212v49q0 116 24 212t72.5 171t130 116.5t189.5 41.5q220 0 324 -172l20 149h121l-14 -307v-1188h-142zM825 811q-105 168 -276 168q-150 0 -225.5 -109t-75.5 -303v-49q0 -194 75.5 -303
t225.5 -109q171 0 276 168v537z" />
    <glyph glyph-name="r" unicode="r" horiz-adv-x="681" 
d="M565 1108q6 0 13.5 -0.5t12 -1t5.5 -0.5v-137h-29q-185 0 -288 -164v-805h-144v778l-12 307h119l20 -143q47 74 124 120t179 46z" />
    <glyph glyph-name="s" unicode="s" horiz-adv-x="1069" 
d="M535 98q130 0 200 53.5t70 145.5q0 106 -65.5 146.5t-231.5 54.5q-143 12 -227.5 50.5t-117 95.5t-32.5 142v13q0 142 107.5 225.5t296.5 83.5q212 0 308.5 -97t96.5 -268v-8h-141q0 125 -59.5 188.5t-204.5 63.5q-124 0 -192.5 -49t-68.5 -139q0 -60 22.5 -97t87 -62
t179.5 -34q208 -18 298.5 -85t90.5 -214v-10q0 -144 -110 -232t-307 -88q-110 0 -194 30.5t-131 81.5t-70 110t-23 125v8h143q0 -48 13.5 -87.5t43 -73.5t85.5 -53.5t133 -19.5z" />
    <glyph glyph-name="t" unicode="t" horiz-adv-x="819" 
d="M379 1085h346v-129h-346v-637q0 -123 50 -168t159 -45q32 0 68 6.5t49 12.5v-125q-61 -23 -152 -23q-147 0 -232 77.5t-85 246.5v655h-173v129h173v308h143v-308z" />
    <glyph glyph-name="u" unicode="u" horiz-adv-x="1081" 
d="M125 1085h141v-739q0 -120 62.5 -180t173.5 -60q196 0 301 168v811h143v-778l12 -307h-118l-23 152q-50 -78 -141 -126.5t-221 -48.5q-158 0 -244 96t-86 253v759z" />
    <glyph glyph-name="v" unicode="v" horiz-adv-x="1048" 
d="M430 0l-379 1085h154l319 -950l322 950h153l-381 -1085h-188z" />
    <glyph glyph-name="w" unicode="w" horiz-adv-x="1468" 
d="M733 926l-248 -926h-188l-234 1085h144l188 -935l252 935h174l252 -935l189 935h143l-234 -1085h-190z" />
    <glyph glyph-name="x" unicode="x" horiz-adv-x="993" 
d="M47 1085h170l279 -444l280 444h170l-342 -536l342 -549h-170l-280 457l-279 -457h-170l340 549z" />
    <glyph glyph-name="y" unicode="y" horiz-adv-x="991" 
d="M510 199l311 886h154l-389 -1044l-154 -451h-166l170 451l-389 1044h154z" />
    <glyph glyph-name="z" unicode="z" horiz-adv-x="948" 
d="M74 98l596 860l-242 -2h-334v129h760v-98l-598 -860l242 2h376v-129h-800v98z" />
    <glyph glyph-name="braceleft" unicode="{" horiz-adv-x="649" 
d="M563 1720v-135q-97 0 -144.5 -45.5t-47.5 -165.5v-426q0 -157 -111 -211q111 -57 111 -211v-426q0 -120 47.5 -165.5t144.5 -45.5v-135h-37q-60 0 -110.5 13.5t-94.5 44.5t-69 89t-25 138v450q0 107 -41 144t-135 37v135q94 0 135 36.5t41 143.5v451q0 80 25 138t69 88.5
t94.5 44t110.5 13.5h37z" />
    <glyph glyph-name="bar" unicode="|" horiz-adv-x="411" 
d="M135 -246v1966h144v-1966h-144z" />
    <glyph glyph-name="braceright" unicode="}" horiz-adv-x="649" 
d="M86 -246v135q98 0 145.5 46t47.5 165v426q0 154 110 211q-110 53 -110 211v426q0 119 -47.5 165t-145.5 46v135h37q60 0 110.5 -13.5t94.5 -44t69 -88.5t25 -138v-451q0 -107 41 -143.5t135 -36.5v-135q-94 0 -135 -37t-41 -144v-450q0 -80 -25 -138t-69 -89t-94.5 -44.5
t-110.5 -13.5h-37z" />
    <glyph glyph-name="asciitilde" unicode="~" horiz-adv-x="1228" 
d="M362 924q73 0 145.5 -23t122 -50t115 -50t125.5 -23q106 0 201 115l82 -82q-116 -156 -287 -156q-73 0 -145.5 23t-122 50t-115 50t-125.5 23t-112 -35t-88 -80l-82 82q112 156 286 156z" />
    <glyph glyph-name="nbspace" unicode="&#xa0;" horiz-adv-x="409" 
 />
    <glyph glyph-name="exclamdown" unicode="&#xa1;" horiz-adv-x="442" 
d="M309 -410h-176l39 1108h98zM129 901v184h184v-184h-184z" />
    <glyph glyph-name="cent" unicode="&#xa2;" horiz-adv-x="1228" 
d="M889 1720l-62 -258q137 -45 206 -159t69 -277v-49h-146q0 277 -161 350l-256 -1071q39 -10 102 -10h6q160 0 234.5 88t74.5 244h146v-27q0 -201 -115.5 -319.5t-345.5 -118.5q-71 0 -133 12l-59 -248h-127l69 291q-264 138 -264 602v57q0 324 129.5 493t384.5 169
q24 0 64 -4l57 235h127zM276 770q0 -334 150 -457l248 1039q-4 0 -13.5 1t-13.5 1h-6q-180 0 -272.5 -132.5t-92.5 -394.5v-57z" />
    <glyph glyph-name="sterling" unicode="&#xa3;" horiz-adv-x="1228" 
d="M672 1487q-144 0 -214.5 -84.5t-70.5 -235.5q0 -122 47 -315h412v-133h-375q36 -139 50 -195.5t34.5 -174t24.5 -214.5h534v-135h-999v135h338q-6 75 -22.5 159t-31.5 138t-44 150.5t-40 136.5h-200v133h164q-41 171 -41 330q0 199 112 318.5t322 119.5
q121 0 209.5 -42.5t140.5 -121t76 -179.5t24 -228v-25h-145q0 220 -74.5 341.5t-230.5 121.5z" />
    <glyph glyph-name="yen" unicode="&#xa5;" horiz-adv-x="1228" 
d="M90 848v135h234l-289 614h162l417 -905l418 905h162l-291 -614h236v-135h-299l-129 -275h428v-135h-451v-438h-147v438h-451v135h426l-129 275h-297z" />
    <glyph glyph-name="brokenbar" unicode="&#xa6;" horiz-adv-x="411" 
d="M135 811v909h144v-909h-144zM135 -246v910h144v-910h-144z" />
    <glyph glyph-name="section" unicode="&#xa7;" horiz-adv-x="1050" 
d="M965 797q0 -94 -47.5 -162t-139.5 -103q129 -73 129 -233v-12q0 -142 -107.5 -226t-297.5 -84q-212 0 -309 97.5t-97 267.5v8h144q0 -123 59.5 -187.5t202.5 -64.5q123 0 191.5 50t68.5 139q0 60 -22.5 98t-86.5 63.5t-178 34.5q-208 18 -299.5 86.5t-91.5 218.5v13
q0 190 186 264q-127 69 -127 233v13q0 142 107.5 225.5t296.5 83.5q212 0 309.5 -97.5t97.5 -267.5v-8h-143q0 124 -59.5 188t-204.5 64q-122 0 -190 -49.5t-68 -138.5q0 -60 22 -98t86 -64t178 -35q208 -18 299 -86.5t91 -218.5v-12zM817 799q0 109 -68 151.5t-233 53.5h-6
q-133 0 -205 -55t-72 -150q0 -109 67.5 -151.5t231.5 -53.5h9q133 0 204.5 55t71.5 150z" />
    <glyph glyph-name="dieresis" unicode="&#xa8;" horiz-adv-x="1024" 
d="M430 1526v-180h-178v180h178zM772 1526v-180h-178v180h178z" />
    <glyph glyph-name="copyright" unicode="&#xa9;" horiz-adv-x="1884" 
d="M121 799q0 167 65 319t175 262t262 175t319 65t319 -65t262 -175t175 -262t65 -319t-65 -319t-175 -262.5t-262 -175.5t-319 -65t-319 65t-262 175.5t-175 262.5t-65 319zM209 799q0 -200 98 -368.5t266.5 -266.5t368.5 -98t368.5 98t266.5 266.5t98 368.5t-98 368.5
t-266.5 266.5t-368.5 98t-368.5 -98t-266.5 -266.5t-98 -368.5zM944 422q72 0 124.5 20t79.5 53.5t39.5 68.5t12.5 73h133v-27q0 -40 -12 -81t-41.5 -83.5t-73 -75.5t-112 -54t-152.5 -21q-111 0 -196 42.5t-133.5 113.5t-72.5 152.5t-24 170.5v49q0 70 14.5 136.5t47 129.5
t80.5 110t121.5 75.5t162.5 28.5q84 0 152.5 -22t112 -56t73 -78.5t41.5 -87.5t12 -84v-35h-133q0 47 -13 87t-41.5 74.5t-80 54.5t-121.5 20q-76 0 -133.5 -30t-90.5 -81.5t-49 -112.5t-16 -129v-49q0 -68 16 -129t49 -112t90.5 -81t133.5 -30z" />
    <glyph glyph-name="ordfeminine" unicode="&#xaa;" horiz-adv-x="798" 
d="M612 795l-18 108q-96 -127 -279 -127q-113 0 -175 62t-62 163v15q0 51 15 91.5t39.5 66t61 45t72.5 29.5t82 18l234 34v19q0 100 -39 147t-135 47q-98 0 -136.5 -48t-38.5 -130h-124v15q0 51 13.5 95.5t45.5 85.5t93.5 65t148.5 24q164 0 232.5 -78t68.5 -223v-297
l10 -227h-109zM352 887q149 0 230 112v213l-217 -34q-74 -12 -115 -50.5t-41 -101.5v-12q0 -54 35.5 -90.5t107.5 -36.5zM721 434h-625v117h625v-117z" />
    <glyph glyph-name="guillemotleft" unicode="&#xab;" horiz-adv-x="1058" 
d="M520 1073v-143l-305 -234l305 -233v-144l-418 314v127zM956 1073v-143l-307 -234l307 -233v-144l-417 314v127z" />
    <glyph glyph-name="logicalnot" unicode="&#xac;" horiz-adv-x="1228" 
d="M98 1004v137h1032v-705h-135v568h-897z" />
    <glyph glyph-name="uni00AD" unicode="&#xad;" horiz-adv-x="673" 
d="M82 651v131h510v-131h-510z" />
    <glyph glyph-name="registered" unicode="&#xae;" horiz-adv-x="675" 
d="M39 1362q0 123 88 211t211 88t211 -88t88 -211t-88 -211t-211 -88t-211 88t-88 211zM88 1362q0 -103 73.5 -176.5t176.5 -73.5t176.5 73.5t73.5 176.5t-73.5 176.5t-176.5 73.5t-176.5 -73.5t-73.5 -176.5zM469 1419q0 -73 -61 -96l61 -137h-74l-55 129h-61v-129h-72v352
h147q52 0 83.5 -26.5t31.5 -77.5v-15zM397 1430q0 47 -57 47h-61v-103h61q57 0 57 49v7z" />
    <glyph glyph-name="macron" unicode="&#xaf;" horiz-adv-x="1024" 
d="M272 1360v135h480v-135h-480z" />
    <glyph glyph-name="degree" unicode="&#xb0;" horiz-adv-x="819" 
d="M614 1298v15q0 90 -56.5 143t-141.5 53h-13q-85 0 -141.5 -53t-56.5 -143v-15q0 -90 57 -144t141 -54h13q84 0 141 54t57 144zM723 1309v-9q0 -142 -88 -225.5t-225 -83.5t-225.5 83.5t-88.5 225.5v9q0 142 88.5 226.5t225.5 84.5q136 0 224.5 -84.5t88.5 -226.5z" />
    <glyph glyph-name="plusminus" unicode="&#xb1;" horiz-adv-x="1228" 
d="M547 1329h135v-285h448v-137h-448v-284h-135v284h-449v137h449v285zM98 330v135h1032v-135h-1032z" />
    <glyph glyph-name="twosuperior" unicode="&#xb2;" 
d="M563 905v-106h-512v75l324 353q36 38 50.5 66.5t14.5 66.5v10q0 62 -35.5 96.5t-95.5 34.5h-6q-65 0 -98 -40t-33 -130h-121v23q0 256 256 256q128 0 192 -62t64 -157v-15q0 -64 -20 -107.5t-72 -99.5l-244 -264h336z" />
    <glyph glyph-name="threesuperior" unicode="&#xb3;" 
d="M168 1055q0 -162 133 -162h10q57 0 96 32t39 93v14q0 58 -35 89.5t-94 31.5h-112v107h108q58 0 92.5 29t34.5 85v8q0 54 -36 86.5t-93 32.5h-10q-65 0 -97 -40t-32 -130h-121v23q0 256 256 256q127 0 191.5 -61t64.5 -152v-17q0 -123 -104 -174q108 -55 108 -180v-18
q0 -91 -69 -157.5t-191 -66.5q-130 0 -196 67t-66 189v15h123z" />
    <glyph glyph-name="acute" unicode="&#xb4;" horiz-adv-x="1024" 
d="M623 1597h155l-192 -340h-148z" />
    <glyph glyph-name="paragraph" unicode="&#xb6;" horiz-adv-x="1050" 
d="M768 0v1464h-82v-1464h-143v649q-72 1 -135.5 14t-126.5 45t-107.5 81.5t-72 129.5t-27.5 183v41q0 107 29.5 188.5t76 131t113 80.5t131.5 42.5t139 11.5h352v-1597h-147zM225 1108q0 -76 20.5 -134.5t51.5 -93.5t75 -57.5t85 -31t86 -9.5v682q-45 -1 -86 -9.5t-85 -31
t-75 -57t-51.5 -93t-20.5 -134.5v-31z" />
    <glyph glyph-name="periodcentered" unicode="&#xb7;" horiz-adv-x="444" 
d="M311 807v-180h-178v180h178z" />
    <glyph glyph-name="cedilla" unicode="&#xb8;" horiz-adv-x="1232" 
d="M332 -391l30 90q60 -31 144 -31q62 0 90.5 14t28.5 50q0 63 -127 63l-60 -6l-39 47l64 164h98l-43 -115h8q85 0 145 -38.5t60 -118.5q0 -160 -211 -160q-126 0 -188 41z" />
    <glyph glyph-name="onesuperior" unicode="&#xb9;" 
d="M567 799h-501v106h190v539l-156 -105l-59 91l250 169h88v-694h188v-106z" />
    <glyph glyph-name="ordmasculine" unicode="&#xba;" horiz-adv-x="856" 
d="M774 1178q0 -116 -35 -204.5t-114.5 -143t-196.5 -54.5q-172 0 -259 111.5t-87 290.5v41q0 180 87 290.5t259 110.5q173 0 259.5 -110t86.5 -291v-41zM213 1178q0 -134 53 -210.5t162 -76.5t162 76.5t53 210.5v41q0 135 -53 210.5t-162 75.5t-162 -75.5t-53 -210.5v-41z
M98 434v117h662v-117h-662z" />
    <glyph glyph-name="guillemotright" unicode="&#xbb;" horiz-adv-x="1058" 
d="M539 930v143l417 -313v-127l-417 -314v144l303 233zM102 930v143l418 -313v-127l-418 -314v144l306 233z" />
    <glyph glyph-name="onequarter" unicode="&#xbc;" horiz-adv-x="1638" 
d="M1501 0h-123v190h-325v84l329 525h119v-500h107v-109h-107v-190zM295 0h-131l1179 1597h132zM567 799h-501v106h190v539l-156 -105l-59 91l250 169h88v-694h188v-106zM1380 600l-192 -303l69 2h121v221z" />
    <glyph glyph-name="onehalf" unicode="&#xbd;" horiz-adv-x="1638" 
d="M295 0h-131l1179 1597h132zM1587 106v-106h-512v76l324 352q36 38 50.5 67t14.5 66v10q0 62 -35.5 96.5t-95.5 34.5h-6q-65 0 -98 -40t-33 -130h-121v23q0 256 256 256q128 0 192 -62t64 -157v-14q0 -64 -20 -107.5t-72 -99.5l-244 -265h336zM567 799h-501v106h190v539
l-156 -105l-59 91l250 169h88v-694h188v-106z" />
    <glyph glyph-name="threequarters" unicode="&#xbe;" horiz-adv-x="1638" 
d="M1501 0h-123v190h-325v84l329 525h119v-500h107v-109h-107v-190zM168 1055q0 -162 133 -162h10q57 0 96 32t39 93v14q0 58 -35 89.5t-94 31.5h-112v107h108q58 0 92.5 29t34.5 85v8q0 54 -36 86.5t-93 32.5h-10q-65 0 -97 -40t-32 -130h-121v23q0 256 256 256
q127 0 191.5 -61t64.5 -152v-17q0 -123 -104 -174q108 -55 108 -180v-18q0 -91 -69 -157.5t-191 -66.5q-130 0 -196 67t-66 189v15h123zM295 0h-131l1179 1597h132zM1380 600l-192 -303l69 2h121v221z" />
    <glyph glyph-name="questiondown" unicode="&#xbf;" horiz-adv-x="931" 
d="M459 -299q64 0 111 19t77.5 53.5t49.5 88t26.5 116.5t7.5 145h148v-25q0 -95 -11.5 -171t-40.5 -145t-75.5 -114.5t-120.5 -72.5t-172 -27q-197 0 -299.5 101t-102.5 272q0 82 19.5 150t50.5 115.5t68.5 89t76 82t70.5 83.5t53.5 103.5t24.5 133.5h96q3 -73 -12.5 -139
t-42.5 -117t-60.5 -98t-67.5 -91.5t-62 -88.5t-46 -98t-18 -111q0 -254 252 -254zM377 901v184h184v-184h-184z" />
    <glyph glyph-name="Agrave" unicode="&#xc0;" horiz-adv-x="1251" 
d="M520 1614h211l461 -1614h-160l-114 410h-584l-115 -410h-160zM625 1452l-254 -909h508zM424 1946h151l123 -226h-147z" />
    <glyph glyph-name="Aacute" unicode="&#xc1;" horiz-adv-x="1251" 
d="M520 1614h211l461 -1614h-160l-114 410h-584l-115 -410h-160zM625 1452l-254 -909h508zM674 1946h151l-127 -226h-147z" />
    <glyph glyph-name="Acircumflex" unicode="&#xc2;" horiz-adv-x="1251" 
d="M520 1614h211l461 -1614h-160l-114 410h-584l-115 -410h-160zM625 1452l-254 -909h508zM485 1720h-143l217 226h131l217 -226h-143l-139 135z" />
    <glyph glyph-name="Atilde" unicode="&#xc3;" horiz-adv-x="1251" 
d="M520 1614h211l461 -1614h-160l-114 410h-584l-115 -410h-160zM625 1452l-254 -909h508zM834 1917h102q0 -96 -44 -143.5t-118 -47.5q-43 0 -86.5 17.5t-72.5 38t-63 38t-60 17.5q-76 0 -76 -88h-103q0 96 44 143t118 47q43 0 86.5 -17t73 -38t63.5 -38t60 -17q76 0 76 88
z" />
    <glyph glyph-name="Adieresis" unicode="&#xc4;" horiz-adv-x="1251" 
d="M520 1614h211l461 -1614h-160l-114 410h-584l-115 -410h-160zM625 1452l-254 -909h508zM545 1905v-144h-162v144h162zM866 1905v-144h-161v144h161z" />
    <glyph glyph-name="Aring" unicode="&#xc5;" horiz-adv-x="1251" 
d="M432 1776q0 79 56.5 135.5t136.5 56.5q79 0 135.5 -56t56.5 -136q0 -50 -24 -93.5t-64 -68.5h2l461 -1614h-160l-114 410h-584l-115 -410h-160l461 1614q-40 25 -64 68.5t-24 93.5zM625 1452l-254 -909h508zM510 1776q0 -47 34 -81t81 -34t80.5 34t33.5 81t-33.5 80.5
t-80.5 33.5t-81 -33.5t-34 -80.5z" />
    <glyph glyph-name="AE" unicode="&#xc6;" horiz-adv-x="1714" 
d="M633 1597h999v-133h-774l86 -583h586v-131h-567l90 -617h579v-133h-714l-60 426h-506l-153 -426h-158zM717 1440l-318 -883h441z" />
    <glyph glyph-name="Ccedilla" unicode="&#xc7;" horiz-adv-x="1265" 
d="M492 -391l30 90q60 -31 144 -31q62 0 90 14t28 50q0 63 -127 63l-59 -6l-39 47l55 144q-255 14 -376 199.5t-121 578.5v82q0 410 131.5 595t410.5 185q504 0 504 -547v-57h-151q0 248 -80 359.5t-260 111.5h-15q-201 0 -295 -154t-94 -493v-82q0 -339 93.5 -493
t295.5 -154h15q176 0 258 103t82 306h151v-20q0 -242 -112.5 -374.5t-337.5 -145.5l-35 -95h8q85 0 145 -38.5t60 -118.5q0 -160 -211 -160q-126 0 -188 41z" />
    <glyph glyph-name="Egrave" unicode="&#xc8;" horiz-adv-x="1124" 
d="M152 1597h890v-133h-743v-583h641v-131h-641v-617h743v-133h-890v1597zM412 1946h151l123 -226h-147z" />
    <glyph glyph-name="Eacute" unicode="&#xc9;" horiz-adv-x="1124" 
d="M152 1597h890v-133h-743v-583h641v-131h-641v-617h743v-133h-890v1597zM662 1946h151l-127 -226h-147z" />
    <glyph glyph-name="Ecircumflex" unicode="&#xca;" horiz-adv-x="1124" 
d="M152 1597h890v-133h-743v-583h641v-131h-641v-617h743v-133h-890v1597zM473 1720h-143l217 226h131l217 -226h-143l-140 135z" />
    <glyph glyph-name="Edieresis" unicode="&#xcb;" horiz-adv-x="1124" 
d="M152 1597h890v-133h-743v-583h641v-131h-641v-617h743v-133h-890v1597zM532 1905v-144h-161v144h161zM854 1905v-144h-162v144h162z" />
    <glyph glyph-name="Igrave" unicode="&#xcc;" horiz-adv-x="468" 
d="M309 1597v-1597h-147v1597h147zM35 1946h151l123 -226h-147z" />
    <glyph glyph-name="Iacute" unicode="&#xcd;" horiz-adv-x="468" 
d="M309 1597v-1597h-147v1597h147zM285 1946h151l-127 -226h-147z" />
    <glyph glyph-name="Icircumflex" unicode="&#xce;" horiz-adv-x="468" 
d="M309 1597v-1597h-147v1597h147zM96 1720h-143l217 226h131l217 -226h-143l-139 135z" />
    <glyph glyph-name="Idieresis" unicode="&#xcf;" horiz-adv-x="468" 
d="M309 1597v-1597h-147v1597h147zM477 1905v-144h-162v144h162zM156 1905v-144h-162v144h162z" />
    <glyph glyph-name="Eth" unicode="&#xd0;" horiz-adv-x="1431" 
d="M37 756v121h237v720h422q150 0 261.5 -41t193 -129.5t123 -235.5t41.5 -351v-82q0 -204 -41.5 -351t-123 -236t-193.5 -130t-261 -41h-422v756h-237zM422 1464v-587h436v-121h-436v-623h262q118 0 205 34t149.5 107.5t93.5 194t31 289.5v82q0 331 -120 477.5t-359 146.5
h-262z" />
    <glyph glyph-name="Ntilde" unicode="&#xd1;" horiz-adv-x="1349" 
d="M1198 1597v-1597h-160l-755 1348l8 -371v-977h-139v1597h159l754 -1347l-6 371v976h139zM883 1917h102q0 -96 -44 -143.5t-118 -47.5q-43 0 -86.5 17.5t-72.5 38t-63 38t-60 17.5q-76 0 -76 -88h-103q0 96 44 143t118 47q43 0 86.5 -17t73 -38t63.5 -38t60 -17
q76 0 76 88z" />
    <glyph glyph-name="Ograve" unicode="&#xd2;" horiz-adv-x="1329" 
d="M664 -23q-278 0 -412.5 186t-134.5 595v82q0 409 134.5 594.5t412.5 185.5q279 0 413.5 -185.5t134.5 -594.5v-82q0 -409 -134.5 -595t-413.5 -186zM657 111h15q202 0 295.5 154t93.5 493v82q0 339 -93.5 493t-295.5 154h-15q-202 0 -295.5 -154t-93.5 -493v-82
q0 -339 93.5 -493t295.5 -154zM463 1946h151l123 -226h-147z" />
    <glyph glyph-name="Oacute" unicode="&#xd3;" horiz-adv-x="1329" 
d="M664 -23q-278 0 -412.5 186t-134.5 595v82q0 409 134.5 594.5t412.5 185.5q279 0 413.5 -185.5t134.5 -594.5v-82q0 -409 -134.5 -595t-413.5 -186zM657 111h15q202 0 295.5 154t93.5 493v82q0 339 -93.5 493t-295.5 154h-15q-202 0 -295.5 -154t-93.5 -493v-82
q0 -339 93.5 -493t295.5 -154zM713 1946h151l-127 -226h-147z" />
    <glyph glyph-name="Ocircumflex" unicode="&#xd4;" horiz-adv-x="1329" 
d="M664 -23q-278 0 -412.5 186t-134.5 595v82q0 409 134.5 594.5t412.5 185.5q279 0 413.5 -185.5t134.5 -594.5v-82q0 -409 -134.5 -595t-413.5 -186zM657 111h15q202 0 295.5 154t93.5 493v82q0 339 -93.5 493t-295.5 154h-15q-202 0 -295.5 -154t-93.5 -493v-82
q0 -339 93.5 -493t295.5 -154zM524 1720h-143l217 226h131l217 -226h-143l-139 135z" />
    <glyph glyph-name="Otilde" unicode="&#xd5;" horiz-adv-x="1329" 
d="M664 -23q-278 0 -412.5 186t-134.5 595v82q0 409 134.5 594.5t412.5 185.5q279 0 413.5 -185.5t134.5 -594.5v-82q0 -409 -134.5 -595t-413.5 -186zM657 111h15q202 0 295.5 154t93.5 493v82q0 339 -93.5 493t-295.5 154h-15q-202 0 -295.5 -154t-93.5 -493v-82
q0 -339 93.5 -493t295.5 -154zM872 1917h103q0 -96 -44 -143.5t-118 -47.5q-54 0 -108 28t-98.5 55.5t-76.5 27.5q-75 0 -75 -88h-103q0 96 44 143t118 47q43 0 86.5 -17t73 -38t63.5 -38t60 -17q75 0 75 88z" />
    <glyph glyph-name="Odieresis" unicode="&#xd6;" horiz-adv-x="1329" 
d="M664 -23q-278 0 -412.5 186t-134.5 595v82q0 409 134.5 594.5t412.5 185.5q279 0 413.5 -185.5t134.5 -594.5v-82q0 -409 -134.5 -595t-413.5 -186zM657 111h15q202 0 295.5 154t93.5 493v82q0 339 -93.5 493t-295.5 154h-15q-202 0 -295.5 -154t-93.5 -493v-82
q0 -339 93.5 -493t295.5 -154zM584 1905v-144h-162v144h162zM905 1905v-144h-162v144h162z" />
    <glyph glyph-name="multiply" unicode="&#xd7;" horiz-adv-x="1228" 
d="M170 258l-96 96l444 445l-444 444l96 96l444 -444l445 444l96 -96l-444 -444l444 -445l-96 -96l-445 444z" />
    <glyph glyph-name="Oslash" unicode="&#xd8;" horiz-adv-x="1306" 
d="M117 840q0 409 134.5 594.5t412.5 185.5q227 0 356 -123l61 100h119l-110 -182q122 -186 122 -575v-82q0 -409 -134.5 -595t-413.5 -186q-238 0 -369 134l-66 -111h-118l118 195q-112 187 -112 563v82zM1061 840q0 274 -62 428l-624 -1026q92 -131 282 -131h15
q202 0 295.5 154t93.5 493v82zM268 758q0 -264 54 -410l620 1020q-91 119 -270 119h-15q-202 0 -295.5 -154t-93.5 -493v-82z" />
    <glyph glyph-name="Ugrave" unicode="&#xd9;" horiz-adv-x="1308" 
d="M653 -23q-263 0 -387.5 119t-124.5 400v1101h148v-1091q0 -150 41 -237.5t118 -122.5t205 -35q192 0 279.5 87.5t87.5 307.5v1091h147v-1101q0 -143 -32 -243t-98 -161t-159.5 -88t-224.5 -27zM453 1946h151l123 -226h-147z" />
    <glyph glyph-name="Uacute" unicode="&#xda;" horiz-adv-x="1308" 
d="M653 -23q-263 0 -387.5 119t-124.5 400v1101h148v-1091q0 -150 41 -237.5t118 -122.5t205 -35q192 0 279.5 87.5t87.5 307.5v1091h147v-1101q0 -143 -32 -243t-98 -161t-159.5 -88t-224.5 -27zM702 1946h152l-127 -226h-147z" />
    <glyph glyph-name="Ucircumflex" unicode="&#xdb;" horiz-adv-x="1308" 
d="M653 -23q-263 0 -387.5 119t-124.5 400v1101h148v-1091q0 -150 41 -237.5t118 -122.5t205 -35q192 0 279.5 87.5t87.5 307.5v1091h147v-1101q0 -143 -32 -243t-98 -161t-159.5 -88t-224.5 -27zM514 1720h-143l217 226h131l217 -226h-143l-140 135z" />
    <glyph glyph-name="Udieresis" unicode="&#xdc;" horiz-adv-x="1308" 
d="M653 -23q-263 0 -387.5 119t-124.5 400v1101h148v-1091q0 -150 41 -237.5t118 -122.5t205 -35q192 0 279.5 87.5t87.5 307.5v1091h147v-1101q0 -143 -32 -243t-98 -161t-159.5 -88t-224.5 -27zM573 1905v-144h-161v144h161zM895 1905v-144h-162v144h162z" />
    <glyph glyph-name="Yacute" unicode="&#xdd;" horiz-adv-x="1181" 
d="M666 483v-483h-148v483l-475 1114h160l389 -931l387 931h162zM641 1946h152l-127 -226h-148z" />
    <glyph glyph-name="Thorn" unicode="&#xde;" horiz-adv-x="1173" 
d="M299 1597v-323h295q74 0 139 -11.5t131 -43t113 -80.5t76.5 -131t29.5 -189v-41q0 -107 -29.5 -188.5t-76.5 -131t-113 -80.5t-131 -42.5t-139 -11.5h-295v-324h-147v1597h147zM299 457h299q46 0 88 7t88.5 29t80 56.5t55.5 95t22 139.5v29q0 79 -22 139.5t-55.5 95.5
t-80 56.5t-88.5 29t-88 7.5h-299v-684z" />
    <glyph glyph-name="germandbls" unicode="&#xdf;" horiz-adv-x="1169" 
d="M537 758v94q157 86 224.5 172.5t67.5 208.5q0 138 -67.5 216.5t-208.5 78.5q-140 0 -208.5 -79t-68.5 -212v-1237h-143v1247q0 192 103.5 303t316.5 111q208 0 314 -113t106 -301v-14q0 -130 -65 -229.5t-208 -192.5l103 -66q162 -107 235.5 -198t73.5 -211v-10
q0 -53 -9 -99t-33 -93.5t-62.5 -81t-103 -54.5t-148.5 -21t-148.5 21t-102.5 54t-62.5 80t-33 92.5t-8.5 97.5v10h127q0 -234 222 -234q219 0 219 232q0 87 -63 157t-212 166z" />
    <glyph glyph-name="agrave" unicode="&#xe0;" horiz-adv-x="1048" 
d="M811 0l-23 152q-134 -175 -382 -175q-147 0 -230.5 82t-83.5 215v21q0 68 20.5 122t53 88.5t80.5 59.5t95 38t105 22l328 51v29q0 146 -56 214t-196 68q-74 0 -125.5 -20t-78 -58t-37.5 -81.5t-11 -100.5h-137v18q0 53 9.5 101t36.5 97.5t69 84.5t113 57.5t163 22.5
q110 0 188 -28.5t122.5 -83.5t64 -126t19.5 -165v-398l12 -307h-119zM442 102q226 0 332 172v297l-315 -51q-223 -40 -223 -215v-18q0 -79 52 -132t154 -53zM258 1597h156l184 -340h-147z" />
    <glyph glyph-name="aacute" unicode="&#xe1;" horiz-adv-x="1048" 
d="M811 0l-23 152q-134 -175 -382 -175q-147 0 -230.5 82t-83.5 215v21q0 68 20.5 122t53 88.5t80.5 59.5t95 38t105 22l328 51v29q0 146 -56 214t-196 68q-74 0 -125.5 -20t-78 -58t-37.5 -81.5t-11 -100.5h-137v18q0 53 9.5 101t36.5 97.5t69 84.5t113 57.5t163 22.5
q110 0 188 -28.5t122.5 -83.5t64 -126t19.5 -165v-398l12 -307h-119zM442 102q226 0 332 172v297l-315 -51q-223 -40 -223 -215v-18q0 -79 52 -132t154 -53zM635 1597h156l-193 -340h-147z" />
    <glyph glyph-name="acircumflex" unicode="&#xe2;" horiz-adv-x="1048" 
d="M811 0l-23 152q-134 -175 -382 -175q-147 0 -230.5 82t-83.5 215v21q0 68 20.5 122t53 88.5t80.5 59.5t95 38t105 22l328 51v29q0 146 -56 214t-196 68q-74 0 -125.5 -20t-78 -58t-37.5 -81.5t-11 -100.5h-137v18q0 53 9.5 101t36.5 97.5t69 84.5t113 57.5t163 22.5
q110 0 188 -28.5t122.5 -83.5t64 -126t19.5 -165v-398l12 -307h-119zM442 102q226 0 332 172v297l-315 -51q-223 -40 -223 -215v-18q0 -79 52 -132t154 -53zM334 1257h-141l268 340h127l268 -340h-141l-191 232z" />
    <glyph glyph-name="atilde" unicode="&#xe3;" horiz-adv-x="1048" 
d="M811 0l-23 152q-134 -175 -382 -175q-147 0 -230.5 82t-83.5 215v21q0 68 20.5 122t53 88.5t80.5 59.5t95 38t105 22l328 51v29q0 146 -56 214t-196 68q-74 0 -125.5 -20t-78 -58t-37.5 -81.5t-11 -100.5h-137v18q0 53 9.5 101t36.5 97.5t69 84.5t113 57.5t163 22.5
q110 0 188 -28.5t122.5 -83.5t64 -126t19.5 -165v-398l12 -307h-119zM442 102q226 0 332 172v297l-315 -51q-223 -40 -223 -215v-18q0 -79 52 -132t154 -53zM731 1528h113q0 -105 -44.5 -158t-121.5 -53q-43 0 -87 17t-73.5 38t-64.5 38t-62 17q-74 0 -74 -88h-112
q0 105 44.5 158t121.5 53q54 0 108 -27.5t99.5 -55t78.5 -27.5q74 0 74 88z" />
    <glyph glyph-name="adieresis" unicode="&#xe4;" horiz-adv-x="1048" 
d="M811 0l-23 152q-134 -175 -382 -175q-147 0 -230.5 82t-83.5 215v21q0 68 20.5 122t53 88.5t80.5 59.5t95 38t105 22l328 51v29q0 146 -56 214t-196 68q-74 0 -125.5 -20t-78 -58t-37.5 -81.5t-11 -100.5h-137v18q0 53 9.5 101t36.5 97.5t69 84.5t113 57.5t163 22.5
q110 0 188 -28.5t122.5 -83.5t64 -126t19.5 -165v-398l12 -307h-119zM442 102q226 0 332 172v297l-315 -51q-223 -40 -223 -215v-18q0 -79 52 -132t154 -53zM442 1526v-180h-178v180h178zM784 1526v-180h-178v180h178z" />
    <glyph glyph-name="aring" unicode="&#xe5;" horiz-adv-x="1048" 
d="M811 0l-23 152q-134 -175 -382 -175q-147 0 -230.5 82t-83.5 215v21q0 68 20.5 122t53 88.5t80.5 59.5t95 38t105 22l328 51v29q0 146 -56 214t-196 68q-74 0 -125.5 -20t-78 -58t-37.5 -81.5t-11 -100.5h-137v18q0 53 9.5 101t36.5 97.5t69 84.5t113 57.5t163 22.5
q110 0 188 -28.5t122.5 -83.5t64 -126t19.5 -165v-398l12 -307h-119zM442 102q226 0 332 172v297l-315 -51q-223 -40 -223 -215v-18q0 -79 52 -132t154 -53zM332 1427q0 80 56.5 136.5t135.5 56.5q80 0 136.5 -57t56.5 -136t-56.5 -135.5t-136.5 -56.5t-136 56.5t-56 135.5z
M410 1427q0 -47 33.5 -80.5t80.5 -33.5t81 33.5t34 80.5t-34 81t-81 34t-80.5 -34t-33.5 -81z" />
    <glyph glyph-name="ae" unicode="&#xe6;" horiz-adv-x="1783" 
d="M1690 483h-770q5 -184 85 -284.5t240 -100.5q149 0 227 75.5t78 174.5h140v-8q0 -52 -16.5 -102.5t-52.5 -98t-87.5 -83.5t-126.5 -57.5t-164 -21.5q-275 0 -393 211q-66 -92 -177 -151.5t-261 -59.5t-235 82t-85 215v21q0 68 21 122t53.5 88.5t81.5 59.5t96 38t105 22
l325 51v29q0 146 -56 214t-196 68q-74 0 -125.5 -20t-78 -58t-37.5 -81.5t-11 -100.5h-137v18q0 53 9.5 101t36.5 97.5t69 84.5t113 57.5t163 22.5q146 0 228 -52t116 -151q112 203 365 203q116 0 205 -42t143 -117t81.5 -172t27.5 -212v-82zM780 283l21 28q-27 95 -27 209
v49l-313 -51q-225 -40 -225 -215v-18q0 -79 52 -132t154 -53q229 0 338 183zM1231 987q-150 0 -228 -101.5t-83 -283.5h622q-6 183 -83 284t-228 101z" />
    <glyph glyph-name="ccedilla" unicode="&#xe7;" horiz-adv-x="1069" 
d="M385 -391l31 90q60 -31 143 -31q62 0 90.5 14t28.5 50q0 63 -127 63l-59 -6l-39 47l55 144q-138 10 -231.5 85t-135 190t-41.5 263v49q0 116 27 212t80.5 170.5t141.5 116.5t204 42q107 0 190 -34t130.5 -90t71.5 -121t24 -134v-41h-138q0 133 -67.5 212t-208.5 79
q-156 0 -232.5 -109.5t-76.5 -302.5v-49q0 -193 76.5 -302.5t232.5 -109.5q142 0 209 77t67 194h138v-33q0 -63 -21 -122.5t-62.5 -111.5t-113.5 -87t-166 -43l-35 -95h9q85 0 144.5 -38.5t59.5 -118.5q0 -160 -211 -160q-126 0 -188 41z" />
    <glyph glyph-name="egrave" unicode="&#xe8;" horiz-adv-x="1114" 
d="M1014 483h-768q5 -184 84.5 -284.5t238.5 -100.5q78 0 139 22.5t97 59t54 79.5t18 89h137v-8q0 -65 -27.5 -128t-80 -116.5t-140 -86t-197.5 -32.5q-96 0 -174.5 27.5t-132.5 76.5t-91 118t-54 149t-17 172v45q0 115 27.5 212t82.5 172t144 117t205 42t204.5 -42
t142.5 -117t81 -172t27 -212v-82zM557 987q-150 0 -228 -101.5t-83 -283.5h622q-6 183 -83 284t-228 101zM293 1597h156l184 -340h-148z" />
    <glyph glyph-name="eacute" unicode="&#xe9;" horiz-adv-x="1114" 
d="M1014 483h-768q5 -184 84.5 -284.5t238.5 -100.5q78 0 139 22.5t97 59t54 79.5t18 89h137v-8q0 -65 -27.5 -128t-80 -116.5t-140 -86t-197.5 -32.5q-96 0 -174.5 27.5t-132.5 76.5t-91 118t-54 149t-17 172v45q0 115 27.5 212t82.5 172t144 117t205 42t204.5 -42
t142.5 -117t81 -172t27 -212v-82zM557 987q-150 0 -228 -101.5t-83 -283.5h622q-6 183 -83 284t-228 101zM670 1597h155l-192 -340h-148z" />
    <glyph glyph-name="ecircumflex" unicode="&#xea;" horiz-adv-x="1114" 
d="M1014 483h-768q5 -184 84.5 -284.5t238.5 -100.5q78 0 139 22.5t97 59t54 79.5t18 89h137v-8q0 -65 -27.5 -128t-80 -116.5t-140 -86t-197.5 -32.5q-96 0 -174.5 27.5t-132.5 76.5t-91 118t-54 149t-17 172v45q0 115 27.5 212t82.5 172t144 117t205 42t204.5 -42
t142.5 -117t81 -172t27 -212v-82zM557 987q-150 0 -228 -101.5t-83 -283.5h622q-6 183 -83 284t-228 101zM369 1257h-142l269 340h127l268 -340h-141l-191 232z" />
    <glyph glyph-name="edieresis" unicode="&#xeb;" horiz-adv-x="1114" 
d="M1014 483h-768q5 -184 84.5 -284.5t238.5 -100.5q78 0 139 22.5t97 59t54 79.5t18 89h137v-8q0 -65 -27.5 -128t-80 -116.5t-140 -86t-197.5 -32.5q-96 0 -174.5 27.5t-132.5 76.5t-91 118t-54 149t-17 172v45q0 115 27.5 212t82.5 172t144 117t205 42t204.5 -42
t142.5 -117t81 -172t27 -212v-82zM557 987q-150 0 -228 -101.5t-83 -283.5h622q-6 183 -83 284t-228 101zM819 1526v-180h-178v180h178zM477 1526v-180h-178v180h178z" />
    <glyph glyph-name="igrave" unicode="&#xec;" horiz-adv-x="444" 
d="M150 0v1085h143v-1085h-143zM-45 1597h156l184 -340h-148z" />
    <glyph glyph-name="iacute" unicode="&#xed;" horiz-adv-x="444" 
d="M150 0v1085h143v-1085h-143zM332 1597h155l-192 -340h-148z" />
    <glyph glyph-name="icircumflex" unicode="&#xee;" horiz-adv-x="444" 
d="M150 0v1085h143v-1085h-143zM31 1257h-142l269 340h127l268 -340h-141l-191 232z" />
    <glyph glyph-name="idieresis" unicode="&#xef;" horiz-adv-x="444" 
d="M150 0v1085h143v-1085h-143zM139 1526v-180h-178v180h178zM481 1526v-180h-178v180h178z" />
    <glyph glyph-name="eth" unicode="&#xf0;" horiz-adv-x="1114" 
d="M100 1530v131q282 -23 475 -139l240 139v-113l-151 -86q55 -43 114 -106q67 -75 115.5 -176.5t73.5 -210t36 -206.5t11 -196v-49q0 -115 -27 -211.5t-81 -171t-143.5 -116.5t-205.5 -42t-205.5 42t-143.5 116.5t-81 171t-27 211.5v49q0 115 27 212t80 171t139.5 116
t198.5 42q163 0 270 -96q-56 156 -149 258q-50 52 -138 114l-350 -202v112l252 146q-140 67 -330 90zM557 106q156 0 233.5 109.5t77.5 302.5v49q0 193 -77.5 302.5t-233.5 109.5t-233.5 -109.5t-77.5 -302.5v-49q0 -193 77.5 -302.5t233.5 -109.5z" />
    <glyph glyph-name="ntilde" unicode="&#xf1;" horiz-adv-x="1081" 
d="M956 0h-143v739q0 120 -62 180t-173 60q-194 0 -299 -168v-811h-144v778l-12 307h119l20 -153q116 176 365 176q157 0 243 -95.5t86 -252.5v-760zM754 1528h112q0 -105 -44.5 -158t-121.5 -53q-54 0 -108 27.5t-99.5 55t-78.5 27.5q-74 0 -74 -88h-113q0 105 44.5 158
t121.5 53q43 0 87 -17t73.5 -38t64.5 -38t62 -17q74 0 74 88z" />
    <glyph glyph-name="ograve" unicode="&#xf2;" horiz-adv-x="1114" 
d="M557 -23q-116 0 -205.5 42t-143.5 116.5t-81 171t-27 211.5v49q0 115 27 211.5t81 171t143.5 116.5t205.5 42t205.5 -42t143.5 -116.5t81 -171t27 -211.5v-49q0 -115 -27 -211.5t-81 -171t-143.5 -116.5t-205.5 -42zM557 106q156 0 233.5 109.5t77.5 302.5v49
q0 193 -77.5 302.5t-233.5 109.5t-233.5 -109.5t-77.5 -302.5v-49q0 -193 77.5 -302.5t233.5 -109.5zM291 1597h155l185 -340h-148z" />
    <glyph glyph-name="oacute" unicode="&#xf3;" horiz-adv-x="1114" 
d="M557 -23q-116 0 -205.5 42t-143.5 116.5t-81 171t-27 211.5v49q0 115 27 211.5t81 171t143.5 116.5t205.5 42t205.5 -42t143.5 -116.5t81 -171t27 -211.5v-49q0 -115 -27 -211.5t-81 -171t-143.5 -116.5t-205.5 -42zM557 106q156 0 233.5 109.5t77.5 302.5v49
q0 193 -77.5 302.5t-233.5 109.5t-233.5 -109.5t-77.5 -302.5v-49q0 -193 77.5 -302.5t233.5 -109.5zM668 1597h155l-192 -340h-148z" />
    <glyph glyph-name="ocircumflex" unicode="&#xf4;" horiz-adv-x="1114" 
d="M557 -23q-116 0 -205.5 42t-143.5 116.5t-81 171t-27 211.5v49q0 115 27 211.5t81 171t143.5 116.5t205.5 42t205.5 -42t143.5 -116.5t81 -171t27 -211.5v-49q0 -115 -27 -211.5t-81 -171t-143.5 -116.5t-205.5 -42zM557 106q156 0 233.5 109.5t77.5 302.5v49
q0 193 -77.5 302.5t-233.5 109.5t-233.5 -109.5t-77.5 -302.5v-49q0 -193 77.5 -302.5t233.5 -109.5zM367 1257h-142l269 340h127l268 -340h-141l-191 232z" />
    <glyph glyph-name="otilde" unicode="&#xf5;" horiz-adv-x="1114" 
d="M557 -23q-116 0 -205.5 42t-143.5 116.5t-81 171t-27 211.5v49q0 115 27 211.5t81 171t143.5 116.5t205.5 42t205.5 -42t143.5 -116.5t81 -171t27 -211.5v-49q0 -115 -27 -211.5t-81 -171t-143.5 -116.5t-205.5 -42zM557 106q156 0 233.5 109.5t77.5 302.5v49
q0 193 -77.5 302.5t-233.5 109.5t-233.5 -109.5t-77.5 -302.5v-49q0 -193 77.5 -302.5t233.5 -109.5zM764 1528h113q0 -105 -44.5 -158t-121.5 -53q-43 0 -87 17t-73.5 38t-64.5 38t-62 17q-74 0 -74 -88h-112q0 105 44.5 158t120.5 53q43 0 87 -17t73.5 -38t64.5 -38
t62 -17q74 0 74 88z" />
    <glyph glyph-name="odieresis" unicode="&#xf6;" horiz-adv-x="1114" 
d="M557 -23q-116 0 -205.5 42t-143.5 116.5t-81 171t-27 211.5v49q0 115 27 211.5t81 171t143.5 116.5t205.5 42t205.5 -42t143.5 -116.5t81 -171t27 -211.5v-49q0 -115 -27 -211.5t-81 -171t-143.5 -116.5t-205.5 -42zM557 106q156 0 233.5 109.5t77.5 302.5v49
q0 193 -77.5 302.5t-233.5 109.5t-233.5 -109.5t-77.5 -302.5v-49q0 -193 77.5 -302.5t233.5 -109.5zM475 1526v-180h-178v180h178zM817 1526v-180h-178v180h178z" />
    <glyph glyph-name="divide" unicode="&#xf7;" horiz-adv-x="1228" 
d="M98 731v135h1032v-135h-1032zM705 444v-180h-181v180h181zM705 1333v-180h-181v180h181z" />
    <glyph glyph-name="oslash" unicode="&#xf8;" horiz-adv-x="1114" 
d="M1014 1085l-105 -141q105 -140 105 -377v-49q0 -115 -27 -211.5t-81 -171t-143.5 -116.5t-205.5 -42q-176 0 -293 99l-55 -76h-109l105 139q-105 143 -105 379v49q0 115 27 211.5t81 171t143.5 116.5t205.5 42q175 0 291 -98l57 75h109zM246 518q0 -155 49 -256l471 635
q-76 82 -209 82q-156 0 -233.5 -109.5t-77.5 -302.5v-49zM868 567q0 155 -51 254l-471 -635q80 -80 211 -80q156 0 233.5 109.5t77.5 302.5v49z" />
    <glyph glyph-name="ugrave" unicode="&#xf9;" horiz-adv-x="1081" 
d="M125 1085h141v-739q0 -120 62.5 -180t173.5 -60q196 0 301 168v811h143v-778l12 -307h-118l-23 152q-50 -78 -141 -126.5t-221 -48.5q-158 0 -244 96t-86 253v759zM268 1597h156l184 -340h-147z" />
    <glyph glyph-name="uacute" unicode="&#xfa;" horiz-adv-x="1081" 
d="M125 1085h141v-739q0 -120 62.5 -180t173.5 -60q196 0 301 168v811h143v-778l12 -307h-118l-23 152q-50 -78 -141 -126.5t-221 -48.5q-158 0 -244 96t-86 253v759zM645 1597h156l-193 -340h-147z" />
    <glyph glyph-name="ucircumflex" unicode="&#xfb;" horiz-adv-x="1081" 
d="M125 1085h141v-739q0 -120 62.5 -180t173.5 -60q196 0 301 168v811h143v-778l12 -307h-118l-23 152q-50 -78 -141 -126.5t-221 -48.5q-158 0 -244 96t-86 253v759zM344 1257h-141l268 340h127l268 -340h-141l-190 232z" />
    <glyph glyph-name="udieresis" unicode="&#xfc;" horiz-adv-x="1081" 
d="M125 1085h141v-739q0 -120 62.5 -180t173.5 -60q196 0 301 168v811h143v-778l12 -307h-118l-23 152q-50 -78 -141 -126.5t-221 -48.5q-158 0 -244 96t-86 253v759zM795 1526v-180h-179v180h179zM453 1526v-180h-179v180h179z" />
    <glyph glyph-name="yacute" unicode="&#xfd;" horiz-adv-x="991" 
d="M510 199l311 886h154l-389 -1044l-154 -451h-166l170 451l-389 1044h154zM621 1597h155l-192 -340h-148z" />
    <glyph glyph-name="thorn" unicode="&#xfe;" horiz-adv-x="1099" 
d="M133 1638h143v-680q102 150 310 150q108 0 189.5 -41.5t130 -116.5t72 -171t23.5 -212v-49q0 -116 -23.5 -212t-72 -171t-130 -116.5t-189.5 -41.5q-208 0 -310 150v-537h-143v2048zM279 274q100 -168 274 -168q150 0 225.5 109t75.5 303v49q0 194 -75.5 303t-225.5 109
q-174 0 -274 -168v-537z" />
    <glyph glyph-name="ydieresis" unicode="&#xff;" horiz-adv-x="991" 
d="M510 199l311 886h154l-389 -1044l-154 -451h-166l170 451l-389 1044h154zM770 1526v-180h-178v180h178zM428 1526v-180h-178v180h178z" />
    <glyph glyph-name="Amacron" unicode="&#x100;" horiz-adv-x="1251" 
d="M520 1614h211l461 -1614h-160l-114 410h-584l-115 -410h-160zM625 1452l-254 -909h508zM393 1778v110h463v-110h-463z" />
    <glyph glyph-name="amacron" unicode="&#x101;" horiz-adv-x="1048" 
d="M811 0l-23 152q-134 -175 -382 -175q-147 0 -230.5 82t-83.5 215v21q0 68 20.5 122t53 88.5t80.5 59.5t95 38t105 22l328 51v29q0 146 -56 214t-196 68q-74 0 -125.5 -20t-78 -58t-37.5 -81.5t-11 -100.5h-137v18q0 53 9.5 101t36.5 97.5t69 84.5t113 57.5t163 22.5
q110 0 188 -28.5t122.5 -83.5t64 -126t19.5 -165v-398l12 -307h-119zM442 102q226 0 332 172v297l-315 -51q-223 -40 -223 -215v-18q0 -79 52 -132t154 -53zM285 1360v135h479v-135h-479z" />
    <glyph glyph-name="Abreve" unicode="&#x102;" horiz-adv-x="1251" 
d="M520 1614h211l461 -1614h-160l-114 410h-584l-115 -410h-160zM625 1452l-254 -909h508zM625 1698q-153 0 -225 67.5t-72 180.5h114q0 -146 183 -146q182 0 182 146h115q0 -113 -72 -180.5t-225 -67.5z" />
    <glyph glyph-name="abreve" unicode="&#x103;" horiz-adv-x="1048" 
d="M811 0l-23 152q-134 -175 -382 -175q-147 0 -230.5 82t-83.5 215v21q0 68 20.5 122t53 88.5t80.5 59.5t95 38t105 22l328 51v29q0 146 -56 214t-196 68q-74 0 -125.5 -20t-78 -58t-37.5 -81.5t-11 -100.5h-137v18q0 53 9.5 101t36.5 97.5t69 84.5t113 57.5t163 22.5
q110 0 188 -28.5t122.5 -83.5t64 -126t19.5 -165v-398l12 -307h-119zM442 102q226 0 332 172v297l-315 -51q-223 -40 -223 -215v-18q0 -79 52 -132t154 -53zM524 1235q-168 0 -249.5 97t-79.5 265h116q0 -241 213 -241t213 241h117q2 -167 -80 -264.5t-250 -97.5z" />
    <glyph glyph-name="Aogonek" unicode="&#x104;" horiz-adv-x="1251" 
d="M1022 -211q0 -45 30.5 -73.5t84.5 -28.5q75 0 129 28l39 -106q-65 -41 -183 -41q-104 0 -163.5 49.5t-59.5 151.5q0 149 129 245l-110 396h-584l-115 -410h-160l461 1614h211l461 -1614q-170 -74 -170 -211zM625 1452l-254 -909h508z" />
    <glyph glyph-name="aogonek" unicode="&#x105;" horiz-adv-x="1048" 
d="M760 -211q0 -46 30 -74t84 -28q76 0 130 28l38 -106q-65 -41 -182 -41q-104 0 -163.5 49.5t-59.5 151.5q0 89 46 158.5t122 115.5l-17 109q-134 -175 -382 -175q-147 0 -230.5 82t-83.5 215v21q0 68 20.5 122t53 88.5t80.5 59.5t95 38t105 22l328 51v29q0 146 -56 214
t-196 68q-74 0 -125.5 -20t-78 -58t-37.5 -81.5t-11 -100.5h-137v18q0 53 9.5 101t36.5 97.5t69 84.5t113 57.5t163 22.5q110 0 188 -28.5t122.5 -83.5t64 -126t19.5 -165v-398l12 -307q-170 -74 -170 -211zM442 102q226 0 332 172v297l-315 -51q-223 -40 -223 -215v-18
q0 -79 52 -132t154 -53z" />
    <glyph glyph-name="Cacute" unicode="&#x106;" horiz-adv-x="1265" 
d="M268 758q0 -339 93.5 -493t295.5 -154h15q176 0 258 103t82 306h151v-20q0 -255 -126 -389t-378 -134q-278 0 -410 185.5t-132 595.5v82q0 410 131.5 595t410.5 185q504 0 504 -547v-57h-151q0 248 -80 359.5t-260 111.5h-15q-201 0 -295 -154t-94 -493v-82zM709 1946
h151l-127 -226h-147z" />
    <glyph glyph-name="cacute" unicode="&#x107;" horiz-adv-x="1069" 
d="M246 518q0 -193 76.5 -302.5t232.5 -109.5q142 0 209 77t67 194h138v-33q0 -53 -14 -104t-46.5 -99t-79.5 -84t-118 -58t-158 -22q-116 0 -204 42t-141.5 116.5t-80.5 170.5t-27 212v49q0 116 27 212t80.5 170.5t141.5 116.5t204 42q107 0 190 -34t130.5 -90t71.5 -121
t24 -134v-41h-138q0 133 -67.5 212t-208.5 79q-156 0 -232.5 -109.5t-76.5 -302.5v-49zM664 1597h155l-192 -340h-148z" />
    <glyph glyph-name="Ccircumflex" unicode="&#x108;" horiz-adv-x="1265" 
d="M268 758q0 -339 93.5 -493t295.5 -154h15q176 0 258 103t82 306h151v-20q0 -255 -126 -389t-378 -134q-278 0 -410 185.5t-132 595.5v82q0 410 131.5 595t410.5 185q504 0 504 -547v-57h-151q0 248 -80 359.5t-260 111.5h-15q-201 0 -295 -154t-94 -493v-82zM520 1720
h-143l217 226h131l217 -226h-143l-140 135z" />
    <glyph glyph-name="ccircumflex" unicode="&#x109;" horiz-adv-x="1069" 
d="M246 518q0 -193 76.5 -302.5t232.5 -109.5q142 0 209 77t67 194h138v-33q0 -53 -14 -104t-46.5 -99t-79.5 -84t-118 -58t-158 -22q-116 0 -204 42t-141.5 116.5t-80.5 170.5t-27 212v49q0 116 27 212t80.5 170.5t141.5 116.5t204 42q107 0 190 -34t130.5 -90t71.5 -121
t24 -134v-41h-138q0 133 -67.5 212t-208.5 79q-156 0 -232.5 -109.5t-76.5 -302.5v-49zM362 1257h-141l268 340h127l269 -340h-142l-190 232z" />
    <glyph glyph-name="Cdotaccent" unicode="&#x10a;" horiz-adv-x="1265" 
d="M268 758q0 -339 93.5 -493t295.5 -154h15q176 0 258 103t82 306h151v-20q0 -255 -126 -389t-378 -134q-278 0 -410 185.5t-132 595.5v82q0 410 131.5 595t410.5 185q504 0 504 -547v-57h-151q0 248 -80 359.5t-260 111.5h-15q-201 0 -295 -154t-94 -493v-82zM741 1905
v-144h-163v144h163z" />
    <glyph glyph-name="cdotaccent" unicode="&#x10b;" horiz-adv-x="1069" 
d="M246 518q0 -193 76.5 -302.5t232.5 -109.5q142 0 209 77t67 194h138v-33q0 -53 -14 -104t-46.5 -99t-79.5 -84t-118 -58t-158 -22q-116 0 -204 42t-141.5 116.5t-80.5 170.5t-27 212v49q0 116 27 212t80.5 170.5t141.5 116.5t204 42q107 0 190 -34t130.5 -90t71.5 -121
t24 -134v-41h-138q0 133 -67.5 212t-208.5 79q-156 0 -232.5 -109.5t-76.5 -302.5v-49zM643 1526v-180h-180v180h180z" />
    <glyph glyph-name="Ccaron" unicode="&#x10c;" horiz-adv-x="1265" 
d="M268 758q0 -339 93.5 -493t295.5 -154h15q176 0 258 103t82 306h151v-20q0 -255 -126 -389t-378 -134q-278 0 -410 185.5t-132 595.5v82q0 410 131.5 595t410.5 185q504 0 504 -547v-57h-151q0 248 -80 359.5t-260 111.5h-15q-201 0 -295 -154t-94 -493v-82zM377 1946
h143l139 -138l140 138h143l-217 -226h-131z" />
    <glyph glyph-name="ccaron" unicode="&#x10d;" horiz-adv-x="1069" 
d="M246 518q0 -193 76.5 -302.5t232.5 -109.5q142 0 209 77t67 194h138v-33q0 -53 -14 -104t-46.5 -99t-79.5 -84t-118 -58t-158 -22q-116 0 -204 42t-141.5 116.5t-80.5 170.5t-27 212v49q0 116 27 212t80.5 170.5t141.5 116.5t204 42q107 0 190 -34t130.5 -90t71.5 -121
t24 -134v-41h-138q0 133 -67.5 212t-208.5 79q-156 0 -232.5 -109.5t-76.5 -302.5v-49zM221 1597h141l191 -233l190 233h142l-269 -340h-127z" />
    <glyph glyph-name="Dcaron" unicode="&#x10e;" horiz-adv-x="1308" 
d="M1192 758q0 -204 -41.5 -351t-123 -236t-193.5 -130t-261 -41h-421v1597h421q150 0 261.5 -41t193 -129.5t123 -235.5t41.5 -351v-82zM299 133h262q118 0 205 34t149.5 107.5t93.5 194t31 289.5v82q0 331 -120 477.5t-359 146.5h-262v-1331zM315 1946h144l139 -138
l139 138h144l-217 -226h-132z" />
    <glyph glyph-name="dcaron" unicode="&#x10f;" horiz-adv-x="1105" 
d="M520 1108q201 0 307 -147v677h144v-1331l12 -307h-121l-20 145q-45 -75 -125.5 -121.5t-196.5 -46.5q-108 0 -189.5 41.5t-130 116.5t-72.5 171t-24 212v49q0 116 24 212t72.5 171t130 116.5t189.5 41.5zM551 106q171 0 276 168v537q-105 168 -276 168
q-150 0 -225.5 -109t-75.5 -303v-49q0 -194 75.5 -303t225.5 -109zM1122 1638h121l-39 -381h-82v381z" />
    <glyph glyph-name="Dcroat" unicode="&#x110;" horiz-adv-x="1431" 
d="M37 756v121h237v720h422q150 0 261.5 -41t193 -129.5t123 -235.5t41.5 -351v-82q0 -204 -41.5 -351t-123 -236t-193.5 -130t-261 -41h-422v756h-237zM422 1464v-587h436v-121h-436v-623h262q118 0 205 34t149.5 107.5t93.5 194t31 289.5v82q0 331 -120 477.5t-359 146.5
h-262z" />
    <glyph glyph-name="dcroat" unicode="&#x111;" horiz-adv-x="1105" 
d="M1157 1421v-118h-186v-996l12 -307h-121l-20 145q-45 -75 -125.5 -121.5t-196.5 -46.5q-108 0 -189.5 41.5t-130 116.5t-72.5 171t-24 212v49q0 116 24 212t72.5 171t130 116.5t189.5 41.5q201 0 307 -147v342h-272v118h272v217h144v-217h186zM827 811q-105 168 -276 168
q-150 0 -225.5 -109t-75.5 -303v-49q0 -194 75.5 -303t225.5 -109q171 0 276 168v537z" />
    <glyph glyph-name="Emacron" unicode="&#x112;" horiz-adv-x="1124" 
d="M152 1597h890v-133h-743v-583h641v-131h-641v-617h743v-133h-890v1597zM381 1778v110h463v-110h-463z" />
    <glyph glyph-name="emacron" unicode="&#x113;" horiz-adv-x="1114" 
d="M1014 483h-768q5 -184 84.5 -284.5t238.5 -100.5q78 0 139 22.5t97 59t54 79.5t18 89h137v-8q0 -65 -27.5 -128t-80 -116.5t-140 -86t-197.5 -32.5q-96 0 -174.5 27.5t-132.5 76.5t-91 118t-54 149t-17 172v45q0 115 27.5 212t82.5 172t144 117t205 42t204.5 -42
t142.5 -117t81 -172t27 -212v-82zM557 987q-150 0 -228 -101.5t-83 -283.5h622q-6 183 -83 284t-228 101zM319 1360v135h480v-135h-480z" />
    <glyph glyph-name="Ebreve" unicode="&#x114;" horiz-adv-x="1124" 
d="M612 1698q-153 0 -225 67.5t-72 180.5h115q0 -146 182 -146q183 0 183 146h114q0 -113 -72 -180.5t-225 -67.5zM152 1597h890v-133h-743v-583h641v-131h-641v-617h743v-133h-890v1597z" />
    <glyph glyph-name="ebreve" unicode="&#x115;" horiz-adv-x="1114" 
d="M1014 483h-768q5 -184 84.5 -284.5t238.5 -100.5q78 0 139 22.5t97 59t54 79.5t18 89h137v-8q0 -65 -27.5 -128t-80 -116.5t-140 -86t-197.5 -32.5q-96 0 -174.5 27.5t-132.5 76.5t-91 118t-54 149t-17 172v45q0 115 27.5 212t82.5 172t144 117t205 42t204.5 -42
t142.5 -117t81 -172t27 -212v-82zM557 987q-150 0 -228 -101.5t-83 -283.5h622q-6 183 -83 284t-228 101zM559 1235q-168 0 -250 97.5t-80 264.5h117q0 -241 213 -241t213 241h117q2 -167 -80 -264.5t-250 -97.5z" />
    <glyph glyph-name="Edotaccent" unicode="&#x116;" horiz-adv-x="1124" 
d="M152 1597h890v-133h-743v-583h641v-131h-641v-617h743v-133h-890v1597zM694 1905v-144h-164v144h164z" />
    <glyph glyph-name="edotaccent" unicode="&#x117;" horiz-adv-x="1114" 
d="M1014 483h-768q5 -184 84.5 -284.5t238.5 -100.5q78 0 139 22.5t97 59t54 79.5t18 89h137v-8q0 -65 -27.5 -128t-80 -116.5t-140 -86t-197.5 -32.5q-96 0 -174.5 27.5t-132.5 76.5t-91 118t-54 149t-17 172v45q0 115 27.5 212t82.5 172t144 117t205 42t204.5 -42
t142.5 -117t81 -172t27 -212v-82zM557 987q-150 0 -228 -101.5t-83 -283.5h622q-6 183 -83 284t-228 101zM649 1526v-180h-180v180h180z" />
    <glyph glyph-name="Eogonek" unicode="&#x118;" horiz-adv-x="1124" 
d="M152 1597h890v-133h-743v-583h641v-131h-641v-617h743v-133h-2q-170 -74 -170 -211q0 -45 30.5 -73.5t84.5 -28.5q75 0 129 28l39 -106q-65 -41 -182 -41q-104 0 -163.5 49.5t-59.5 151.5q0 139 110 231h-706v1597z" />
    <glyph glyph-name="eogonek" unicode="&#x119;" horiz-adv-x="1114" 
d="M1014 483h-768q5 -184 84.5 -284.5t238.5 -100.5q78 0 139 22.5t97 59t54 79.5t18 89h137v-8q0 -110 -71.5 -205.5t-209.5 -134.5q-69 -20 -118.5 -78.5t-49.5 -132.5q0 -45 30.5 -73.5t84.5 -28.5q75 0 129 28l39 -106q-65 -41 -182 -41q-104 0 -164 49.5t-60 151.5
q0 120 88 211q-110 7 -193.5 51t-134.5 117.5t-76.5 167t-25.5 204.5v45q0 115 27.5 212t82.5 172t144 117t205 42t204.5 -42t142.5 -117t81 -172t27 -212v-82zM557 987q-150 0 -228 -101.5t-83 -283.5h622q-6 183 -83 284t-228 101z" />
    <glyph glyph-name="Ecaron" unicode="&#x11a;" horiz-adv-x="1124" 
d="M152 1597h890v-133h-743v-583h641v-131h-641v-617h743v-133h-890v1597zM330 1946h143l139 -138l140 138h143l-217 -226h-131z" />
    <glyph glyph-name="ecaron" unicode="&#x11b;" horiz-adv-x="1114" 
d="M1014 483h-768q5 -184 84.5 -284.5t238.5 -100.5q78 0 139 22.5t97 59t54 79.5t18 89h137v-8q0 -65 -27.5 -128t-80 -116.5t-140 -86t-197.5 -32.5q-96 0 -174.5 27.5t-132.5 76.5t-91 118t-54 149t-17 172v45q0 115 27.5 212t82.5 172t144 117t205 42t204.5 -42
t142.5 -117t81 -172t27 -212v-82zM557 987q-150 0 -228 -101.5t-83 -283.5h622q-6 183 -83 284t-228 101zM227 1597h142l190 -233l191 233h141l-268 -340h-127z" />
    <glyph glyph-name="Gcircumflex" unicode="&#x11c;" horiz-adv-x="1327" 
d="M698 -23q-294 0 -437.5 186.5t-143.5 594.5v82q0 406 140.5 593t420.5 187q508 0 508 -547v-57h-150q0 248 -81 359.5t-265 111.5h-12q-206 0 -307 -155.5t-101 -491.5v-82q0 -340 101.5 -493.5t322.5 -153.5h15q112 0 196 35t133 87v422h-274v131h422v-624
q-177 -185 -488 -185zM539 1720h-144l217 226h131l218 -226h-144l-139 135z" />
    <glyph glyph-name="gcircumflex" unicode="&#x11d;" horiz-adv-x="1099" 
d="M823 -2v201q-104 -144 -307 -144q-107 0 -188.5 39.5t-130.5 109.5t-73 159.5t-24 195.5v45q0 83 14.5 157t47 138t80.5 110t118 72.5t156 26.5q220 0 324 -168l20 145h119l-12 -307v-788q0 -94 -23.5 -169t-73 -133t-133 -89t-196.5 -31q-114 0 -197 31.5t-131 88
t-70 127.5t-22 158v27h137q0 -157 66 -232t215 -75q152 0 218 75.5t66 229.5zM823 811q-105 168 -276 168q-148 0 -224.5 -101t-76.5 -274v-45q0 -175 76 -275t225 -100q169 0 276 166v461zM352 1257h-141l268 340h127l268 -340h-141l-190 232z" />
    <glyph glyph-name="Gbreve" unicode="&#x11e;" horiz-adv-x="1327" 
d="M698 -23q-294 0 -437.5 186.5t-143.5 594.5v82q0 406 140.5 593t420.5 187q508 0 508 -547v-57h-150q0 248 -81 359.5t-265 111.5h-12q-206 0 -307 -155.5t-101 -491.5v-82q0 -340 101.5 -493.5t322.5 -153.5h15q112 0 196 35t133 87v422h-274v131h422v-624
q-177 -185 -488 -185zM678 1698q-153 0 -225 67.5t-72 180.5h115q0 -146 182 -146t182 146h115q0 -113 -72 -180.5t-225 -67.5z" />
    <glyph glyph-name="gbreve" unicode="&#x11f;" horiz-adv-x="1099" 
d="M823 -2v201q-104 -144 -307 -144q-107 0 -188.5 39.5t-130.5 109.5t-73 159.5t-24 195.5v45q0 83 14.5 157t47 138t80.5 110t118 72.5t156 26.5q220 0 324 -168l20 145h119l-12 -307v-788q0 -94 -23.5 -169t-73 -133t-133 -89t-196.5 -31q-114 0 -197 31.5t-131 88
t-70 127.5t-22 158v27h137q0 -157 66 -232t215 -75q152 0 218 75.5t66 229.5zM823 811q-105 168 -276 168q-148 0 -224.5 -101t-76.5 -274v-45q0 -175 76 -275t225 -100q169 0 276 166v461zM543 1235q-168 0 -250 97.5t-80 264.5h117q0 -241 213 -241t213 241h116
q2 -168 -79.5 -265t-249.5 -97z" />
    <glyph glyph-name="Gdotaccent" unicode="&#x120;" horiz-adv-x="1327" 
d="M698 -23q-294 0 -437.5 186.5t-143.5 594.5v82q0 406 140.5 593t420.5 187q508 0 508 -547v-57h-150q0 248 -81 359.5t-265 111.5h-12q-206 0 -307 -155.5t-101 -491.5v-82q0 -340 101.5 -493.5t322.5 -153.5h15q112 0 196 35t133 87v422h-274v131h422v-624
q-177 -185 -488 -185zM760 1905v-144h-164v144h164z" />
    <glyph glyph-name="gdotaccent" unicode="&#x121;" horiz-adv-x="1099" 
d="M823 -2v201q-104 -144 -307 -144q-107 0 -188.5 39.5t-130.5 109.5t-73 159.5t-24 195.5v45q0 83 14.5 157t47 138t80.5 110t118 72.5t156 26.5q220 0 324 -168l20 145h119l-12 -307v-788q0 -94 -23.5 -169t-73 -133t-133 -89t-196.5 -31q-114 0 -197 31.5t-131 88
t-70 127.5t-22 158v27h137q0 -157 66 -232t215 -75q152 0 218 75.5t66 229.5zM823 811q-105 168 -276 168q-148 0 -224.5 -101t-76.5 -274v-45q0 -175 76 -275t225 -100q169 0 276 166v461zM631 1526v-180h-180v180h180z" />
    <glyph glyph-name="Gcommaaccent" unicode="&#x122;" horiz-adv-x="1327" 
d="M698 -23q-294 0 -437.5 186.5t-143.5 594.5v82q0 406 140.5 593t420.5 187q508 0 508 -547v-57h-150q0 248 -81 359.5t-265 111.5h-12q-206 0 -307 -155.5t-101 -491.5v-82q0 -340 101.5 -493.5t322.5 -153.5h15q112 0 196 35t133 87v422h-274v131h422v-624
q-177 -185 -488 -185zM782 -115v-102q0 -105 -56.5 -163t-158.5 -58v73q121 0 138 111h-91v139h168z" />
    <glyph glyph-name="gcommaaccent" unicode="&#x123;" horiz-adv-x="1099" 
d="M823 -2v201q-104 -144 -307 -144q-107 0 -188.5 39.5t-130.5 109.5t-73 159.5t-24 195.5v45q0 83 14.5 157t47 138t80.5 110t118 72.5t156 26.5q220 0 324 -168l20 145h119l-12 -307v-788q0 -94 -23.5 -169t-73 -133t-133 -89t-196.5 -31q-114 0 -197 31.5t-131 88
t-70 127.5t-22 158v27h137q0 -157 66 -232t215 -75q152 0 218 75.5t66 229.5zM823 811q-105 168 -276 168q-148 0 -224.5 -101t-76.5 -274v-45q0 -175 76 -275t225 -100q169 0 276 166v461zM459 1257v107q0 130 52.5 193t160.5 63v-74q-66 0 -100 -32.5t-40 -112.5h93v-144
h-166z" />
    <glyph glyph-name="Hcircumflex" unicode="&#x124;" horiz-adv-x="1308" 
d="M1010 1597h147v-1597h-147v750h-711v-750h-147v1597h147v-716h711v716zM514 1720h-143l217 226h131l217 -226h-143l-140 135z" />
    <glyph glyph-name="hcircumflex" unicode="&#x125;" horiz-adv-x="1081" 
d="M279 1638v-684q118 154 348 154q157 0 243 -95.5t86 -252.5v-760h-143v739q0 120 -62 180t-173 60q-194 0 -299 -168v-811h-144v1638h144zM68 1720h-144l217 226h131l217 -226h-143l-139 135z" />
    <glyph glyph-name="Hbar" unicode="&#x126;" horiz-adv-x="1308" 
d="M1010 1597h147v-1597h-147v750h-711v-750h-147v1597h147v-294h711v294zM299 881h711v301h-711v-301z" />
    <glyph glyph-name="hbar" unicode="&#x127;" horiz-adv-x="1081" 
d="M279 1638v-217h272v-118h-272v-349q118 154 348 154q157 0 243 -95.5t86 -252.5v-760h-143v739q0 120 -62 180t-173 60q-194 0 -299 -168v-811h-144v1303h-188v118h188v217h144z" />
    <glyph glyph-name="Itilde" unicode="&#x128;" horiz-adv-x="468" 
d="M309 1597v-1597h-147v1597h147zM444 1917h103q0 -96 -44 -143.5t-118 -47.5q-54 0 -108 28t-98.5 55.5t-76.5 27.5q-75 0 -75 -88h-103q0 96 44 143t118 47q43 0 86.5 -17t73 -38t63.5 -38t60 -17q75 0 75 88z" />
    <glyph glyph-name="itilde" unicode="&#x129;" horiz-adv-x="444" 
d="M150 0v1085h143v-1085h-143zM428 1528h113q0 -105 -44.5 -158t-121.5 -53q-43 0 -87 17t-73.5 38t-64.5 38t-62 17q-74 0 -74 -88h-112q0 105 44.5 158t121.5 53q54 0 108 -27.5t99.5 -55t78.5 -27.5q74 0 74 88z" />
    <glyph glyph-name="Imacron" unicode="&#x12a;" horiz-adv-x="468" 
d="M309 1597v-1597h-147v1597h147zM4 1778v110h463v-110h-463z" />
    <glyph glyph-name="imacron" unicode="&#x12b;" horiz-adv-x="444" 
d="M150 0v1085h143v-1085h-143zM-18 1360v135h479v-135h-479z" />
    <glyph glyph-name="Ibreve" unicode="&#x12c;" horiz-adv-x="468" 
d="M309 1597v-1597h-147v1597h147zM236 1698q-153 0 -225 67.5t-72 180.5h114q0 -146 183 -146q182 0 182 146h114q0 -113 -71.5 -180.5t-224.5 -67.5z" />
    <glyph glyph-name="ibreve" unicode="&#x12d;" horiz-adv-x="444" 
d="M150 0v1085h143v-1085h-143zM221 1235q-168 0 -250 97.5t-80 264.5h117q0 -241 213 -241t213 241h117q2 -167 -80 -264.5t-250 -97.5z" />
    <glyph glyph-name="Iogonek" unicode="&#x12e;" horiz-adv-x="468" 
d="M137 -211q0 -45 30.5 -73.5t84.5 -28.5q75 0 129 28l39 -106q-65 -41 -182 -41q-104 0 -164 49.5t-60 151.5q0 83 40.5 149.5t107.5 110.5v1568h147v-1597h-2q-170 -74 -170 -211z" />
    <glyph glyph-name="iogonek" unicode="&#x12f;" horiz-adv-x="444" 
d="M123 -211q0 -45 30.5 -73.5t84.5 -28.5q75 0 129 28l39 -106q-65 -41 -183 -41q-104 0 -163.5 49.5t-59.5 151.5q0 160 150 262v1054h143v-1085q-170 -74 -170 -211zM313 1526v-185h-184v185h184z" />
    <glyph glyph-name="Idotaccent" unicode="&#x130;" horiz-adv-x="468" 
d="M309 1597v-1597h-147v1597h147zM317 1905v-144h-163v144h163z" />
    <glyph glyph-name="dotlessi" unicode="&#x131;" horiz-adv-x="442" 
d="M150 0v1085h143v-1085h-143z" />
    <glyph glyph-name="IJ" unicode="&#x132;" horiz-adv-x="1021" 
d="M733 340v1257h148v-1275q0 -177 -81 -261t-220 -84q-104 0 -158 27v127q50 -20 119 -20q101 0 146.5 51.5t45.5 177.5zM309 1597v-1597h-147v1597h147z" />
    <glyph glyph-name="ij" unicode="&#x133;" horiz-adv-x="784" 
d="M492 -90v1175h143v-1194q0 -168 -85 -245.5t-233 -77.5q-92 0 -151 22v125q40 -18 117 -18q109 0 159 45t50 168zM150 0v1085h143v-1085h-143zM313 1526v-185h-184v185h184zM655 1526v-185h-184v185h184z" />
    <glyph glyph-name="Jcircumflex" unicode="&#x134;" horiz-adv-x="1013" 
d="M725 1597h147v-1105q0 -251 -95.5 -383t-311.5 -132q-220 0 -313 129t-93 386v28h140q0 -214 61.5 -311.5t202.5 -97.5q140 0 201 96.5t61 308.5v1081zM659 1720h-143l217 226h131l217 -226h-143l-139 135z" />
    <glyph glyph-name="jcircumflex" unicode="&#x135;" horiz-adv-x="444" 
d="M150 -90v1175h143v-1194q0 -168 -85 -245.5t-233 -77.5q-92 0 -151 22v125q40 -18 117 -18q109 0 159 45t50 168zM31 1257h-142l269 340h127l268 -340h-141l-191 232z" />
    <glyph glyph-name="Kcommaaccent" unicode="&#x136;" horiz-adv-x="1150" 
d="M299 1597v-876l602 876h180l-475 -671l475 -926h-168l-401 793l-213 -301v-492h-147v1597h147zM653 -115v-102q0 -105 -56.5 -163t-158.5 -58v73q120 0 137 111h-90v139h168z" />
    <glyph glyph-name="kcommaaccent" unicode="&#x137;" horiz-adv-x="1026" 
d="M133 0v1638h143v-1126l517 573h178l-373 -411l373 -674h-164l-307 565l-224 -246v-319h-143zM604 -115v-102q0 -105 -56.5 -163t-158.5 -58v73q120 0 137 111h-90v139h168z" />
    <glyph glyph-name="kgreenlandic" unicode="&#x138;" horiz-adv-x="1026" 
d="M133 0v1085h143v-573l517 573h178l-373 -411l373 -674h-164l-307 565l-224 -246v-319h-143z" />
    <glyph glyph-name="Lacute" unicode="&#x139;" horiz-adv-x="1005" 
d="M975 0h-823v1597h147v-1464h676v-133zM274 1946h152l-127 -226h-147z" />
    <glyph glyph-name="lacute" unicode="&#x13a;" horiz-adv-x="444" 
d="M150 0v1638h143v-1638h-143zM270 1946h152l-127 -226h-148z" />
    <glyph glyph-name="Lcommaaccent" unicode="&#x13b;" horiz-adv-x="1005" 
d="M975 0h-823v1597h147v-1464h676v-133zM649 -115v-102q0 -105 -56.5 -163t-158.5 -58v73q120 0 137 111h-90v139h168z" />
    <glyph glyph-name="lcommaaccent" unicode="&#x13c;" horiz-adv-x="444" 
d="M150 0v1638h143v-1638h-143zM305 -115v-102q0 -105 -56.5 -163t-158.5 -58v73q120 0 137 111h-90v139h168z" />
    <glyph glyph-name="Lcaron" unicode="&#x13d;" horiz-adv-x="1005" 
d="M975 0h-823v1597h147v-1464h676v-133zM598 1638h121l-39 -381h-82v381z" />
    <glyph glyph-name="lcaron" unicode="&#x13e;" horiz-adv-x="444" 
d="M150 0v1638h143v-1638h-143zM444 1638h121l-39 -381h-82v381z" />
    <glyph glyph-name="Ldot" unicode="&#x13f;" horiz-adv-x="1005" 
d="M975 0h-823v1597h147v-1464h676v-133zM805 905v-180h-180v180h180z" />
    <glyph glyph-name="ldot" unicode="&#x140;" horiz-adv-x="686" 
d="M150 0v1638h143v-1638h-143zM655 807v-180h-178v180h178z" />
    <glyph glyph-name="Lslash" unicode="&#x141;" horiz-adv-x="1128" 
d="M37 543v137l237 123v794h148v-718l444 229v-135l-444 -232v-608h676v-133h-824v666z" />
    <glyph glyph-name="lslash" unicode="&#x142;" horiz-adv-x="673" 
d="M66 537v143l190 143v815h143v-704l230 174v-143l-230 -174v-791h-143v680z" />
    <glyph glyph-name="Nacute" unicode="&#x143;" horiz-adv-x="1349" 
d="M1198 1597v-1597h-160l-755 1348l8 -371v-977h-139v1597h159l754 -1347l-6 371v976h139zM723 1946h151l-126 -226h-148z" />
    <glyph glyph-name="nacute" unicode="&#x144;" horiz-adv-x="1081" 
d="M956 0h-143v739q0 120 -62 180t-173 60q-194 0 -299 -168v-811h-144v778l-12 307h119l20 -153q116 176 365 176q157 0 243 -95.5t86 -252.5v-760zM657 1597h156l-192 -340h-148z" />
    <glyph glyph-name="Ncommaaccent" unicode="&#x145;" horiz-adv-x="1349" 
d="M1198 1597v-1597h-160l-755 1348l8 -371v-977h-139v1597h159l754 -1347l-6 371v976h139zM758 -115v-102q0 -105 -56.5 -163t-158.5 -58v73q120 0 137 111h-90v139h168z" />
    <glyph glyph-name="ncommaaccent" unicode="&#x146;" horiz-adv-x="1081" 
d="M956 0h-143v739q0 120 -62 180t-173 60q-194 0 -299 -168v-811h-144v778l-12 307h119l20 -153q116 176 365 176q157 0 243 -95.5t86 -252.5v-760zM631 -115v-102q0 -105 -56.5 -163t-158.5 -58v73q120 0 137 111h-90v139h168z" />
    <glyph glyph-name="Ncaron" unicode="&#x147;" horiz-adv-x="1349" 
d="M1198 1597v-1597h-160l-755 1348l8 -371v-977h-139v1597h159l754 -1347l-6 371v976h139zM391 1946h144l139 -138l139 138h143l-217 -226h-131z" />
    <glyph glyph-name="ncaron" unicode="&#x148;" horiz-adv-x="1081" 
d="M956 0h-143v739q0 120 -62 180t-173 60q-194 0 -299 -168v-811h-144v778l-12 307h119l20 -153q116 176 365 176q157 0 243 -95.5t86 -252.5v-760zM215 1597h141l191 -233l190 233h142l-269 -340h-127z" />
    <glyph glyph-name="Eng" unicode="&#x14a;" horiz-adv-x="1349" 
d="M1053 -90v61l-770 1377l8 -371v-977h-139v1597h159l754 -1347l-6 371v976h139v-1703q0 -170 -85 -248t-232 -78q-101 0 -152 22v125q43 -16 117 -16q108 0 157.5 44t49.5 167z" />
    <glyph glyph-name="eng" unicode="&#x14b;" horiz-adv-x="1081" 
d="M813 -90v829q0 120 -62 180t-173 60q-194 0 -299 -168v-811h-144v778l-12 307h119l20 -153q116 176 365 176q157 0 243 -95.5t86 -252.5v-869q0 -168 -85 -245.5t-232 -77.5q-93 0 -152 22v125q13 -6 49 -12t68 -6q109 0 159 45t50 168z" />
    <glyph glyph-name="Omacron" unicode="&#x14c;" horiz-adv-x="1329" 
d="M664 -23q-278 0 -412.5 186t-134.5 595v82q0 409 134.5 594.5t412.5 185.5q279 0 413.5 -185.5t134.5 -594.5v-82q0 -409 -134.5 -595t-413.5 -186zM657 111h15q202 0 295.5 154t93.5 493v82q0 339 -93.5 493t-295.5 154h-15q-202 0 -295.5 -154t-93.5 -493v-82
q0 -339 93.5 -493t295.5 -154zM432 1778v110h463v-110h-463z" />
    <glyph glyph-name="omacron" unicode="&#x14d;" horiz-adv-x="1114" 
d="M557 -23q-116 0 -205.5 42t-143.5 116.5t-81 171t-27 211.5v49q0 115 27 211.5t81 171t143.5 116.5t205.5 42t205.5 -42t143.5 -116.5t81 -171t27 -211.5v-49q0 -115 -27 -211.5t-81 -171t-143.5 -116.5t-205.5 -42zM557 106q156 0 233.5 109.5t77.5 302.5v49
q0 193 -77.5 302.5t-233.5 109.5t-233.5 -109.5t-77.5 -302.5v-49q0 -193 77.5 -302.5t233.5 -109.5zM317 1360v135h480v-135h-480z" />
    <glyph glyph-name="Obreve" unicode="&#x14e;" horiz-adv-x="1329" 
d="M664 -23q-278 0 -412.5 186t-134.5 595v82q0 409 134.5 594.5t412.5 185.5q279 0 413.5 -185.5t134.5 -594.5v-82q0 -409 -134.5 -595t-413.5 -186zM657 111h15q202 0 295.5 154t93.5 493v82q0 339 -93.5 493t-295.5 154h-15q-202 0 -295.5 -154t-93.5 -493v-82
q0 -339 93.5 -493t295.5 -154zM664 1698q-153 0 -225 67.5t-72 180.5h114q0 -146 183 -146q182 0 182 146h115q0 -113 -72 -180.5t-225 -67.5z" />
    <glyph glyph-name="obreve" unicode="&#x14f;" horiz-adv-x="1114" 
d="M557 -23q-116 0 -205.5 42t-143.5 116.5t-81 171t-27 211.5v49q0 115 27 211.5t81 171t143.5 116.5t205.5 42t205.5 -42t143.5 -116.5t81 -171t27 -211.5v-49q0 -115 -27 -211.5t-81 -171t-143.5 -116.5t-205.5 -42zM557 106q156 0 233.5 109.5t77.5 302.5v49
q0 193 -77.5 302.5t-233.5 109.5t-233.5 -109.5t-77.5 -302.5v-49q0 -193 77.5 -302.5t233.5 -109.5zM557 1235q-168 0 -250 97.5t-80 264.5h117q0 -241 213 -241t213 241h117q2 -167 -80 -264.5t-250 -97.5z" />
    <glyph glyph-name="Ohungarumlaut" unicode="&#x150;" horiz-adv-x="1329" 
d="M664 -23q-278 0 -412.5 186t-134.5 595v82q0 409 134.5 594.5t412.5 185.5q279 0 413.5 -185.5t134.5 -594.5v-82q0 -409 -134.5 -595t-413.5 -186zM657 111h15q202 0 295.5 154t93.5 493v82q0 339 -93.5 493t-295.5 154h-15q-202 0 -295.5 -154t-93.5 -493v-82
q0 -339 93.5 -493t295.5 -154zM586 1946h143l-125 -226h-137zM846 1946h143l-129 -226h-137z" />
    <glyph glyph-name="ohungarumlaut" unicode="&#x151;" horiz-adv-x="1114" 
d="M557 -23q-116 0 -205.5 42t-143.5 116.5t-81 171t-27 211.5v49q0 115 27 211.5t81 171t143.5 116.5t205.5 42t205.5 -42t143.5 -116.5t81 -171t27 -211.5v-49q0 -115 -27 -211.5t-81 -171t-143.5 -116.5t-205.5 -42zM557 106q156 0 233.5 109.5t77.5 302.5v49
q0 193 -77.5 302.5t-233.5 109.5t-233.5 -109.5t-77.5 -302.5v-49q0 -193 77.5 -302.5t233.5 -109.5zM803 1597h139l-194 -340h-130zM539 1597h137l-180 -340h-129z" />
    <glyph glyph-name="OE" unicode="&#x152;" horiz-adv-x="1925" 
d="M117 840q0 204 41 351t122 235.5t192.5 129.5t260.5 41h1110v-133h-743v-583h641v-131h-641v-617h743v-133h-1110q-149 0 -260.5 41t-192.5 130t-122 236t-41 351v82zM952 1464h-207q-117 0 -203.5 -34t-149 -107t-93.5 -193.5t-31 -289.5v-82q0 -169 31 -289.5
t93.5 -194t149 -107.5t203.5 -34h207v1331z" />
    <glyph glyph-name="oe" unicode="&#x153;" horiz-adv-x="1882" 
d="M1784 483h-770q5 -184 85 -284.5t240 -100.5q77 0 138 22.5t96.5 59t53.5 79.5t18 89h139v-8q0 -52 -16.5 -102.5t-52.5 -98t-87.5 -83.5t-126.5 -57.5t-164 -21.5q-283 0 -395 242q-50 -113 -146 -177.5t-239 -64.5q-116 0 -205.5 42t-143.5 116.5t-81 171t-27 211.5v49
q0 115 27 211.5t81 171t143.5 116.5t205.5 42q143 0 239 -64.5t146 -177.5q50 113 146 177.5t239 64.5q116 0 205 -42t143 -117t81.5 -172t27.5 -212v-82zM246 518q0 -193 77.5 -302.5t233.5 -109.5t233.5 109.5t77.5 302.5v49q0 193 -77.5 302.5t-233.5 109.5
t-233.5 -109.5t-77.5 -302.5v-49zM1325 987q-150 0 -228 -101.5t-83 -283.5h622q-6 183 -83 284t-228 101z" />
    <glyph glyph-name="Racute" unicode="&#x154;" horiz-adv-x="1196" 
d="M299 649v-649h-147v1597h442q74 0 139 -11.5t131 -42.5t113 -80.5t76.5 -131t29.5 -188.5v-41q0 -333 -276 -422l276 -680h-161l-254 651q-25 -2 -74 -2h-295zM299 782h299q46 0 88 7t88.5 29t80 56.5t55.5 94.5t22 139v31q0 79 -22 139t-55.5 94.5t-80 56t-88.5 28.5
t-88 7h-299v-682zM610 1946h152l-127 -226h-148z" />
    <glyph glyph-name="racute" unicode="&#x155;" horiz-adv-x="681" 
d="M565 1108q6 0 13.5 -0.5t12 -1t5.5 -0.5v-137h-29q-185 0 -288 -164v-805h-144v778l-12 307h119l20 -143q47 74 124 120t179 46zM475 1597h156l-193 -340h-147z" />
    <glyph glyph-name="Rcommaaccent" unicode="&#x156;" horiz-adv-x="1196" 
d="M299 649v-649h-147v1597h442q74 0 139 -11.5t131 -42.5t113 -80.5t76.5 -131t29.5 -188.5v-41q0 -333 -276 -422l276 -680h-161l-254 651q-25 -2 -74 -2h-295zM299 782h299q46 0 88 7t88.5 29t80 56.5t55.5 94.5t22 139v31q0 79 -22 139t-55.5 94.5t-80 56t-88.5 28.5
t-88 7h-299v-682zM666 -115v-102q0 -105 -56.5 -163t-158.5 -58v73q120 0 137 111h-90v139h168z" />
    <glyph glyph-name="rcommaaccent" unicode="&#x157;" horiz-adv-x="681" 
d="M565 1108q6 0 13.5 -0.5t12 -1t5.5 -0.5v-137h-29q-185 0 -288 -164v-805h-144v778l-12 307h119l20 -143q47 74 124 120t179 46zM291 -115v-102q0 -105 -56.5 -163t-158.5 -58v73q120 0 137 111h-90v139h168z" />
    <glyph glyph-name="Rcaron" unicode="&#x158;" horiz-adv-x="1196" 
d="M299 649v-649h-147v1597h442q74 0 139 -11.5t131 -42.5t113 -80.5t76.5 -131t29.5 -188.5v-41q0 -333 -276 -422l276 -680h-161l-254 651q-25 -2 -74 -2h-295zM299 782h299q46 0 88 7t88.5 29t80 56.5t55.5 94.5t22 139v31q0 79 -22 139t-55.5 94.5t-80 56t-88.5 28.5
t-88 7h-299v-682zM279 1946h143l139 -138l139 138h144l-217 -226h-131z" />
    <glyph glyph-name="rcaron" unicode="&#x159;" horiz-adv-x="681" 
d="M565 1108q6 0 13.5 -0.5t12 -1t5.5 -0.5v-137h-29q-185 0 -288 -164v-805h-144v778l-12 307h119l20 -143q47 74 124 120t179 46zM33 1597h141l191 -233l190 233h141l-268 -340h-127z" />
    <glyph glyph-name="Sacute" unicode="&#x15a;" horiz-adv-x="1230" 
d="M590 758q-477 64 -477 413v21q0 198 136 313t365 115q261 0 382.5 -130t121.5 -384v-49h-147q0 227 -83 328.5t-267 101.5h-15q-149 0 -245.5 -75t-96.5 -202v-16q0 -89 33.5 -148t118.5 -101t229 -62q257 -35 374.5 -141t117.5 -293v-21q0 -211 -141 -331t-382 -120
q-252 0 -386 137t-134 386v20h148q0 -204 99 -306.5t267 -102.5h15q165 0 263.5 81.5t98.5 225.5v18q0 141 -93 217t-302 105zM664 1946h151l-127 -226h-147z" />
    <glyph glyph-name="sacute" unicode="&#x15b;" horiz-adv-x="1069" 
d="M535 98q130 0 200 53.5t70 145.5q0 106 -65.5 146.5t-231.5 54.5q-143 12 -227.5 50.5t-117 95.5t-32.5 142v13q0 142 107.5 225.5t296.5 83.5q212 0 308.5 -97t96.5 -268v-8h-141q0 125 -59.5 188.5t-204.5 63.5q-124 0 -192.5 -49t-68.5 -139q0 -60 22.5 -97t87 -62
t179.5 -34q208 -18 298.5 -85t90.5 -214v-10q0 -144 -110 -232t-307 -88q-110 0 -194 30.5t-131 81.5t-70 110t-23 125v8h143q0 -48 13.5 -87.5t43 -73.5t85.5 -53.5t133 -19.5zM645 1597h156l-193 -340h-147z" />
    <glyph glyph-name="Scircumflex" unicode="&#x15c;" horiz-adv-x="1230" 
d="M590 758q-477 64 -477 413v21q0 198 136 313t365 115q261 0 382.5 -130t121.5 -384v-49h-147q0 227 -83 328.5t-267 101.5h-15q-149 0 -245.5 -75t-96.5 -202v-16q0 -89 33.5 -148t118.5 -101t229 -62q257 -35 374.5 -141t117.5 -293v-21q0 -211 -141 -331t-382 -120
q-252 0 -386 137t-134 386v20h148q0 -204 99 -306.5t267 -102.5h15q165 0 263.5 81.5t98.5 225.5v18q0 141 -93 217t-302 105zM475 1720h-143l217 226h131l217 -226h-143l-140 135z" />
    <glyph glyph-name="scircumflex" unicode="&#x15d;" horiz-adv-x="1069" 
d="M535 98q130 0 200 53.5t70 145.5q0 106 -65.5 146.5t-231.5 54.5q-143 12 -227.5 50.5t-117 95.5t-32.5 142v13q0 142 107.5 225.5t296.5 83.5q212 0 308.5 -97t96.5 -268v-8h-141q0 125 -59.5 188.5t-204.5 63.5q-124 0 -192.5 -49t-68.5 -139q0 -60 22.5 -97t87 -62
t179.5 -34q208 -18 298.5 -85t90.5 -214v-10q0 -144 -110 -232t-307 -88q-110 0 -194 30.5t-131 81.5t-70 110t-23 125v8h143q0 -48 13.5 -87.5t43 -73.5t85.5 -53.5t133 -19.5zM344 1257h-141l268 340h127l268 -340h-141l-190 232z" />
    <glyph glyph-name="Scedilla" unicode="&#x15e;" horiz-adv-x="1230" 
d="M434 -391l31 90q60 -31 143 -31q62 0 90.5 14t28.5 50q0 63 -127 63l-59 -6l-39 47l55 144q-225 15 -344 150t-119 370v20h148q0 -204 99 -306.5t267 -102.5h15q165 0 263.5 81.5t98.5 225.5v18q0 141 -93 217t-302 105q-477 64 -477 413v21q0 198 136 313t365 115
q261 0 382.5 -130t121.5 -384v-49h-147q0 227 -83 328.5t-267 101.5h-15q-149 0 -245.5 -75t-96.5 -202v-16q0 -89 33.5 -148t118.5 -101t229 -62q257 -35 374.5 -141t117.5 -293v-21q0 -201 -129.5 -319t-352.5 -129l-34 -95h8q85 0 145 -38.5t60 -118.5q0 -160 -211 -160
q-127 0 -189 41z" />
    <glyph glyph-name="scedilla" unicode="&#x15f;" horiz-adv-x="1069" 
d="M354 -391l31 90q60 -31 143 -31q62 0 90.5 14t28.5 50q0 63 -127 63l-59 -6l-39 47l55 144q-95 7 -167 39.5t-112.5 82t-60.5 105.5t-20 117v8h143q0 -48 13.5 -87.5t43 -73.5t85.5 -53.5t133 -19.5q130 0 200 53.5t70 145.5q0 106 -65.5 146.5t-231.5 54.5
q-143 12 -227.5 50.5t-117 95.5t-32.5 142v13q0 142 107.5 225.5t296.5 83.5q212 0 308.5 -97t96.5 -268v-8h-141q0 125 -59.5 188.5t-204.5 63.5q-124 0 -192.5 -49t-68.5 -139q0 -60 22.5 -97t87 -62t179.5 -34q208 -18 298.5 -85t90.5 -214v-10q0 -136 -99.5 -222
t-277.5 -95l-34 -95h8q85 0 145 -38.5t60 -118.5q0 -160 -211 -160q-127 0 -189 41z" />
    <glyph glyph-name="Scaron" unicode="&#x160;" horiz-adv-x="1230" 
d="M590 758q-477 64 -477 413v21q0 198 136 313t365 115q261 0 382.5 -130t121.5 -384v-49h-147q0 227 -83 328.5t-267 101.5h-15q-149 0 -245.5 -75t-96.5 -202v-16q0 -89 33.5 -148t118.5 -101t229 -62q257 -35 374.5 -141t117.5 -293v-21q0 -211 -141 -331t-382 -120
q-252 0 -386 137t-134 386v20h148q0 -204 99 -306.5t267 -102.5h15q165 0 263.5 81.5t98.5 225.5v18q0 141 -93 217t-302 105zM332 1946h143l139 -138l140 138h143l-217 -226h-131z" />
    <glyph glyph-name="scaron" unicode="&#x161;" horiz-adv-x="1069" 
d="M535 98q130 0 200 53.5t70 145.5q0 106 -65.5 146.5t-231.5 54.5q-143 12 -227.5 50.5t-117 95.5t-32.5 142v13q0 142 107.5 225.5t296.5 83.5q212 0 308.5 -97t96.5 -268v-8h-141q0 125 -59.5 188.5t-204.5 63.5q-124 0 -192.5 -49t-68.5 -139q0 -60 22.5 -97t87 -62
t179.5 -34q208 -18 298.5 -85t90.5 -214v-10q0 -144 -110 -232t-307 -88q-110 0 -194 30.5t-131 81.5t-70 110t-23 125v8h143q0 -48 13.5 -87.5t43 -73.5t85.5 -53.5t133 -19.5zM203 1597h141l191 -233l190 233h141l-268 -340h-127z" />
    <glyph glyph-name="Tcommaaccent" unicode="&#x162;" horiz-adv-x="1054" 
d="M600 1464v-1464h-147v1464h-406v133h961v-133h-408zM610 -115v-102q0 -105 -56.5 -163t-158.5 -58v73q120 0 137 111h-90v139h168z" />
    <glyph glyph-name="tcommaaccent" unicode="&#x163;" horiz-adv-x="819" 
d="M379 1085h346v-129h-346v-637q0 -123 50 -168t159 -45q32 0 68 6.5t49 12.5v-125q-61 -23 -152 -23q-147 0 -232 77.5t-85 246.5v655h-173v129h173v308h143v-308zM559 -115v-102q0 -105 -56.5 -163t-158.5 -58v73q120 0 137 111h-90v139h168z" />
    <glyph glyph-name="Tcaron" unicode="&#x164;" horiz-adv-x="1054" 
d="M600 1464v-1464h-147v1464h-406v133h961v-133h-408zM244 1946h143l139 -138l140 138h143l-217 -226h-131z" />
    <glyph glyph-name="tcaron" unicode="&#x165;" horiz-adv-x="819" 
d="M379 1085h346v-129h-346v-637q0 -123 50 -168t159 -45q32 0 68 6.5t49 12.5v-125q-61 -23 -152 -23q-147 0 -232 77.5t-85 246.5v655h-173v129h173v308h143v-308zM530 1638h121l-39 -381h-82v381z" />
    <glyph glyph-name="Tbar" unicode="&#x166;" horiz-adv-x="1054" 
d="M600 1464v-585h258v-127h-258v-752h-147v752h-256v127h256v585h-406v133h961v-133h-408z" />
    <glyph glyph-name="tbar" unicode="&#x167;" horiz-adv-x="819" 
d="M379 1085h346v-129h-346v-354h264v-119h-264v-164q0 -123 50 -168t159 -45q32 0 68 6.5t49 12.5v-125q-61 -23 -152 -23q-147 0 -232 77.5t-85 246.5v182h-164v119h164v354h-173v129h173v308h143v-308z" />
    <glyph glyph-name="Utilde" unicode="&#x168;" horiz-adv-x="1308" 
d="M862 1917h103q0 -96 -44 -143.5t-118 -47.5q-54 0 -108 28t-98.5 55.5t-76.5 27.5q-76 0 -76 -88h-102q0 96 44 143t118 47q54 0 107.5 -27.5t98 -55t76.5 -27.5q76 0 76 88zM653 -23q-263 0 -387.5 119t-124.5 400v1101h148v-1091q0 -150 41 -237.5t118 -122.5t205 -35
q192 0 279.5 87.5t87.5 307.5v1091h147v-1101q0 -143 -32 -243t-98 -161t-159.5 -88t-224.5 -27z" />
    <glyph glyph-name="utilde" unicode="&#x169;" horiz-adv-x="1081" 
d="M125 1085h141v-739q0 -120 62.5 -180t173.5 -60q196 0 301 168v811h143v-778l12 -307h-118l-23 152q-50 -78 -141 -126.5t-221 -48.5q-158 0 -244 96t-86 253v759zM741 1528h113q0 -105 -44.5 -158t-121.5 -53q-43 0 -87 17t-73.5 38t-64.5 38t-62 17q-73 0 -73 -88h-113
q0 105 44.5 158t121.5 53q43 0 87 -17t73.5 -38t64.5 -38t62 -17q73 0 73 88z" />
    <glyph glyph-name="Umacron" unicode="&#x16a;" horiz-adv-x="1308" 
d="M653 -23q-263 0 -387.5 119t-124.5 400v1101h148v-1091q0 -150 41 -237.5t118 -122.5t205 -35q192 0 279.5 87.5t87.5 307.5v1091h147v-1101q0 -143 -32 -243t-98 -161t-159.5 -88t-224.5 -27zM422 1778v110h463v-110h-463z" />
    <glyph glyph-name="umacron" unicode="&#x16b;" horiz-adv-x="1081" 
d="M125 1085h141v-739q0 -120 62.5 -180t173.5 -60q196 0 301 168v811h143v-778l12 -307h-118l-23 152q-50 -78 -141 -126.5t-221 -48.5q-158 0 -244 96t-86 253v759zM295 1360v135h479v-135h-479z" />
    <glyph glyph-name="Ubreve" unicode="&#x16c;" horiz-adv-x="1308" 
d="M653 1698q-153 0 -225 67.5t-72 180.5h115q0 -146 182 -146q183 0 183 146h114q0 -113 -72 -180.5t-225 -67.5zM653 -23q-263 0 -387.5 119t-124.5 400v1101h148v-1091q0 -150 41 -237.5t118 -122.5t205 -35q192 0 279.5 87.5t87.5 307.5v1091h147v-1101q0 -143 -32 -243
t-98 -161t-159.5 -88t-224.5 -27z" />
    <glyph glyph-name="ubreve" unicode="&#x16d;" horiz-adv-x="1081" 
d="M125 1085h141v-739q0 -120 62.5 -180t173.5 -60q196 0 301 168v811h143v-778l12 -307h-118l-23 152q-50 -78 -141 -126.5t-221 -48.5q-158 0 -244 96t-86 253v759zM535 1235q-168 0 -250 97.5t-80 264.5h117q0 -241 213 -241t213 241h116q2 -168 -79.5 -265t-249.5 -97z
" />
    <glyph glyph-name="Uring" unicode="&#x16e;" horiz-adv-x="1308" 
d="M653 -23q-263 0 -387.5 119t-124.5 400v1101h148v-1091q0 -150 41 -237.5t118 -122.5t205 -35q192 0 279.5 87.5t87.5 307.5v1091h147v-1101q0 -143 -32 -243t-98 -161t-159.5 -88t-224.5 -27zM461 1776q0 80 56.5 136t135.5 56q80 0 136.5 -56.5t56.5 -135.5
q0 -80 -57 -136.5t-136 -56.5t-135.5 56.5t-56.5 136.5zM539 1776q0 -47 33.5 -81t80.5 -34t81 34t34 81t-34 80.5t-81 33.5t-80.5 -33.5t-33.5 -80.5z" />
    <glyph glyph-name="uring" unicode="&#x16f;" horiz-adv-x="1081" 
d="M125 1085h141v-739q0 -120 62.5 -180t173.5 -60q196 0 301 168v811h143v-778l12 -307h-118l-23 152q-50 -78 -141 -126.5t-221 -48.5q-158 0 -244 96t-86 253v759zM342 1427q0 79 57 136t136 57t135.5 -56.5t56.5 -136.5q0 -79 -56.5 -135.5t-135.5 -56.5
q-80 0 -136.5 56.5t-56.5 135.5zM420 1427q0 -47 34 -80.5t81 -33.5t80.5 33.5t33.5 80.5t-33.5 81t-80.5 34t-81 -34t-34 -81z" />
    <glyph glyph-name="Uhungarumlaut" unicode="&#x170;" horiz-adv-x="1308" 
d="M653 -23q-263 0 -387.5 119t-124.5 400v1101h148v-1091q0 -150 41 -237.5t118 -122.5t205 -35q192 0 279.5 87.5t87.5 307.5v1091h147v-1101q0 -143 -32 -243t-98 -161t-159.5 -88t-224.5 -27zM836 1946h143l-129 -226h-137zM575 1946h144l-125 -226h-137z" />
    <glyph glyph-name="uhungarumlaut" unicode="&#x171;" horiz-adv-x="1081" 
d="M125 1085h141v-739q0 -120 62.5 -180t173.5 -60q196 0 301 168v811h143v-778l12 -307h-118l-23 152q-50 -78 -141 -126.5t-221 -48.5q-158 0 -244 96t-86 253v759zM780 1597h140l-195 -340h-129zM516 1597h137l-180 -340h-129z" />
    <glyph glyph-name="Uogonek" unicode="&#x172;" horiz-adv-x="1308" 
d="M653 -23q-263 0 -387.5 119t-124.5 400v1101h148v-1091q0 -150 41 -237.5t118 -122.5t205 -35q192 0 279.5 87.5t87.5 307.5v1091h147v-1101q0 -219 -76 -337t-231 -159q-72 -20 -121 -78t-49 -133q0 -45 30.5 -73.5t84.5 -28.5q75 0 129 28l39 -106q-65 -41 -182 -41
q-104 0 -164 49.5t-60 151.5q0 119 86 208z" />
    <glyph glyph-name="uogonek" unicode="&#x173;" horiz-adv-x="1081" 
d="M125 1085h141v-739q0 -120 62.5 -180t173.5 -60q196 0 301 168v811h143v-778l12 -307q-170 -74 -170 -211q0 -45 30.5 -73.5t84.5 -28.5q75 0 129 28l39 -106q-65 -41 -182 -41q-104 0 -163.5 49.5t-59.5 151.5q0 89 46 158.5t122 115.5l-17 109q-50 -78 -141 -126.5
t-221 -48.5q-158 0 -244 96t-86 253v759z" />
    <glyph glyph-name="Wcircumflex" unicode="&#x174;" horiz-adv-x="1832" 
d="M1249 -16l-334 1454l-331 -1454h-203l-297 1613h156l249 -1431l328 1431h199l327 -1431l250 1431h156l-297 -1613h-203zM776 1720h-143l217 226h131l217 -226h-143l-140 135z" />
    <glyph glyph-name="wcircumflex" unicode="&#x175;" horiz-adv-x="1468" 
d="M733 926l-248 -926h-188l-234 1085h144l188 -935l252 935h174l252 -935l189 935h143l-234 -1085h-190zM543 1257h-142l269 340h127l268 -340h-141l-191 232z" />
    <glyph glyph-name="Ycircumflex" unicode="&#x176;" horiz-adv-x="1181" 
d="M666 483v-483h-148v483l-475 1114h160l389 -931l387 931h162zM453 1720h-144l217 226h131l217 -226h-143l-139 135z" />
    <glyph glyph-name="ycircumflex" unicode="&#x177;" horiz-adv-x="991" 
d="M510 199l311 886h154l-389 -1044l-154 -451h-166l170 451l-389 1044h154zM319 1257h-141l268 340h127l269 -340h-142l-190 232z" />
    <glyph glyph-name="Ydieresis" unicode="&#x178;" horiz-adv-x="1181" 
d="M666 483v-483h-148v483l-475 1114h160l389 -931l387 931h162zM834 1905v-144h-162v144h162zM512 1905v-144h-162v144h162z" />
    <glyph glyph-name="Zacute" unicode="&#x179;" horiz-adv-x="1153" 
d="M621 1946h151l-127 -226h-147zM82 102l786 1368l-258 -6h-508v133h949v-102l-787 -1368l258 6h549v-133h-989v102z" />
    <glyph glyph-name="zacute" unicode="&#x17a;" horiz-adv-x="948" 
d="M582 1597h155l-192 -340h-148zM74 98l596 860l-242 -2h-334v129h760v-98l-598 -860l242 2h376v-129h-800v98z" />
    <glyph glyph-name="Zdotaccent" unicode="&#x17b;" horiz-adv-x="1153" 
d="M653 1905v-144h-164v144h164zM82 102l786 1368l-258 -6h-508v133h949v-102l-787 -1368l258 6h549v-133h-989v102z" />
    <glyph glyph-name="zdotaccent" unicode="&#x17c;" horiz-adv-x="948" 
d="M561 1526v-180h-180v180h180zM74 98l596 860l-242 -2h-334v129h760v-98l-598 -860l242 2h376v-129h-800v98z" />
    <glyph glyph-name="Zcaron" unicode="&#x17d;" horiz-adv-x="1153" 
d="M289 1946h143l139 -138l140 138h143l-217 -226h-131zM82 102l786 1368l-258 -6h-508v133h949v-102l-787 -1368l258 6h549v-133h-989v102z" />
    <glyph glyph-name="zcaron" unicode="&#x17e;" horiz-adv-x="948" 
d="M139 1597h142l190 -233l191 233h141l-268 -340h-127zM74 98l596 860l-242 -2h-334v129h760v-98l-598 -860l242 2h376v-129h-800v98z" />
    <glyph glyph-name="Scommaaccent" unicode="&#x218;" horiz-adv-x="1230" 
d="M590 758q-477 64 -477 413v21q0 198 136 313t365 115q261 0 382.5 -130t121.5 -384v-49h-147q0 227 -83 328.5t-267 101.5h-15q-149 0 -245.5 -75t-96.5 -202v-16q0 -89 33.5 -148t118.5 -101t229 -62q257 -35 374.5 -141t117.5 -293v-21q0 -211 -141 -331t-382 -120
q-252 0 -386 137t-134 386v20h148q0 -204 99 -306.5t267 -102.5h15q165 0 263.5 81.5t98.5 225.5v18q0 141 -93 217t-302 105zM698 -115v-102q0 -105 -56.5 -163t-158.5 -58v73q121 0 138 111h-91v139h168z" />
    <glyph glyph-name="scommaaccent" unicode="&#x219;" horiz-adv-x="1069" 
d="M535 98q130 0 200 53.5t70 145.5q0 106 -65.5 146.5t-231.5 54.5q-143 12 -227.5 50.5t-117 95.5t-32.5 142v13q0 142 107.5 225.5t296.5 83.5q212 0 308.5 -97t96.5 -268v-8h-141q0 125 -59.5 188.5t-204.5 63.5q-124 0 -192.5 -49t-68.5 -139q0 -60 22.5 -97t87 -62
t179.5 -34q208 -18 298.5 -85t90.5 -214v-10q0 -144 -110 -232t-307 -88q-110 0 -194 30.5t-131 81.5t-70 110t-23 125v8h143q0 -48 13.5 -87.5t43 -73.5t85.5 -53.5t133 -19.5zM618 -115v-102q0 -105 -56.5 -163t-158.5 -58v73q121 0 138 111h-90v139h167z" />
    <glyph glyph-name="Ymacron" unicode="&#x232;" horiz-adv-x="1181" 
d="M666 483v-483h-148v483l-475 1114h160l389 -931l387 931h162zM360 1778v110h463v-110h-463z" />
    <glyph glyph-name="ymacron" unicode="&#x233;" horiz-adv-x="991" 
d="M510 199l311 886h154l-389 -1044l-154 -451h-166l170 451l-389 1044h154zM270 1360v135h480v-135h-480z" />
    <glyph glyph-name="dotlessj" unicode="&#x237;" horiz-adv-x="442" 
d="M150 -90v1175h143v-1194q0 -168 -85 -245.5t-233 -77.5q-92 0 -151 22v125q40 -18 117 -18q109 0 159 45t50 168z" />
    <glyph glyph-name="circumflex" unicode="&#x2c6;" horiz-adv-x="1024" 
d="M322 1257h-142l269 340h126l269 -340h-142l-190 232z" />
    <glyph glyph-name="caron" unicode="&#x2c7;" horiz-adv-x="1024" 
d="M180 1597h142l190 -233l190 233h142l-269 -340h-126z" />
    <glyph glyph-name="breve" unicode="&#x2d8;" horiz-adv-x="1024" 
d="M512 1235q-168 0 -250 97.5t-80 264.5h117q0 -241 213 -241t213 241h117q2 -167 -80 -264.5t-250 -97.5z" />
    <glyph glyph-name="dotaccent" unicode="&#x2d9;" horiz-adv-x="1024" 
d="M602 1526v-180h-180v180h180z" />
    <glyph glyph-name="ring" unicode="&#x2da;" horiz-adv-x="1024" 
d="M319 1427q0 79 56.5 136t136.5 57t136.5 -57t56.5 -136t-56.5 -135.5t-136.5 -56.5t-136.5 56.5t-56.5 135.5zM397 1427q0 -47 34 -80.5t81 -33.5t81 33.5t34 80.5t-34 81t-81 34t-81 -34t-34 -81z" />
    <glyph glyph-name="ogonek" unicode="&#x2db;" horiz-adv-x="1232" 
d="M410 -211q0 -46 30 -74t84 -28q75 0 129 28l39 -106q-65 -41 -182 -41q-104 0 -163.5 49.5t-59.5 151.5q0 114 74.5 195.5t183.5 121.5l35 -86q-170 -74 -170 -211z" />
    <glyph glyph-name="tilde" unicode="&#x2dc;" horiz-adv-x="1024" 
d="M719 1528h112q0 -105 -44.5 -158t-120.5 -53q-43 0 -87 17t-73.5 38t-64.5 38t-62 17q-74 0 -74 -88h-112q0 105 44.5 158t120.5 53q43 0 87 -17t73.5 -38t64.5 -38t62 -17q74 0 74 88z" />
    <glyph glyph-name="hungarumlaut" unicode="&#x2dd;" horiz-adv-x="1024" 
d="M758 1597h139l-195 -340h-129zM494 1597h137l-180 -340h-129z" />
    <glyph glyph-name="Bdotaccent" unicode="&#x1e02;" horiz-adv-x="1200" 
d="M152 1597h405q103 0 188.5 -22.5t153 -68.5t105.5 -125t38 -185v-41q0 -246 -237 -330q278 -84 278 -362v-41q0 -110 -39 -193t-108 -132t-155.5 -73t-190.5 -24h-438v1597zM600 754h-301v-621h301q146 0 239 73.5t93 221.5v31q0 148 -93 221.5t-239 73.5zM563 1464h-264
v-577h264q146 0 237 66t91 206v33q0 140 -91 206t-237 66zM643 1905v-144h-164v144h164z" />
    <glyph glyph-name="bdotaccent" unicode="&#x1e03;" horiz-adv-x="1099" 
d="M279 1638v-677q102 147 307 147q108 0 189.5 -41.5t130 -116.5t72 -171t23.5 -212v-49q0 -116 -23.5 -212t-72 -171t-130 -116.5t-189.5 -41.5q-221 0 -324 170l-20 -147h-119l12 307v1331h144zM279 811v-537q100 -168 274 -168q150 0 225.5 109t75.5 303v49
q0 194 -75.5 303t-225.5 109q-174 0 -274 -168zM289 1905v-144h-164v144h164z" />
    <glyph glyph-name="Ddotaccent" unicode="&#x1e0a;" horiz-adv-x="1308" 
d="M1192 758q0 -204 -41.5 -351t-123 -236t-193.5 -130t-261 -41h-421v1597h421q150 0 261.5 -41t193 -129.5t123 -235.5t41.5 -351v-82zM299 133h262q118 0 205 34t149.5 107.5t93.5 194t31 289.5v82q0 331 -120 477.5t-359 146.5h-262v-1331zM680 1905v-144h-164v144h164z
" />
    <glyph glyph-name="ddotaccent" unicode="&#x1e0b;" horiz-adv-x="1105" 
d="M520 1108q201 0 307 -147v677h144v-1331l12 -307h-121l-20 145q-45 -75 -125.5 -121.5t-196.5 -46.5q-108 0 -189.5 41.5t-130 116.5t-72.5 171t-24 212v49q0 116 24 212t72.5 171t130 116.5t189.5 41.5zM827 811q-105 168 -276 168q-150 0 -225.5 -109t-75.5 -303v-49
q0 -194 75.5 -303t225.5 -109q171 0 276 168v537zM981 1905v-144h-164v144h164z" />
    <glyph glyph-name="Fdotaccent" unicode="&#x1e1e;" horiz-adv-x="1050" 
d="M152 1597h858v-133h-711v-583h608v-131h-608v-750h-147v1597zM694 1905v-144h-164v144h164z" />
    <glyph glyph-name="fdotaccent" unicode="&#x1e1f;" horiz-adv-x="757" 
d="M379 1319v-234h305v-129h-305v-956h-143v956h-173v129h173v252q0 169 85 246.5t232 77.5q91 0 152 -23v-125q-13 6 -49 12.5t-68 6.5q-109 0 -159 -45t-50 -168zM575 1905v-144h-163v144h163z" />
    <glyph glyph-name="Mdotaccent" unicode="&#x1e40;" horiz-adv-x="1644" 
d="M1354 1341l-465 -1341h-133l-465 1341l8 -356v-985h-147v1597h206l465 -1343l465 1343h207v-1597h-147v985zM905 1905v-144h-164v144h164z" />
    <glyph glyph-name="mdotaccent" unicode="&#x1e41;" horiz-adv-x="1648" 
d="M1524 0h-144v766q0 117 -54.5 165t-154.5 48q-54 0 -99 -15t-77.5 -42t-52.5 -51t-41 -56v-815h-143v766q0 117 -54.5 165t-154.5 48q-54 0 -99 -15t-77.5 -42t-52.5 -51t-41 -56v-815h-144v778l-12 307h119l20 -147q49 76 133 123t203 47q107 0 178.5 -46t102.5 -134
q47 81 132.5 130.5t209.5 49.5q146 0 224.5 -84t78.5 -238v-786zM920 1526v-180h-181v180h181z" />
    <glyph glyph-name="Pdotaccent" unicode="&#x1e56;" horiz-adv-x="1173" 
d="M299 649v-649h-147v1597h442q74 0 139 -11.5t131 -42.5t113 -80.5t76.5 -131t29.5 -188.5v-41q0 -106 -29.5 -187.5t-76.5 -131t-113 -80.5t-131 -42.5t-139 -11.5h-295zM299 782h299q46 0 88 7t88.5 29t80 56.5t55.5 94.5t22 139v31q0 79 -22 139t-55.5 94.5t-80 56
t-88.5 28.5t-88 7h-299v-682zM670 1905v-144h-164v144h164z" />
    <glyph glyph-name="pdotaccent" unicode="&#x1e57;" horiz-adv-x="1099" 
d="M586 -23q-206 0 -307 146v-533h-144v1188l-12 307h119l20 -147q105 170 324 170q108 0 189.5 -41.5t130 -116.5t72 -171t23.5 -212v-49q0 -116 -23.5 -212t-72 -171t-130 -116.5t-189.5 -41.5zM279 811v-537q100 -168 274 -168q150 0 225.5 109t75.5 303v49
q0 194 -75.5 303t-225.5 109q-174 0 -274 -168zM649 1526v-180h-180v180h180z" />
    <glyph glyph-name="Tdotaccent" unicode="&#x1e6a;" horiz-adv-x="1054" 
d="M600 1464v-1464h-147v1464h-406v133h961v-133h-408zM608 1905v-144h-164v144h164z" />
    <glyph glyph-name="tdotaccent" unicode="&#x1e6b;" horiz-adv-x="819" 
d="M379 1085h346v-129h-346v-637q0 -123 50 -168t159 -45q32 0 68 6.5t49 12.5v-125q-61 -23 -152 -23q-147 0 -232 77.5t-85 246.5v655h-173v129h173v308h143v-308zM389 1659v-143h-164v143h164z" />
    <glyph glyph-name="Wgrave" unicode="&#x1e80;" horiz-adv-x="1832" 
d="M1249 -16l-334 1454l-331 -1454h-203l-297 1613h156l249 -1431l328 1431h199l327 -1431l250 1431h156l-297 -1613h-203zM715 1946h151l123 -226h-147z" />
    <glyph glyph-name="wgrave" unicode="&#x1e81;" horiz-adv-x="1468" 
d="M733 926l-248 -926h-188l-234 1085h144l188 -935l252 935h174l252 -935l189 935h143l-234 -1085h-190zM467 1597h156l184 -340h-148z" />
    <glyph glyph-name="Wacute" unicode="&#x1e82;" horiz-adv-x="1832" 
d="M1249 -16l-334 1454l-331 -1454h-203l-297 1613h156l249 -1431l328 1431h199l327 -1431l250 1431h156l-297 -1613h-203zM965 1946h151l-127 -226h-147z" />
    <glyph glyph-name="wacute" unicode="&#x1e83;" horiz-adv-x="1468" 
d="M733 926l-248 -926h-188l-234 1085h144l188 -935l252 935h174l252 -935l189 935h143l-234 -1085h-190zM844 1597h155l-192 -340h-148z" />
    <glyph glyph-name="Wdieresis" unicode="&#x1e84;" horiz-adv-x="1832" 
d="M1249 -16l-334 1454l-331 -1454h-203l-297 1613h156l249 -1431l328 1431h199l327 -1431l250 1431h156l-297 -1613h-203zM836 1905v-144h-162v144h162zM1157 1905v-144h-162v144h162z" />
    <glyph glyph-name="wdieresis" unicode="&#x1e85;" horiz-adv-x="1468" 
d="M733 926l-248 -926h-188l-234 1085h144l188 -935l252 935h174l252 -935l189 935h143l-234 -1085h-190zM651 1526v-180h-178v180h178zM993 1526v-180h-178v180h178z" />
    <glyph glyph-name="Eszett" unicode="&#x1e9e;" horiz-adv-x="1550" 
d="M627 901l325 555q-89 31 -223 31q-101 0 -178 -19.5t-138 -64t-92.5 -122.5t-31.5 -189v-1092h-148v1102q0 141 41.5 242.5t121 161t184 87t241.5 27.5q232 0 379 -82v-102l-307 -527l186 -22q490 -63 490 -438v-21q0 -211 -127.5 -331t-348.5 -120q-477 0 -477 523v20
h148q0 -213 87 -311t236 -98h15q144 0 229.5 80.5t85.5 226.5v18q0 273 -383 324l-315 39v102z" />
    <glyph glyph-name="Ygrave" unicode="&#x1ef2;" horiz-adv-x="1181" 
d="M666 483v-483h-148v483l-475 1114h160l389 -931l387 931h162zM391 1946h152l123 -226h-148z" />
    <glyph glyph-name="ygrave" unicode="&#x1ef3;" horiz-adv-x="991" 
d="M510 199l311 886h154l-389 -1044l-154 -451h-166l170 451l-389 1044h154zM244 1597h155l185 -340h-148z" />
    <glyph glyph-name="enspace" unicode="&#x2002;" horiz-adv-x="1024" 
 />
    <glyph glyph-name="emspace" unicode="&#x2003;" horiz-adv-x="2048" 
 />
    <glyph glyph-name="threeperemspace" unicode="&#x2004;" horiz-adv-x="681" 
 />
    <glyph glyph-name="fourperemspace" unicode="&#x2005;" horiz-adv-x="512" 
 />
    <glyph glyph-name="sixperemspace" unicode="&#x2006;" horiz-adv-x="342" 
 />
    <glyph glyph-name="figurespace" unicode="&#x2007;" horiz-adv-x="1228" 
 />
    <glyph glyph-name="punctuationspace" unicode="&#x2008;" horiz-adv-x="368" 
 />
    <glyph glyph-name="thinspace" unicode="&#x2009;" horiz-adv-x="307" 
 />
    <glyph glyph-name="hairspace" unicode="&#x200a;" horiz-adv-x="102" 
 />
    <glyph glyph-name="zerowidthspace" unicode="&#x200b;" horiz-adv-x="0" 
 />
    <glyph glyph-name="figuredash" unicode="&#x2012;" horiz-adv-x="1228" 
d="M82 651v131h1065v-131h-1065z" />
    <glyph glyph-name="endash" unicode="&#x2013;" horiz-adv-x="1024" 
d="M82 651v131h860v-131h-860z" />
    <glyph glyph-name="emdash" unicode="&#x2014;" horiz-adv-x="2048" 
d="M82 651v131h1884v-131h-1884z" />
    <glyph glyph-name="uni2015" unicode="&#x2015;" horiz-adv-x="2457" 
d="M82 651v131h2294v-131h-2294z" />
    <glyph glyph-name="doublebar" unicode="&#x2016;" horiz-adv-x="669" 
d="M135 -246v1966h144v-1966h-144zM391 -246v1966h144v-1966h-144z" />
    <glyph glyph-name="quoteleft" unicode="&#x2018;" horiz-adv-x="442" 
d="M129 1200v148q0 278 231 278v-86q-67 0 -103 -35.5t-42 -120.5h98v-184h-184z" />
    <glyph glyph-name="quoteright" unicode="&#x2019;" horiz-adv-x="442" 
d="M313 1597v-147q0 -279 -231 -279v86q66 0 101.5 36t41.5 120h-96v184h184z" />
    <glyph glyph-name="quotesinglbase" unicode="&#x201a;" horiz-adv-x="442" 
d="M313 184v-147q0 -279 -231 -279v86q66 0 101.5 36t41.5 120h-96v184h184z" />
    <glyph glyph-name="reversequoteleft" unicode="&#x201b;" horiz-adv-x="442" 
d="M129 1597h184v-184h-98q6 -85 42 -120.5t103 -35.5v-86q-231 0 -231 279v147z" />
    <glyph glyph-name="quotedblleft" unicode="&#x201c;" horiz-adv-x="741" 
d="M428 1200v148q0 278 231 278v-86q-67 0 -103 -35.5t-42 -120.5h98v-184h-184zM129 1200v148q0 278 231 278v-86q-67 0 -103 -35.5t-42 -120.5h98v-184h-184z" />
    <glyph glyph-name="quotedblright" unicode="&#x201d;" horiz-adv-x="741" 
d="M313 1597v-147q0 -279 -231 -279v86q66 0 101.5 36t41.5 120h-96v184h184zM612 1597v-147q0 -279 -231 -279v86q66 0 101.5 36t41.5 120h-96v184h184z" />
    <glyph glyph-name="quotedblbase" unicode="&#x201e;" horiz-adv-x="741" 
d="M313 184v-147q0 -279 -231 -279v86q66 0 101.5 36t41.5 120h-96v184h184zM612 184v-147q0 -279 -231 -279v86q66 0 101.5 36t41.5 120h-96v184h184z" />
    <glyph glyph-name="reversequotedblleft" unicode="&#x201f;" horiz-adv-x="741" 
d="M428 1597h184v-184h-98q6 -85 42 -120.5t103 -35.5v-86q-231 0 -231 279v147zM129 1597h184v-184h-98q6 -85 42 -120.5t103 -35.5v-86q-231 0 -231 279v147z" />
    <glyph glyph-name="dagger" unicode="&#x2020;" horiz-adv-x="796" 
d="M344 938l10 258h88l11 -258l-11 -260h-88zM344 1638h109l-11 -299h-88zM43 1214v107l283 -10v-86zM752 1321v-107l-281 11v86z" />
    <glyph glyph-name="daggerdbl" unicode="&#x2021;" horiz-adv-x="796" 
d="M344 494l10 258h88l11 -258l-11 -258h-88zM344 1638h109l-11 -299h-88zM344 1047l10 149h88l11 -149l-11 -150h-88zM43 770v109l283 -11v-88zM752 879v-109l-281 10v88zM43 1214v107l283 -10v-86zM752 1321v-107l-281 11v86z" />
    <glyph glyph-name="bullet" unicode="&#x2022;" horiz-adv-x="813" 
d="M674 985v-536h-535v536h535z" />
    <glyph glyph-name="ellipsis" unicode="&#x2026;" horiz-adv-x="2048" 
d="M457 184v-184h-185v184h185zM1116 184v-184h-184v184h184zM1776 184v-184h-185v184h185z" />
    <glyph glyph-name="perthousand" unicode="&#x2030;" horiz-adv-x="2705" 
d="M680 0h-137l598 1440q-124 -31 -234 -31q-96 0 -170 14q29 -69 29 -153v-23q0 -167 -97.5 -258.5t-246.5 -91.5t-246.5 91.5t-97.5 258.5v23q0 167 97.5 258.5t246.5 91.5q68 0 135 -23q164 -63 367 -63q98 0 216 22t165 43v-96zM1122 350q0 167 97 258.5t245 91.5
q149 0 246.5 -91.5t97.5 -258.5v-22q0 -167 -97.5 -259t-246.5 -92q-148 0 -245 92t-97 259v22zM1942 350q0 167 97 258.5t245 91.5q149 0 246.5 -91.5t97.5 -258.5v-22q0 -167 -97.5 -259t-246.5 -92q-148 0 -245 92t-97 259v22zM645 1276q0 105 -62 164t-155 59h-12
q-93 0 -155 -59t-62 -164v-35q0 -105 62 -164t155 -59h12q93 0 155 59t62 164v35zM2062 322q0 -105 61 -164.5t154 -59.5h13q94 0 155.5 59.5t61.5 164.5v34q0 105 -61.5 164.5t-155.5 59.5h-13q-93 0 -154 -59.5t-61 -164.5v-34zM1243 322q0 -105 61 -164.5t154 -59.5h12
q94 0 156 59.5t62 164.5v34q0 105 -62 164.5t-156 59.5h-12q-93 0 -154 -59.5t-61 -164.5v-34z" />
    <glyph glyph-name="tripleprime" unicode="&#x2034;" horiz-adv-x="942" 
d="M647 1597h154l-31 -550h-102zM141 1597h154l-23 -550h-100zM399 1597h144l-21 -550h-102z" />
    <glyph glyph-name="guilsinglleft" unicode="&#x2039;" horiz-adv-x="622" 
d="M520 1073v-143l-305 -234l305 -233v-144l-418 314v127z" />
    <glyph glyph-name="guilsinglright" unicode="&#x203a;" horiz-adv-x="622" 
d="M102 930v143l418 -313v-127l-418 -314v144l306 233z" />
    <glyph glyph-name="interrobang" unicode="&#x203d;" horiz-adv-x="931" 
d="M512 387h-88l-35 1090q-105 -31 -147.5 -142t-42.5 -303h-146v25q0 101 11.5 181.5t40.5 153.5t75.5 122t120.5 77.5t172 28.5q207 0 304 -112t97 -314q0 -83 -19 -151t-50 -116t-69 -91.5l-76 -87t-70 -92t-53.5 -117.5t-24.5 -152zM725 1180q0 134 -42 209.5t-146 93.5
l-25 -756q25 47 68.5 111.5t71.5 107.5t50.5 106t22.5 128zM555 184v-184h-184v184h184z" />
    <glyph glyph-name="fraction" unicode="&#x2044;" horiz-adv-x="409" 
d="M-319 0h-132l1180 1597h131z" />
    <glyph glyph-name="uni2070" unicode="&#x2070;" 
d="M561 1026q0 -109 -64 -175.5t-190 -66.5t-190 66.5t-64 175.5v344q0 108 64.5 174t189.5 66t189.5 -66t64.5 -174v-344zM438 1364q0 137 -129 137h-6q-127 0 -127 -137v-334q0 -137 127 -137h6q129 0 129 137v334z" />
    <glyph glyph-name="uni2074" unicode="&#x2074;" 
d="M477 799h-123v190h-325v84l329 524h119v-499h107v-109h-107v-190zM356 1399l-192 -303l69 2h121v221z" />
    <glyph glyph-name="uni2075" unicode="&#x2075;" 
d="M45 1055h123q0 -162 133 -162h10q57 0 96 37t39 110v17q0 74 -39.5 110.5t-101.5 36.5h-6q-45 0 -85 -22t-58 -62l-105 35l19 442h487v-108h-379l-10 -215q66 37 145 37q118 0 186 -67.5t68 -186.5v-17q0 -120 -69 -188t-191 -68q-130 0 -196 67t-66 189v15z" />
    <glyph glyph-name="uni2076" unicode="&#x2076;" 
d="M532 1610v-109q-187 0 -276 -119q-47 -56 -66 -133q61 51 150 51q104 0 167.5 -65.5t63.5 -185.5v-11q0 -121 -68.5 -187.5t-193.5 -66.5q-121 0 -191.5 78.5t-70.5 210.5v12q0 215 113 367q117 158 372 158zM311 1194q-45 0 -83 -23.5t-58 -64.5v-41q0 -80 38.5 -126
t96.5 -46h6q62 0 100 38t38 105v19q0 67 -36 103t-96 36h-6z" />
    <glyph glyph-name="uni2077" unicode="&#x2077;" 
d="M47 1311v286h524v-75l-295 -723h-129l285 692l-104 -2h-172v-178h-109z" />
    <glyph glyph-name="uni2078" unicode="&#x2078;" 
d="M307 784q-124 0 -193 66.5t-69 157.5v18q0 125 111 180q-105 50 -105 174v19q0 89 64.5 150t191.5 61t191.5 -61t64.5 -150v-19q0 -124 -106 -174q110 -54 110 -180v-18q0 -91 -69 -157.5t-191 -66.5zM297 1153q-58 0 -93.5 -32t-35.5 -91v-12q0 -61 38 -93t95 -32h10
q57 0 96 32t39 93v12q0 59 -35.5 91t-93.5 32h-20zM311 1501h-10q-58 0 -93.5 -32t-35.5 -85v-10q0 -57 35 -85.5t94 -28.5h12q58 0 92.5 29t34.5 85v10q0 53 -35.5 85t-93.5 32z" />
    <glyph glyph-name="uni2079" unicode="&#x2079;" 
d="M80 784v109q187 3 278 119q43 54 66 135q-64 -51 -152 -51q-104 0 -166.5 65.5t-62.5 184.5v10q0 121 68.5 187.5t193.5 66.5q120 0 190 -78t70 -211v-10q0 -219 -112 -369q-119 -158 -373 -158zM303 1202q44 0 82 22.5t59 63.5v43q0 79 -39 124.5t-98 45.5h-6
q-61 0 -98 -37.5t-37 -103.5v-19q0 -69 35 -104t96 -35h6z" />
    <glyph glyph-name="uni207A" unicode="&#x207a;" 
d="M252 1460h108v-209h209v-108h-209v-207h-108v207h-207v108h207v209z" />
    <glyph glyph-name="uni207B" unicode="&#x207b;" 
d="M45 1143v108h524v-108h-524z" />
    <glyph glyph-name="uni207C" unicode="&#x207c;" 
d="M45 1034v111h524v-111h-524zM45 1251v109h524v-109h-524z" />
    <glyph glyph-name="uni207D" unicode="&#x207d;" horiz-adv-x="350" 
d="M53 1188v20q0 231 123 389h127q-129 -188 -129 -389v-20q0 -201 129 -389h-127q-123 155 -123 389z" />
    <glyph glyph-name="uni207E" unicode="&#x207e;" horiz-adv-x="350" 
d="M297 1208v-20q0 -234 -123 -389h-125q127 192 127 389v20q0 197 -127 389h125q123 -158 123 -389z" />
    <glyph glyph-name="uni2080" unicode="&#x2080;" 
d="M561 227q0 -109 -64 -175t-190 -66t-190 66t-64 175v344q0 108 64.5 174t189.5 66t189.5 -66t64.5 -174v-344zM438 565q0 137 -129 137h-6q-127 0 -127 -137v-334q0 -137 127 -137h6q129 0 129 137v334z" />
    <glyph glyph-name="uni2081" unicode="&#x2081;" 
d="M567 0h-501v106h190v539l-156 -104l-59 90l250 170h88v-695h188v-106z" />
    <glyph glyph-name="uni2082" unicode="&#x2082;" 
d="M563 106v-106h-512v76l324 352q36 38 50.5 67t14.5 66v10q0 62 -35.5 96.5t-95.5 34.5h-6q-65 0 -98 -40t-33 -130h-121v23q0 256 256 256q128 0 192 -62t64 -157v-14q0 -64 -20 -107.5t-72 -99.5l-244 -265h336z" />
    <glyph glyph-name="uni2083" unicode="&#x2083;" 
d="M168 256q0 -162 133 -162h10q57 0 96 32t39 93v14q0 58 -35 89.5t-94 31.5h-112v107h108q58 0 92.5 29t34.5 85v9q0 54 -36 86t-93 32h-10q-65 0 -97 -40t-32 -130h-121v23q0 256 256 256q127 0 191.5 -61t64.5 -152v-16q0 -123 -104 -174q108 -55 108 -181v-18
q0 -91 -69 -157t-191 -66q-130 0 -196 67t-66 189v14h123z" />
    <glyph glyph-name="uni2084" unicode="&#x2084;" 
d="M477 0h-123v190h-325v84l329 525h119v-500h107v-109h-107v-190zM356 600l-192 -303l69 2h121v221z" />
    <glyph glyph-name="uni2085" unicode="&#x2085;" 
d="M45 256h123q0 -162 133 -162h10q57 0 96 37.5t39 110.5v16q0 74 -40 111t-101 37h-6q-45 0 -85 -22t-58 -62l-105 34l19 443h487v-109h-379l-10 -215q66 37 145 37q118 0 186 -67.5t68 -186.5v-16q0 -120 -69 -188t-191 -68q-130 0 -196 67t-66 189v14z" />
    <glyph glyph-name="uni2086" unicode="&#x2086;" 
d="M532 811v-109q-188 0 -276 -118q-47 -56 -66 -133q61 51 150 51q104 0 167.5 -66t63.5 -186v-10q0 -121 -68.5 -187.5t-193.5 -66.5q-121 0 -191.5 78t-70.5 210v13q0 214 113 366q117 158 372 158zM311 395q-45 0 -83 -23.5t-58 -64.5v-41q0 -80 38.5 -126t96.5 -46h6
q61 0 99.5 38t38.5 106v18q0 67 -36 103t-96 36h-6z" />
    <glyph glyph-name="uni2087" unicode="&#x2087;" 
d="M47 512v287h524v-76l-295 -723h-129l285 692l-104 -2h-172v-178h-109z" />
    <glyph glyph-name="uni2088" unicode="&#x2088;" 
d="M307 -14q-124 0 -193 66t-69 157v18q0 126 111 181q-105 50 -105 174v18q0 89 64.5 150t191.5 61t191.5 -61t64.5 -150v-18q0 -124 -106 -174q110 -54 110 -181v-18q0 -91 -69 -157t-191 -66zM297 354q-58 0 -93.5 -32t-35.5 -91v-12q0 -61 38 -93t95 -32h10q57 0 96 32
t39 93v12q0 59 -35.5 91t-93.5 32h-20zM311 702h-10q-58 0 -93.5 -31.5t-35.5 -84.5v-11q0 -57 35 -85.5t94 -28.5h12q58 0 92.5 29t34.5 85v11q0 53 -35.5 84.5t-93.5 31.5z" />
    <glyph glyph-name="uni2089" unicode="&#x2089;" 
d="M80 -14v108q187 3 278 119q43 54 66 135q-64 -51 -152 -51q-104 0 -166.5 65.5t-62.5 184.5v10q0 121 68.5 187.5t193.5 66.5q120 0 190 -78t70 -211v-10q0 -219 -112 -369q-118 -157 -373 -157zM303 403q44 0 82 22.5t59 63.5v43q0 79 -39 124.5t-98 45.5h-6
q-61 0 -98 -37.5t-37 -103.5v-18q0 -69 35.5 -104.5t95.5 -35.5h6z" />
    <glyph glyph-name="uni208A" unicode="&#x208a;" 
d="M252 662h108v-209h209v-109h-209v-207h-108v207h-207v109h207v209z" />
    <glyph glyph-name="uni208B" unicode="&#x208b;" 
d="M45 344v109h524v-109h-524z" />
    <glyph glyph-name="uni208C" unicode="&#x208c;" 
d="M45 236v110h524v-110h-524zM45 453v108h524v-108h-524z" />
    <glyph glyph-name="uni208D" unicode="&#x208d;" horiz-adv-x="350" 
d="M53 389v21q0 231 123 389h127q-129 -188 -129 -389v-21q0 -201 129 -389h-127q-123 155 -123 389z" />
    <glyph glyph-name="uni208E" unicode="&#x208e;" horiz-adv-x="350" 
d="M297 410v-21q0 -234 -123 -389h-125q127 192 127 389v21q0 197 -127 389h125q123 -158 123 -389z" />
    <glyph glyph-name="Euro" unicode="&#x20ac;" horiz-adv-x="1228" 
d="M221 604h-151v133h147v123h-147v133h151q23 327 143 477t343 150q226 0 326 -133.5t100 -405.5v-57h-134q0 248 -65 355.5t-215 107.5h-14q-294 0 -330 -494h545l-66 -133h-485v-123h469l-66 -133h-397q36 -493 330 -493h14q138 0 209 101.5t71 299.5h134v-20
q0 -253 -103 -384t-323 -131q-223 0 -343 150t-143 477z" />
    <glyph glyph-name="ruble" unicode="&#x20bd;" horiz-adv-x="1228" 
d="M375 649v-127h426v-133h-426v-389h-148v389h-180v133h180v127h-180v133h180v815h418q74 0 139.5 -11.5t131.5 -42.5t113 -80.5t76.5 -131t29.5 -188.5v-41q0 -106 -29.5 -187.5t-76.5 -131t-113 -80.5t-131.5 -42.5t-139.5 -11.5h-270zM375 782h274q46 0 88 7t88.5 29
t80 56.5t55.5 94.5t22 139v31q0 79 -22 139t-55.5 94.5t-80 56t-88.5 28.5t-88 7h-274v-682z" />
    <glyph glyph-name="numero" unicode="&#x2116;" horiz-adv-x="2205" 
d="M1198 1597v-1597h-160l-755 1348l8 -371v-977h-139v1597h159l754 -1347l-6 371v976h139zM2124 1178q0 -116 -35 -204.5t-114.5 -143t-196.5 -54.5q-172 0 -259 111.5t-87 290.5v41q0 180 87 290.5t259 110.5q173 0 259.5 -110t86.5 -291v-41zM1563 1178q0 -134 53 -210.5
t162 -76.5t162 76.5t53 210.5v41q0 135 -53 210.5t-162 75.5t-162 -75.5t-53 -210.5v-41zM1448 434v117h661v-117h-661z" />
    <glyph glyph-name="published" unicode="&#x2117;" horiz-adv-x="1884" 
d="M121 799q0 167 65 319t175 262t262 175t319 65t319 -65t262 -175t175 -262t65 -319t-65 -319t-175 -262.5t-262 -175.5t-319 -65t-319 65t-262 175.5t-175 262.5t-65 319zM209 799q0 -200 98 -368.5t266.5 -266.5t368.5 -98t368.5 98t266.5 266.5t98 368.5t-98 368.5
t-266.5 266.5t-368.5 98t-368.5 -98t-266.5 -266.5t-98 -368.5zM754 700v-383h-138v963h373q59 0 108.5 -12.5t95.5 -41.5t72.5 -85.5t26.5 -136.5v-25q0 -81 -26.5 -138t-72.5 -86.5t-95.5 -42t-108.5 -12.5h-235zM754 811h219q34 0 63.5 7t57.5 24.5t44.5 53.5t16.5 87v14
q0 172 -182 172h-219v-358z" />
    <glyph glyph-name="servicemark" unicode="&#x2120;" horiz-adv-x="1071" 
d="M207 1329q-90 12 -127 49t-37 105v8q0 73 47.5 115.5t132.5 42.5q97 0 138.5 -46t41.5 -141v-16h-86q0 68 -19.5 96.5t-72.5 28.5h-4q-44 0 -68 -19.5t-24 -54.5v-6q0 -39 24 -59t87 -27q90 -12 130 -50t40 -108v-8q0 -78 -48.5 -124t-138.5 -46q-93 0 -139.5 50
t-46.5 145v8h86q0 -64 23 -94.5t77 -30.5h4q95 0 95 86v4q0 41 -26 62t-89 30zM883 1503l-113 -418h-96l-113 418l4 -137v-281h-86v553h129l113 -415l113 415h131v-553h-86v281z" />
    <glyph glyph-name="trademark" unicode="&#x2122;" horiz-adv-x="1071" 
d="M268 1561v-476h-86v476h-143v77h373v-77h-144zM883 1503l-113 -418h-96l-113 418l4 -137v-281h-86v553h129l113 -415l113 415h131v-553h-86v281z" />
    <glyph glyph-name="uni2153" unicode="&#x2153;" horiz-adv-x="1638" 
d="M1192 256q0 -162 133 -162h10q57 0 96 32t39 93v14q0 58 -35 89.5t-94 31.5h-112v107h108q58 0 92.5 29t34.5 85v9q0 54 -36 86t-93 32h-10q-65 0 -97 -40t-32 -130h-121v23q0 256 256 256q127 0 191.5 -61t64.5 -152v-16q0 -123 -104 -174q108 -55 108 -181v-18
q0 -91 -69 -157t-191 -66q-130 0 -196 67t-66 189v14h123zM295 0h-131l1179 1597h132zM567 799h-501v106h190v539l-156 -105l-59 91l250 169h88v-694h188v-106z" />
    <glyph glyph-name="uni2154" unicode="&#x2154;" horiz-adv-x="1638" 
d="M1192 256q0 -162 133 -162h10q57 0 96 32t39 93v14q0 58 -35 89.5t-94 31.5h-112v107h108q58 0 92.5 29t34.5 85v9q0 54 -36 86t-93 32h-10q-65 0 -97 -40t-32 -130h-121v23q0 256 256 256q127 0 191.5 -61t64.5 -152v-16q0 -123 -104 -174q108 -55 108 -181v-18
q0 -91 -69 -157t-191 -66q-130 0 -196 67t-66 189v14h123zM295 0h-131l1179 1597h132zM563 905v-106h-512v75l324 353q36 38 50.5 66.5t14.5 66.5v10q0 62 -35.5 96.5t-95.5 34.5h-6q-65 0 -98 -40t-33 -130h-121v23q0 256 256 256q128 0 192 -62t64 -157v-15
q0 -64 -20 -107.5t-72 -99.5l-244 -264h336z" />
    <glyph glyph-name="uni2155" unicode="&#x2155;" horiz-adv-x="1638" 
d="M1069 256h123q0 -162 133 -162h10q57 0 96 37.5t39 110.5v16q0 74 -40 111t-101 37h-6q-45 0 -85 -22t-58 -62l-105 34l19 443h487v-109h-379l-10 -215q66 37 145 37q118 0 186 -67.5t68 -186.5v-16q0 -120 -69 -188t-191 -68q-130 0 -196 67t-66 189v14zM295 0h-131
l1179 1597h132zM567 799h-501v106h190v539l-156 -105l-59 91l250 169h88v-694h188v-106z" />
    <glyph glyph-name="uni2156" unicode="&#x2156;" horiz-adv-x="1638" 
d="M1069 256h123q0 -162 133 -162h10q57 0 96 37.5t39 110.5v16q0 74 -40 111t-101 37h-6q-45 0 -85 -22t-58 -62l-105 34l19 443h487v-109h-379l-10 -215q66 37 145 37q118 0 186 -67.5t68 -186.5v-16q0 -120 -69 -188t-191 -68q-130 0 -196 67t-66 189v14zM295 0h-131
l1179 1597h132zM563 905v-106h-512v75l324 353q36 38 50.5 66.5t14.5 66.5v10q0 62 -35.5 96.5t-95.5 34.5h-6q-65 0 -98 -40t-33 -130h-121v23q0 256 256 256q128 0 192 -62t64 -157v-15q0 -64 -20 -107.5t-72 -99.5l-244 -264h336z" />
    <glyph glyph-name="uni2157" unicode="&#x2157;" horiz-adv-x="1638" 
d="M1069 256h123q0 -162 133 -162h10q57 0 96 37.5t39 110.5v16q0 74 -40 111t-101 37h-6q-45 0 -85 -22t-58 -62l-105 34l19 443h487v-109h-379l-10 -215q66 37 145 37q118 0 186 -67.5t68 -186.5v-16q0 -120 -69 -188t-191 -68q-130 0 -196 67t-66 189v14zM168 1055
q0 -162 133 -162h10q57 0 96 32t39 93v14q0 58 -35 89.5t-94 31.5h-112v107h108q58 0 92.5 29t34.5 85v8q0 54 -36 86.5t-93 32.5h-10q-65 0 -97 -40t-32 -130h-121v23q0 256 256 256q127 0 191.5 -61t64.5 -152v-17q0 -123 -104 -174q108 -55 108 -180v-18
q0 -91 -69 -157.5t-191 -66.5q-130 0 -196 67t-66 189v15h123zM295 0h-131l1179 1597h132z" />
    <glyph glyph-name="uni2158" unicode="&#x2158;" horiz-adv-x="1638" 
d="M1069 256h123q0 -162 133 -162h10q57 0 96 37.5t39 110.5v16q0 74 -40 111t-101 37h-6q-45 0 -85 -22t-58 -62l-105 34l19 443h487v-109h-379l-10 -215q66 37 145 37q118 0 186 -67.5t68 -186.5v-16q0 -120 -69 -188t-191 -68q-130 0 -196 67t-66 189v14zM477 799h-123
v190h-325v84l329 524h119v-499h107v-109h-107v-190zM295 0h-131l1179 1597h132zM356 1399l-192 -303l69 2h121v221z" />
    <glyph glyph-name="uni2159" unicode="&#x2159;" horiz-adv-x="1638" 
d="M1556 811v-109q-188 0 -276 -118q-47 -56 -66 -133q61 51 150 51q104 0 167.5 -66t63.5 -186v-10q0 -121 -68.5 -187.5t-193.5 -66.5q-121 0 -191.5 78t-70.5 210v13q0 214 113 366q117 158 372 158zM295 0h-131l1179 1597h132zM567 799h-501v106h190v539l-156 -105
l-59 91l250 169h88v-694h188v-106zM1335 395q-45 0 -83 -23.5t-58 -64.5v-41q0 -80 38.5 -126t96.5 -46h6q61 0 99.5 38t38.5 106v18q0 67 -36 103t-96 36h-6z" />
    <glyph glyph-name="uni215A" unicode="&#x215a;" horiz-adv-x="1638" 
d="M1556 811v-109q-188 0 -276 -118q-47 -56 -66 -133q61 51 150 51q104 0 167.5 -66t63.5 -186v-10q0 -121 -68.5 -187.5t-193.5 -66.5q-121 0 -191.5 78t-70.5 210v13q0 214 113 366q117 158 372 158zM45 1055h123q0 -162 133 -162h10q57 0 96 37t39 110v17
q0 74 -39.5 110.5t-101.5 36.5h-6q-45 0 -85 -22t-58 -62l-105 35l19 442h487v-108h-379l-10 -215q66 37 145 37q118 0 186 -67.5t68 -186.5v-17q0 -120 -69 -188t-191 -68q-130 0 -196 67t-66 189v15zM295 0h-131l1179 1597h132zM1335 395q-45 0 -83 -23.5t-58 -64.5v-41
q0 -80 38.5 -126t96.5 -46h6q61 0 99.5 38t38.5 106v18q0 67 -36 103t-96 36h-6z" />
    <glyph glyph-name="uni215B" unicode="&#x215b;" horiz-adv-x="1638" 
d="M1331 -14q-124 0 -193 66t-69 157v18q0 126 111 181q-105 50 -105 174v18q0 89 64.5 150t191.5 61t191.5 -61t64.5 -150v-18q0 -124 -106 -174q110 -54 110 -181v-18q0 -91 -69 -157t-191 -66zM295 0h-131l1179 1597h132zM567 799h-501v106h190v539l-156 -105l-59 91
l250 169h88v-694h188v-106zM1321 354q-58 0 -93.5 -32t-35.5 -91v-12q0 -61 38 -93t95 -32h10q57 0 96 32t39 93v12q0 59 -35.5 91t-93.5 32h-20zM1335 702h-10q-58 0 -93.5 -31.5t-35.5 -84.5v-11q0 -57 35 -85.5t94 -28.5h12q58 0 92.5 29t34.5 85v11q0 53 -35.5 84.5
t-93.5 31.5z" />
    <glyph glyph-name="uni215C" unicode="&#x215c;" horiz-adv-x="1638" 
d="M1331 -14q-124 0 -193 66t-69 157v18q0 126 111 181q-105 50 -105 174v18q0 89 64.5 150t191.5 61t191.5 -61t64.5 -150v-18q0 -124 -106 -174q110 -54 110 -181v-18q0 -91 -69 -157t-191 -66zM168 1055q0 -162 133 -162h10q57 0 96 32t39 93v14q0 58 -35 89.5t-94 31.5
h-112v107h108q58 0 92.5 29t34.5 85v8q0 54 -36 86.5t-93 32.5h-10q-65 0 -97 -40t-32 -130h-121v23q0 256 256 256q127 0 191.5 -61t64.5 -152v-17q0 -123 -104 -174q108 -55 108 -180v-18q0 -91 -69 -157.5t-191 -66.5q-130 0 -196 67t-66 189v15h123zM295 0h-131
l1179 1597h132zM1321 354q-58 0 -93.5 -32t-35.5 -91v-12q0 -61 38 -93t95 -32h10q57 0 96 32t39 93v12q0 59 -35.5 91t-93.5 32h-20zM1335 702h-10q-58 0 -93.5 -31.5t-35.5 -84.5v-11q0 -57 35 -85.5t94 -28.5h12q58 0 92.5 29t34.5 85v11q0 53 -35.5 84.5t-93.5 31.5z
" />
    <glyph glyph-name="uni215D" unicode="&#x215d;" horiz-adv-x="1638" 
d="M1331 -14q-124 0 -193 66t-69 157v18q0 126 111 181q-105 50 -105 174v18q0 89 64.5 150t191.5 61t191.5 -61t64.5 -150v-18q0 -124 -106 -174q110 -54 110 -181v-18q0 -91 -69 -157t-191 -66zM45 1055h123q0 -162 133 -162h10q57 0 96 37t39 110v17q0 74 -39.5 110.5
t-101.5 36.5h-6q-45 0 -85 -22t-58 -62l-105 35l19 442h487v-108h-379l-10 -215q66 37 145 37q118 0 186 -67.5t68 -186.5v-17q0 -120 -69 -188t-191 -68q-130 0 -196 67t-66 189v15zM295 0h-131l1179 1597h132zM1321 354q-58 0 -93.5 -32t-35.5 -91v-12q0 -61 38 -93
t95 -32h10q57 0 96 32t39 93v12q0 59 -35.5 91t-93.5 32h-20zM1335 702h-10q-58 0 -93.5 -31.5t-35.5 -84.5v-11q0 -57 35 -85.5t94 -28.5h12q58 0 92.5 29t34.5 85v11q0 53 -35.5 84.5t-93.5 31.5z" />
    <glyph glyph-name="uni215E" unicode="&#x215e;" horiz-adv-x="1638" 
d="M1331 -14q-124 0 -193 66t-69 157v18q0 126 111 181q-105 50 -105 174v18q0 89 64.5 150t191.5 61t191.5 -61t64.5 -150v-18q0 -124 -106 -174q110 -54 110 -181v-18q0 -91 -69 -157t-191 -66zM295 0h-131l1179 1597h132zM47 1311v286h524v-75l-295 -723h-129l285 692
l-104 -2h-172v-178h-109zM1321 354q-58 0 -93.5 -32t-35.5 -91v-12q0 -61 38 -93t95 -32h10q57 0 96 32t39 93v12q0 59 -35.5 91t-93.5 32h-20zM1335 702h-10q-58 0 -93.5 -31.5t-35.5 -84.5v-11q0 -57 35 -85.5t94 -28.5h12q58 0 92.5 29t34.5 85v11q0 53 -35.5 84.5
t-93.5 31.5z" />
    <glyph glyph-name="uni215F" unicode="&#x215f;" horiz-adv-x="1024" 
d="M295 0h-131l1179 1597h132zM567 799h-501v106h190v539l-156 -105l-59 91l250 169h88v-694h188v-106z" />
    <glyph glyph-name="arrowleft" unicode="&#x2190;" horiz-adv-x="1884" 
d="M920 1597h190l-731 -731h1362v-135h-1362l731 -731h-190l-799 799z" />
    <glyph glyph-name="arrowup" unicode="&#x2191;" horiz-adv-x="1884" 
d="M143 631v190l799 799l799 -799v-190l-731 731v-1362h-136v1362z" />
    <glyph glyph-name="arrowright" unicode="&#x2192;" horiz-adv-x="1884" 
d="M774 1597h191l798 -798l-798 -799h-191l731 731h-1362v135h1362z" />
    <glyph glyph-name="arrowdown" unicode="&#x2193;" horiz-adv-x="1884" 
d="M143 776v191l731 -731v1361h136v-1361l731 731v-191l-799 -799z" />
    <glyph glyph-name="uni2196" unicode="&#x2196;" horiz-adv-x="1884" 
d="M279 0h-136v1597h1598v-135h-1366l1388 -1388l-96 -97l-1388 1389v-1366z" />
    <glyph glyph-name="uni2197" unicode="&#x2197;" horiz-adv-x="1884" 
d="M1741 0h-135v1366l-1389 -1389l-96 97l1388 1388h-1366v135h1598v-1597z" />
    <glyph glyph-name="uni2198" unicode="&#x2198;" horiz-adv-x="1884" 
d="M143 0v135h1366l-1388 1389l96 96l1389 -1389v1366h135v-1597h-1598z" />
    <glyph glyph-name="uni2199" unicode="&#x2199;" horiz-adv-x="1884" 
d="M1741 135v-135h-1598v1597h136v-1366l1388 1389l96 -96l-1388 -1389h1366z" />
    <glyph glyph-name="minus" unicode="&#x2212;" horiz-adv-x="1228" 
d="M98 731v135h1032v-135h-1032z" />
    <glyph glyph-name="approxequal" unicode="&#x2248;" horiz-adv-x="1228" 
d="M362 715q73 0 145.5 -23t122 -50t115 -50t125.5 -23t112.5 35t88.5 80l82 -82q-116 -156 -287 -156q-73 0 -145.5 23t-122 50t-115 50t-125.5 23t-112 -35t-88 -80l-82 82q112 156 286 156zM362 1133q73 0 145.5 -23t122 -50t115 -50t125.5 -23q106 0 201 115l82 -82
q-116 -156 -287 -156q-73 0 -145.5 23t-122 50t-115 50t-125.5 23t-112 -35t-88 -80l-82 82q112 156 286 156z" />
    <glyph glyph-name="notequal" unicode="&#x2260;" horiz-adv-x="1228" 
d="M98 940v135h615l145 254h123l-147 -254h296v-135h-374l-162 -283h536v-135h-614l-145 -254h-123l145 254h-295v135h373l164 283h-537z" />
    <glyph glyph-name="equivalence" unicode="&#x2261;" horiz-adv-x="1228" 
d="M98 1149v135h1032v-135h-1032zM98 313v136h1032v-136h-1032zM98 731v135h1032v-135h-1032z" />
    <glyph glyph-name="lessequal" unicode="&#x2264;" horiz-adv-x="1228" 
d="M1130 1219l-843 -283l843 -281v-145l-1032 356v144l1032 356v-147zM1130 344v-113l-1032 357v112z" />
    <glyph glyph-name="greaterequal" unicode="&#x2265;" horiz-adv-x="1228" 
d="M98 655l842 281l-842 283v147l1032 -356v-144l-1032 -356v145zM98 231v113l1032 356v-112z" />
    <glyph glyph-name="squaremultiply" unicode="&#x22a0;" horiz-adv-x="1884" 
d="M1741 0h-1598v1597h1598v-1597zM1610 1466h-1336v-1335h1336v1335zM524 283l-98 98l418 418l-418 418l98 98l418 -418l418 418l98 -98l-418 -418l418 -418l-98 -98l-418 417z" />
    <glyph glyph-name="house" unicode="&#x2302;" horiz-adv-x="1740" 
d="M1597 0h-1454v922l727 696l727 -696v-922z" />
    <glyph glyph-name="blacksquare" unicode="&#x25a0;" horiz-adv-x="1884" 
d="M1741 0h-1598v1597h1598v-1597z" />
    <glyph glyph-name="blacksquare" unicode="&#xe740;" horiz-adv-x="1884" 
d="M1741 0h-1598v1597h1598v-1597z" />
    <glyph glyph-name="whitesquare" unicode="&#x25a1;" horiz-adv-x="1884" 
d="M1741 0h-1598v1597h1598v-1597zM1610 1466h-1336v-1335h1336v1335z" />
    <glyph glyph-name="blacksmallsquare" unicode="&#x25aa;" horiz-adv-x="1392" 
d="M1229 0h-1086v1085h1086v-1085z" />
    <glyph glyph-name="whitesmallsquare" unicode="&#x25ab;" horiz-adv-x="1392" 
d="M143 1085h1086v-1085h-1086v1085zM1098 954h-824v-823h824v823z" />
    <glyph glyph-name="triagup" unicode="&#x25b2;" horiz-adv-x="1904" 
d="M1024 1620l750 -1620h-148l-674 1466l-673 -1466h-148l750 1620h143z" />
    <glyph glyph-name="triagrt" unicode="&#x25ba;" horiz-adv-x="1904" 
d="M1784 870v-143l-1620 -750v148l1466 674l-1466 674v147z" />
    <glyph glyph-name="triagdn" unicode="&#x25bc;" horiz-adv-x="1904" 
d="M881 -23l-750 1620h148l673 -1466l674 1466h148l-750 -1620h-143z" />
    <glyph glyph-name="triaglf" unicode="&#x25c4;" horiz-adv-x="1904" 
d="M121 870l1620 750v-147l-1467 -674l1467 -674v-148l-1620 750v143z" />
    <glyph glyph-name="whitecircle" unicode="&#x25cb;" horiz-adv-x="1884" 
d="M121 799q0 167 65 319t175 262t262 175t319 65t319 -65t262 -175t175 -262t65 -319t-65 -319t-175 -262.5t-262 -175.5t-319 -65t-319 65t-262 175.5t-175 262.5t-65 319zM254 799q0 -187 92 -345.5t250.5 -250.5t345.5 -92t345.5 92t250.5 250.5t92 345.5t-92 345.5
t-250.5 250.5t-345.5 92t-345.5 -92t-250.5 -250.5t-92 -345.5z" />
    <glyph glyph-name="whitecircle" unicode="&#x25ef;" horiz-adv-x="1884" 
d="M121 799q0 167 65 319t175 262t262 175t319 65t319 -65t262 -175t175 -262t65 -319t-65 -319t-175 -262.5t-262 -175.5t-319 -65t-319 65t-262 175.5t-175 262.5t-65 319zM254 799q0 -187 92 -345.5t250.5 -250.5t345.5 -92t345.5 92t250.5 250.5t92 345.5t-92 345.5
t-250.5 250.5t-345.5 92t-345.5 -92t-250.5 -250.5t-92 -345.5z" />
    <glyph glyph-name="blackcircle" unicode="&#x25cf;" horiz-adv-x="1884" 
d="M121 799q0 167 65 319t175 262t262 175t319 65t319 -65t262 -175t175 -262t65 -319t-65 -319t-175 -262.5t-262 -175.5t-319 -65t-319 65t-262 175.5t-175 262.5t-65 319z" />
    <glyph glyph-name="uni25E2" unicode="&#x25e2;" horiz-adv-x="1904" 
d="M1792 49l-100 -100l-1676 614l105 105l1513 -562l-561 1514l105 104z" />
    <glyph glyph-name="uni25E3" unicode="&#x25e3;" horiz-adv-x="1904" 
d="M113 49l614 1675l104 -104l-561 -1514l1514 562l104 -105l-1675 -614z" />
    <glyph glyph-name="uni25E4" unicode="&#x25e4;" horiz-adv-x="1904" 
d="M113 1548l49 51l51 50l1675 -615l-104 -104l-1514 559l561 -1512l-104 -104z" />
    <glyph glyph-name="uni25E5" unicode="&#x25e5;" horiz-adv-x="1904" 
d="M1743 1599l49 -51l-614 -1675l-105 104l559 1512l-1511 -559l-105 104l1676 615z" />
    <glyph glyph-name="uni2605" unicode="&#x2605;" horiz-adv-x="1802" 
d="M901 369l-532 -389l202 628l-532 387h659l203 627l203 -627h659l-532 -387l203 -628z" />
    <glyph glyph-name="ballotboxwithx" unicode="&#x2612;" horiz-adv-x="1392" 
d="M1229 0h-1086v1085h1086v-1085zM1098 954h-824v-823h824v823zM524 283l-98 98l162 162l-162 162l98 98l162 -162l162 162l98 -98l-162 -162l162 -162l-98 -98l-162 161z" />
    <glyph glyph-name="uni263C" unicode="&#x263c;" horiz-adv-x="1966" 
d="M1067 391l-86 -414l-86 414q0 -80 -59 -135q-17 -16 -61 -45.5t-61.5 -53.5t-17.5 -61q0 -19 6 -37t12 -26l7 -8q-45 13 -69.5 48t-24.5 79q0 61 43 104q41 41 62.5 97t21.5 98l-353 -232l232 352q-53 -53 -135 -53q-19 0 -64.5 8.5t-62.5 8.5q-31 0 -55 -10t-36 -24.5
t-19.5 -29.5t-8.5 -25l-2 -10q-17 31 -17 58q0 59 42.5 100t103.5 41q42 0 89.5 17.5t74.5 35t32 25.5l-413 86l413 86q-80 0 -135 59q-16 18 -37.5 48.5t-34 47t-35.5 30t-52 13.5q-19 0 -37 -6t-26 -12l-9 -6q13 45 48 69.5t79 24.5q61 0 104 -43q41 -41 97 -62.5
t98 -21.5l-232 352l353 -231q-54 54 -54 135q0 19 8.5 64.5t8.5 62.5q0 31 -10 55t-24.5 36t-29 19.5t-24.5 8.5l-10 2q29 16 57 16q59 0 100 -42t41 -103q0 -42 17.5 -89.5t35 -75t25.5 -32.5l86 414l86 -414q0 80 59 135q17 16 61 45.5t61.5 53.5t17.5 61q0 19 -6 37
t-12 26l-7 9q45 -13 69.5 -48t24.5 -79q0 -62 -43 -105q-41 -41 -62.5 -96.5t-21.5 -97.5l353 231l-232 -352q53 53 135 53q19 0 64.5 -8t62.5 -8q31 0 55 10t36 24.5t19.5 29t8.5 24.5l2 10q17 -31 17 -57q0 -59 -42.5 -100t-103.5 -41q-42 0 -89.5 -17.5t-74.5 -35
t-32 -25.5l413 -86l-413 -86q79 0 135 -60q16 -18 37.5 -48.5t34 -47t35.5 -30t52 -13.5q19 0 37 6t26 12l9 7q-13 -45 -48.5 -70t-78.5 -25q-61 0 -104 43q-41 41 -97 62.5t-98 21.5l232 -352l-353 232q54 -54 54 -136q0 -19 -8.5 -64.5t-8.5 -62.5q0 -31 10 -55
t24.5 -35.5t29 -19t24.5 -8.5l10 -2q-31 -17 -57 -17q-59 0 -100 42.5t-41 103.5q0 42 -17.5 89.5t-35 74.5t-25.5 32z" />
    <glyph glyph-name="uni263E" unicode="&#x263e;" horiz-adv-x="1966" 
d="M1278 1491q-181 0 -333.5 -92.5t-241.5 -252t-89 -347.5q0 -141 52.5 -269.5t141.5 -221t212 -147.5t258 -55q99 0 197 31q-218 -157 -492 -157q-167 0 -318.5 65t-261 174.5t-174.5 261t-65 318.5t65 318.5t174.5 261t261 174.5t318.5 65q268 0 492 -158
q-109 31 -197 31z" />
    <glyph glyph-name="spade" unicode="&#x2660;" horiz-adv-x="1843" 
d="M924 1618q66 -99 199 -238t278 -233q60 -39 104 -73t90.5 -79t75.5 -90t47.5 -102t18.5 -119q0 -150 -105 -253t-256 -103q-142 0 -246 93.5t-163 235.5l-6 -2q17 -210 54 -356.5t113 -298.5h-413q76 152 113.5 299t54.5 356l-6 2q-27 -67 -65.5 -124t-89 -104
t-116.5 -74t-139 -27q-151 0 -256 103t-105 253q0 62 18.5 119t47.5 102t75.5 90t90.5 79t104 73q146 95 279 233.5t199 237.5h4z" />
    <glyph glyph-name="club" unicode="&#x2663;" horiz-adv-x="1843" 
d="M715 0q76 152 113.5 299t54.5 356l-6 2q-27 -67 -65.5 -124t-89 -104t-116.5 -74t-139 -27q-151 0 -256 103t-105 253q0 161 99 265t258 104q84 0 172 -47l4 4q-78 118 -78 239q0 154 103.5 261.5t257.5 107.5t257 -107.5t103 -261.5q0 -121 -78 -239l4 -4q88 47 172 47
q159 0 258 -104t99 -265q0 -150 -105 -253t-256 -103q-142 0 -246 93.5t-163 235.5l-6 -2q17 -210 54 -356.5t113 -298.5h-413z" />
    <glyph glyph-name="heart" unicode="&#x2665;" horiz-adv-x="1843" 
d="M924 -20h-4q-59 88 -193.5 259t-284.5 341q-64 73 -114 136.5t-105 148.5t-86 170t-31 161q0 185 107 303.5t285 118.5q92 0 163.5 -25.5t120.5 -73t80.5 -100.5t55.5 -123h8q24 70 55.5 123t80.5 100.5t120.5 73t163.5 25.5q178 0 284.5 -118.5t106.5 -303.5
q0 -76 -31 -161t-86 -170t-105 -148.5t-114 -136.5q-149 -169 -283.5 -340t-193.5 -260z" />
    <glyph glyph-name="diamond" unicode="&#x2666;" horiz-adv-x="1843" 
d="M1673 799q-218 -170 -415 -386t-334 -433h-4q-137 217 -334.5 433t-415.5 386q218 170 415.5 386t334.5 433h4q137 -217 334 -433t415 -386z" />
    <glyph glyph-name="uni267B" unicode="&#x267b;" horiz-adv-x="1966" 
d="M1767 545l2 -4l-196 -342q-41 -60 -60 -77q-44 -38 -120 -38h-117v-100l-232 278l232 277v-101h297q34 0 66.5 11t54.5 27t39.5 31.5t25.5 26.5zM381 250h-4l-197 344q-23 42 -31.5 65.5t-5.5 63t29 82.5l57 100l-86 49l357 64l121 -340l-84 49q-144 -246 -148 -256
q-27 -46 -29 -101.5t10 -87.5zM827 1595v2h396q37 -1 56 -3t46 -11t47 -29t39 -53l57 -100l88 49l-124 -340l-355 64l84 49l-147 256q-27 47 -74 76t-80 35zM410 1225l137 243q21 38 69 64q63 34 131.5 30.5t126.5 -33t80 -69.5l-237 -411zM913 84h-276q-43 0 -90 27
q-45 26 -76 70.5t-42.5 91.5t-9.5 91.5t19 73.5h475v-354zM1651 1079l141 -239q20 -36 20 -90q1 -99 -78 -178.5t-151 -79.5l-237 411z" />
    <glyph glyph-name="uni267C" unicode="&#x267c;" horiz-adv-x="1966" 
d="M598 1321l-106 -188l237 -138l184 320q-17 30 -62 52.5t-98 25.5t-102 -23q-37 -21 -53 -49zM807 1421v-2q4 0 11 -1.5t26.5 -7.5t36.5 -14.5t37.5 -26.5t33.5 -40l115 -199l-66 -38l275 -50l96 265l-67 -39l-45 78q-28 49 -60 62t-86 13h-307zM659 248h215v274h-368
q-13 -22 -15 -57t7.5 -71.5t33.5 -71t58 -54.5q36 -20 69 -20zM467 377h2q-5 10 -10.5 27.5t-5 63t21.5 81.5l115 199l65 -39l-94 264l-276 -49l67 -39l-45 -78q-20 -34 -22.5 -65t4 -48.5t24.5 -50.5zM1563 834l-109 186l-237 -137l184 -320q57 0 118 61.5t60 139.5
q0 42 -16 70zM1546 602l-2 2q-2 -3 -6.5 -8.5t-19.5 -20t-31.5 -25t-42 -19.5t-51.5 -9h-230v78l-180 -215l180 -215v78h90q57 0 85 21.5t55 66.5zM131 799q0 221 108.5 407.5t295 295t407.5 108.5t407.5 -108.5t295 -295t108.5 -407.5t-108.5 -407.5t-295 -295
t-407.5 -108.5t-407.5 108.5t-295 295t-108.5 407.5z" />
    <glyph glyph-name="uni267D" unicode="&#x267d;" horiz-adv-x="1966" 
d="M492 1133l106 188q16 28 53 49q49 26 102 23t98 -25.5t62 -52.5l-184 -320zM807 1419v2h307q54 0 86 -13t60 -62l45 -78l67 39l-96 -265l-275 50l66 38l-115 199q-21 36 -57 58.5t-62 26.5zM874 248h-215q-33 0 -69 20q-34 20 -58 54.5t-33.5 71t-7.5 71.5t15 57h368
v-274zM469 377h-2l-154 266q-18 33 -24.5 50.5t-4 48.5t22.5 65l45 78l-67 39l276 49l94 -264l-65 39l-115 -199q-21 -36 -22.5 -79t7.5 -68zM1454 1020l109 -186q16 -28 16 -70q1 -78 -60 -139.5t-118 -61.5l-184 320zM1544 604l2 -2l-153 -266q-18 -30 -31 -46t-41 -29
t-68 -13h-90v-78l-180 215l180 215v-78h230q42 0 79.5 20.5t54.5 41.5zM123 799q0 167 65 318.5t174.5 261t261 174.5t318.5 65t318.5 -65t261 -174.5t174.5 -261t65 -318.5t-65 -318.5t-174.5 -261t-261 -174.5t-318.5 -65t-318.5 65t-261 174.5t-174.5 261t-65 318.5z
M201 799q0 -202 99 -372.5t269.5 -270t372.5 -99.5t372.5 99.5t269.5 270t99 372.5q0 151 -58.5 288.5t-157.5 236.5t-236.5 157.5t-288.5 58.5t-288.5 -58.5t-236.5 -157.5t-157.5 -236.5t-58.5 -288.5z" />
    <glyph glyph-name="mediumwhitecircle" unicode="&#x26aa;" horiz-adv-x="1372" 
d="M121 543q0 153 76 283t206 206t283 76t283 -76t206 -206t76 -283t-76 -283.5t-206 -206.5t-283 -76t-283 76t-206 206.5t-76 283.5zM254 543q0 -180 126 -306t306 -126t306 126t126 306t-126 306t-306 126t-306 -126t-126 -306z" />
    <glyph glyph-name="mediumblackcircle" unicode="&#x26ab;" horiz-adv-x="1372" 
d="M121 543q0 153 76 283t206 206t283 76t283 -76t206 -206t76 -283t-76 -283.5t-206 -206.5t-283 -76t-283 76t-206 206.5t-76 283.5z" />
    <glyph glyph-name="anglebracketleft" unicode="&#x3008;" horiz-adv-x="649" 
d="M575 1720l-331 -983l331 -983h-149l-332 983l332 983h149z" />
    <glyph glyph-name="anglebracketright" unicode="&#x3009;" horiz-adv-x="649" 
d="M74 -246l332 983l-332 983h149l332 -983l-332 -983h-149z" />
    <glyph glyph-name="fi" unicode="&#xe38c;" horiz-adv-x="1220" 
d="M379 1319v-234h305v-129h-305v-956h-143v956h-173v129h173v252q0 169 85 246.5t232 77.5q91 0 152 -23v-125q-13 6 -49 12.5t-68 6.5q-109 0 -159 -45t-50 -168zM928 0v1085h143v-1085h-143zM1092 1526v-185h-185v185h185z" />
    <glyph glyph-name="fi" unicode="&#xfb01;" horiz-adv-x="1220" 
d="M379 1319v-234h305v-129h-305v-956h-143v956h-173v129h173v252q0 169 85 246.5t232 77.5q91 0 152 -23v-125q-13 6 -49 12.5t-68 6.5q-109 0 -159 -45t-50 -168zM928 0v1085h143v-1085h-143zM1092 1526v-185h-185v185h185z" />
    <glyph glyph-name="fl" unicode="&#xe38d;" horiz-adv-x="1220" 
d="M379 1319v-234h305v-129h-305v-956h-143v956h-173v129h173v252q0 169 85 246.5t232 77.5q91 0 152 -23v-125q-13 6 -49 12.5t-68 6.5q-109 0 -159 -45t-50 -168zM928 0v1638h143v-1638h-143z" />
    <glyph glyph-name="fl" unicode="&#xfb02;" horiz-adv-x="1220" 
d="M379 1319v-234h305v-129h-305v-956h-143v956h-173v129h173v252q0 169 85 246.5t232 77.5q91 0 152 -23v-125q-13 6 -49 12.5t-68 6.5q-109 0 -159 -45t-50 -168zM928 0v1638h143v-1638h-143z" />
    <glyph glyph-name="invertedbreve" unicode="&#xe411;" horiz-adv-x="1024" 
d="M512 1620q168 0 250 -98.5t80 -264.5h-117q0 113 -52 177.5t-161 64.5t-161 -64.5t-52 -177.5h-117q-2 166 80 264.5t250 98.5z" />
    <glyph glyph-name="doublegrave" unicode="&#xe412;" horiz-adv-x="1024" 
d="M127 1597h139l185 -340h-129zM393 1597h137l172 -340h-129z" />
    <glyph glyph-name="caronSlovak" unicode="&#xe413;" horiz-adv-x="1024" 
d="M664 1638h120l-39 -381h-81v381z" />
    <glyph glyph-name="commaaccent" unicode="&#xe414;" horiz-adv-x="1232" 
d="M596 -115v-102q0 -105 -56.5 -163t-158.5 -58v73q120 0 137 111h-90v139h168z" />
    <glyph glyph-name="commaaccent" unicode="&#xf6c3;" horiz-adv-x="1232" 
d="M596 -115v-102q0 -105 -56.5 -163t-158.5 -58v73q120 0 137 111h-90v139h168z" />
    <glyph glyph-name="dotbelow" unicode="&#xe415;" horiz-adv-x="1232" 
d="M596 -178v-168h-168v168h168z" />
    <glyph glyph-name="altcedilla" unicode="&#xe416;" horiz-adv-x="1232" 
d="M625 -268q0 37 -28.5 51t-90.5 14q-71 0 -117 -16v86q58 20 135 20q94 0 150.5 -38.5t56.5 -120.5q0 -160 -211 -160q-126 0 -188 41l30 90q60 -31 144 -31q62 0 90.5 14t28.5 50z" />
    <glyph glyph-name="grave.cap" unicode="&#xe421;" horiz-adv-x="1024" 
d="M311 1946h152l123 -226h-148z" />
    <glyph glyph-name="acute.cap" unicode="&#xe422;" horiz-adv-x="1024" 
d="M561 1946h152l-127 -226h-148z" />
    <glyph glyph-name="circumflex.cap" unicode="&#xe423;" horiz-adv-x="1024" 
d="M373 1720h-144l217 226h132l217 -226h-144l-139 135z" />
    <glyph glyph-name="tilde.cap" unicode="&#xe424;" horiz-adv-x="1024" 
d="M721 1917h102q0 -96 -43.5 -143.5t-117.5 -47.5q-54 0 -108 28t-98.5 55.5t-76.5 27.5q-76 0 -76 -88h-102q0 96 43.5 143t117.5 47q43 0 86.5 -17t73 -38t63.5 -38t60 -17q76 0 76 88z" />
    <glyph glyph-name="macron.cap" unicode="&#xe425;" horiz-adv-x="1024" 
d="M281 1778v110h462v-110h-462z" />
    <glyph glyph-name="breve.cap" unicode="&#xe426;" horiz-adv-x="1024" 
d="M512 1698q-153 0 -225 67.5t-72 180.5h115q0 -146 182 -146t182 146h115q0 -113 -72 -180.5t-225 -67.5z" />
    <glyph glyph-name="invertedbreve.cap" unicode="&#xe427;" horiz-adv-x="1024" 
d="M512 1968q153 0 225 -67.5t72 -180.5h-115q0 146 -182 146t-182 -146h-115q0 113 72 180.5t225 67.5z" />
    <glyph glyph-name="dotaccent.cap" unicode="&#xe428;" horiz-adv-x="1024" 
d="M594 1905v-144h-164v144h164z" />
    <glyph glyph-name="dieresis.cap" unicode="&#xe429;" horiz-adv-x="1024" 
d="M432 1905v-144h-162v144h162zM754 1905v-144h-162v144h162z" />
    <glyph glyph-name="ring.cap" unicode="&#xe42a;" horiz-adv-x="1024" 
d="M319 1776q0 79 56.5 135.5t136.5 56.5t136.5 -56.5t56.5 -135.5q0 -80 -56.5 -136.5t-136.5 -56.5t-136.5 56.5t-56.5 136.5zM397 1776q0 -47 34 -81t81 -34t81 34t34 81t-34 80.5t-81 33.5t-81 -33.5t-34 -80.5z" />
    <glyph glyph-name="hungarumlaut.cap" unicode="&#xe42b;" horiz-adv-x="1024" 
d="M434 1946h144l-125 -226h-138zM694 1946h144l-129 -226h-138z" />
    <glyph glyph-name="doublegrave.cap" unicode="&#xe42c;" horiz-adv-x="1024" 
d="M446 1946h144l119 -226h-138zM186 1946h144l123 -226h-138z" />
    <glyph glyph-name="caron.cap" unicode="&#xe42d;" horiz-adv-x="1024" 
d="M229 1946h144l139 -138l139 138h144l-217 -226h-132z" />
    <glyph glyph-name="commaaccent.cap" unicode="&#xe42e;" horiz-adv-x="1024" 
d="M430 1720v86q0 74 46 119t140 45v-65q-51 0 -76 -13.5t-32 -48.5h86v-123h-164z" />
    <glyph glyph-name="exclamdown.cap" unicode="&#xe441;" horiz-adv-x="442" 
d="M309 0h-176l39 1210h98zM129 1413v184h184v-184h-184z" />
    <glyph glyph-name="questiondown.cap" unicode="&#xe444;" horiz-adv-x="931" 
d="M459 111q79 0 133 30.5t84.5 92t43.5 141t13 190.5h146v-24q0 -101 -11.5 -182t-40.5 -154t-75.5 -122t-120.5 -77.5t-172 -28.5q-207 0 -304.5 112.5t-97.5 313.5q0 83 19.5 151t50.5 116t68.5 91.5t76 87t70.5 92t53.5 117.5t24.5 152h96q3 -84 -12.5 -158
t-42.5 -129.5t-60.5 -106t-67.5 -96.5t-62 -91t-46 -99t-18 -112q0 -153 56 -230t196 -77zM377 1413v184h184v-184h-184z" />
    <glyph glyph-name="guilsinglleft.cap" unicode="&#xe451;" horiz-adv-x="622" 
d="M520 1176v-144l-305 -233l305 -234v-143l-418 313v127z" />
    <glyph glyph-name="guilsinglright.cap" unicode="&#xe452;" horiz-adv-x="622" 
d="M102 1032v144l418 -314v-127l-418 -313v143l306 234z" />
    <glyph glyph-name="guillemotleft.cap" unicode="&#xe453;" horiz-adv-x="1058" 
d="M520 1176v-144l-305 -233l305 -234v-143l-418 313v127zM956 1176v-144l-307 -233l307 -234v-143l-417 313v127z" />
    <glyph glyph-name="guillemotright.cap" unicode="&#xe454;" horiz-adv-x="1058" 
d="M539 1032v144l417 -314v-127l-417 -313v143l303 234zM102 1032v144l418 -314v-127l-418 -313v143l306 234z" />
    <glyph glyph-name="slash.cap" unicode="&#xe461;" horiz-adv-x="657" 
d="M205 0h-144l394 1597h143z" />
    <glyph glyph-name="backslash.cap" unicode="&#xe462;" horiz-adv-x="657" 
d="M61 1597h144l393 -1597h-143z" />
    <glyph glyph-name="bar.cap" unicode="&#xe463;" horiz-adv-x="411" 
d="M135 0v1597h144v-1597h-144z" />
    <glyph glyph-name="doublebar.cap" unicode="&#xe464;" horiz-adv-x="669" 
d="M135 0v1597h144v-1597h-144zM391 0v1597h144v-1597h-144z" />
    <glyph glyph-name="brokenbar.cap" unicode="&#xe465;" horiz-adv-x="411" 
d="M135 872v725h144v-725h-144zM135 0v725h144v-725h-144z" />
    <glyph glyph-name="bullet.cap" unicode="&#xe466;" horiz-adv-x="813" 
d="M674 1067v-537h-535v537h535z" />
    <glyph glyph-name="onethirdemdash" unicode="&#xe471;" horiz-adv-x="681" 
d="M600 651h-518v131h518v-131z" />
    <glyph glyph-name="threequarteremdash" unicode="&#xe472;" horiz-adv-x="1536" 
d="M82 651v131h1372v-131h-1372z" />
    <glyph glyph-name="periodcentered.cap" unicode="&#xe481;" horiz-adv-x="444" 
d="M311 889v-180h-178v180h178z" />
    <glyph glyph-name="hyphen.cap" unicode="&#xe482;" horiz-adv-x="655" 
d="M82 733v131h510v-131h-510z" />
    <glyph glyph-name="onethirdemdash.cap" unicode="&#xe483;" horiz-adv-x="681" 
d="M600 733h-504v131h504v-131z" />
    <glyph glyph-name="endash.cap" unicode="&#xe484;" horiz-adv-x="1024" 
d="M82 733v131h860v-131h-860z" />
    <glyph glyph-name="threequarteremdash.cap" unicode="&#xe485;" horiz-adv-x="1536" 
d="M82 733v131h1372v-131h-1372z" />
    <glyph glyph-name="emdash.cap" unicode="&#xe486;" horiz-adv-x="2048" 
d="M82 733v131h1884v-131h-1884z" />
    <glyph glyph-name="figuredash.cap" unicode="&#xe487;" horiz-adv-x="1228" 
d="M82 733v131h1065v-131h-1065z" />
    <glyph glyph-name="uni2015.cap" unicode="&#xe488;" horiz-adv-x="2457" 
d="M82 733v131h2294v-131h-2294z" />
    <glyph glyph-name="parenleft.cap" unicode="&#xe491;" horiz-adv-x="649" 
d="M123 778v41q0 425 250 778h153q-114 -165 -186 -366t-72 -412v-41q0 -211 72 -412t186 -366h-153q-250 353 -250 778z" />
    <glyph glyph-name="parenright.cap" unicode="&#xe492;" horiz-adv-x="649" 
d="M526 819v-41q0 -425 -250 -778h-153q114 165 186 366t72 412v41q0 211 -72 412t-186 366h153q250 -353 250 -778z" />
    <glyph glyph-name="bracketleft.cap" unicode="&#xe493;" horiz-adv-x="649" 
d="M137 1597h426v-135h-280v-1327h280v-135h-426v1597z" />
    <glyph glyph-name="bracketright.cap" unicode="&#xe494;" horiz-adv-x="649" 
d="M512 0h-426v135h283v1327h-283v135h426v-1597z" />
    <glyph glyph-name="braceleft.cap" unicode="&#xe495;" horiz-adv-x="649" 
d="M563 1597v-135q-97 0 -144.5 -45.5t-47.5 -165.5v-241q0 -157 -111 -211q111 -57 111 -211v-242q0 -120 47.5 -165.5t144.5 -45.5v-135h-37q-60 0 -110.5 13.5t-94.5 44.5t-69 89t-25 138v266q0 107 -41 143.5t-135 36.5v135q94 0 135 37t41 144v266q0 80 25 138t69 88.5
t94.5 44t110.5 13.5h37z" />
    <glyph glyph-name="braceright.cap" unicode="&#xe496;" horiz-adv-x="649" 
d="M86 1462v135h37q60 0 110.5 -13.5t94.5 -44t69 -88.5t25 -138v-266q0 -107 41 -144t135 -37v-135q-94 0 -135 -36.5t-41 -143.5v-266q0 -80 -25 -138t-69 -89t-94.5 -44.5t-110.5 -13.5h-37v135q98 0 145.5 46t47.5 165v242q0 154 110 211q-110 53 -110 211v241
q0 119 -47.5 165t-145.5 46z" />
    <glyph glyph-name="anglebracketleft.cap" unicode="&#xe497;" horiz-adv-x="649" 
d="M522 1597l-274 -798l274 -799h-149l-275 799l275 798h149z" />
    <glyph glyph-name="anglebracketright.cap" unicode="&#xe498;" horiz-adv-x="649" 
d="M403 799l-276 798h149l277 -798l-277 -799h-149z" />
    <glyph glyph-name="lowline" unicode="&#xe511;" horiz-adv-x="655" 
d="M98 0v131h459v-131h-459z" />
    <glyph glyph-name="underscoremonospace" unicode="&#xe512;" horiz-adv-x="1228" 
d="M98 -276v131h1032v-131h-1032z" />
    <glyph glyph-name="underscoremonospace" unicode="&#xff3f;" horiz-adv-x="1228" 
d="M98 -276v131h1032v-131h-1032z" />
    <glyph glyph-name="at.cap" unicode="&#xe513;" horiz-adv-x="1968" 
d="M1026 -115h12q387 0 674 213l66 -88q-303 -237 -746 -237q-212 0 -389.5 67t-305 192t-198.5 311t-71 415v82q0 229 69.5 415t195.5 311t302 192t387 67q145 0 274.5 -31.5t240.5 -98t192 -163t126.5 -233t45.5 -300.5v-61q0 -144 -27 -252t-73.5 -175.5t-117.5 -109
t-149.5 -57.5t-179.5 -16h-94l-21 149q-45 -77 -124.5 -124.5t-192.5 -47.5q-83 0 -151 26t-114 70.5t-77.5 106t-45.5 130.5t-14 146v50q0 77 14 146t45.5 130.5t77.5 106t114 70.5t151 26q112 0 191.5 -48t125.5 -124l21 149h110l-12 -301v-551q69 2 120.5 10.5t102 28.5
t85 56t61.5 90t40 133t13 182v61q0 149 -41 270t-111.5 202.5t-167 136.5t-204.5 79.5t-228 24.5h-12q-183 0 -336 -59.5t-263 -169.5t-171.5 -275t-61.5 -368v-82q0 -209 62 -375t174 -274.5t266 -166t340 -57.5zM952 428q92 0 161.5 49t111.5 115v434q-42 66 -111.5 115
t-161.5 49q-146 0 -218 -97.5t-72 -258.5v-50q0 -161 72 -258.5t218 -97.5z" />
    <glyph glyph-name="zero.inf" unicode="&#xe571;" 
d="M561 -182q0 -109 -64 -175.5t-190 -66.5t-190 66.5t-64 175.5v344q0 108 64 173.5t190 65.5t190 -65.5t64 -173.5v-344zM438 156q0 137 -129 137h-6q-127 0 -127 -137v-334q0 -137 127 -137h6q129 0 129 137v334z" />
    <glyph glyph-name="one.inf" unicode="&#xe572;" 
d="M567 -410h-501v107h190v539l-156 -105l-59 90l250 170h88v-694h188v-107z" />
    <glyph glyph-name="two.inf" unicode="&#xe573;" 
d="M563 -303v-107h-512v76l324 352q36 37 50.5 66.5t14.5 67.5v10q0 62 -35.5 96.5t-95.5 34.5h-6q-65 0 -98 -40t-33 -130h-121v22q0 256 256 256q128 0 192 -62t64 -157v-14q0 -64 -20 -107.5t-72 -99.5l-244 -264h336z" />
    <glyph glyph-name="three.inf" unicode="&#xe574;" 
d="M168 -154q0 -161 133 -161h10q57 0 96 32t39 93v14q0 58 -35 89.5t-94 31.5h-112v106h108q58 0 92.5 29t34.5 86v8q0 54 -36 86.5t-93 32.5h-10q-65 0 -97 -40t-32 -130h-121v22q0 256 256 256q127 0 191.5 -61t64.5 -152v-16q0 -123 -104 -174q49 -23 78.5 -68.5
t29.5 -111.5v-19q0 -91 -69 -157t-191 -66q-130 0 -196 67t-66 189v14h123z" />
    <glyph glyph-name="four.inf" unicode="&#xe575;" 
d="M477 -410h-123v191h-325v84l329 524h119v-500h107v-108h-107v-191zM356 190l-192 -303l69 2h121v222z" />
    <glyph glyph-name="five.inf" unicode="&#xe576;" 
d="M45 -154h123q0 -161 133 -161h10q57 0 96 37t39 110v16q0 74 -40 111t-101 37h-6q-45 0 -85 -22t-58 -62l-105 35l19 442h487v-108h-379l-10 -215q64 36 145 36q118 0 186 -67.5t68 -186.5v-16q0 -120 -69 -188t-191 -68q-130 0 -196 67t-66 189v14z" />
    <glyph glyph-name="six.inf" unicode="&#xe577;" 
d="M532 401v-108q-187 0 -276 -119q-47 -56 -66 -133q61 51 150 51q104 0 167.5 -66t63.5 -186v-10q0 -121 -68.5 -187.5t-193.5 -66.5q-121 0 -191.5 78.5t-70.5 210.5v12q0 215 113 367q116 157 372 157zM311 -14q-45 0 -83 -22.5t-58 -63.5v-43q0 -80 38.5 -126t96.5 -46
h6q62 0 100 38t38 105v18q0 67 -36 103.5t-96 36.5h-6z" />
    <glyph glyph-name="seven.inf" unicode="&#xe578;" 
d="M47 102v287h524v-76l-295 -723h-129l285 693l-104 -2h-172v-179h-109z" />
    <glyph glyph-name="eight.inf" unicode="&#xe579;" 
d="M307 -424q-124 0 -193 66t-69 157v19q0 66 30.5 111.5t80.5 68.5q-105 50 -105 174v18q0 89 64.5 150t191.5 61t191.5 -61t64.5 -150v-18q0 -124 -106 -174q110 -51 110 -180v-19q0 -91 -69 -157t-191 -66zM297 -55q-58 0 -93.5 -32t-35.5 -91v-12q0 -61 38 -93t95 -32
h10q57 0 96 32t39 93v12q0 59 -35.5 91t-93.5 32h-20zM311 293h-10q-58 0 -93.5 -32t-35.5 -85v-10q0 -57 35 -86t94 -29h12q58 0 92.5 29t34.5 86v10q0 53 -35.5 85t-93.5 32z" />
    <glyph glyph-name="nine.inf" unicode="&#xe57a;" 
d="M80 -424v109q188 3 278 118q44 58 66 138q-68 -54 -152 -54q-104 0 -166.5 65.5t-62.5 184.5v10q0 121 68.5 187.5t193.5 66.5q120 0 190 -77.5t70 -210.5v-11q0 -218 -112 -368q-119 -158 -373 -158zM303 -6q44 0 82 22.5t59 63.5v43q0 79 -39 124.5t-98 45.5h-6
q-61 0 -98 -37.5t-37 -103.5v-19q0 -69 35 -104t96 -35h6z" />
    <glyph glyph-name="plus.inf" unicode="&#xe57b;" 
d="M252 252h108v-209h209v-109h-209v-206h-108v206h-207v109h207v209z" />
    <glyph glyph-name="minus.inf" unicode="&#xe57c;" 
d="M45 -66v109h524v-109h-524z" />
    <glyph glyph-name="equal.inf" unicode="&#xe57d;" 
d="M45 -174v111h524v-111h-524zM45 43v109h524v-109h-524z" />
    <glyph glyph-name="parenleft.inf" unicode="&#xe57e;" horiz-adv-x="350" 
d="M53 -20v20q0 231 123 389h127q-129 -188 -129 -389v-20q0 -202 129 -390h-127q-123 155 -123 390z" />
    <glyph glyph-name="parenright.inf" unicode="&#xe57f;" horiz-adv-x="350" 
d="M297 0v-20q0 -235 -123 -390h-125q127 192 127 390v20q0 197 -127 389h125q123 -158 123 -389z" />
    <glyph glyph-name="Anocross" unicode="&#xe731;" horiz-adv-x="1251" 
d="M520 1614h211l461 -1614h-160l-407 1452l-406 -1452h-160z" />
    <glyph glyph-name="idotaccent" unicode="&#xe785;" horiz-adv-x="442" 
d="M150 0v1085h143v-1085h-143zM313 1526v-185h-184v185h184z" />
    <glyph glyph-name="interrobangdown" unicode="&#xe935;" horiz-adv-x="931" 
d="M420 698h86l35 -987q105 26 147.5 129t42.5 283h148v-25q0 -95 -11.5 -171t-40.5 -145t-75.5 -114.5t-120.5 -72.5t-172 -27q-197 0 -299.5 101t-102.5 272q0 82 19.5 150t50.5 115.5t68.5 89t76 82t70.5 83.5t53.5 103.5t24.5 133.5zM207 -45q0 -220 186 -248l23 682
q-23 -40 -67.5 -103t-71 -103.5t-48.5 -102.5t-22 -125zM375 901v184h184v-184h-184z" />
    <glyph glyph-name="interrobangdown.cap" unicode="&#xe99b;" horiz-adv-x="931" 
d="M53 403q0 83 19.5 151t50.5 116t68.5 91.5t76 87t70.5 92t53.5 117.5t24.5 152h88l35 -1089q54 15 91.5 52t59 95.5t30.5 130t9 166.5h145v-24q0 -101 -11.5 -181.5t-40 -154t-75.5 -122.5t-120.5 -77.5t-171.5 -28.5q-207 0 -304.5 112.5t-97.5 313.5zM203 418
q0 -135 42.5 -211t145.5 -92l23 753q-25 -47 -68 -111.5t-71 -107t-50 -105t-22 -126.5zM373 1413v184h184v-184h-184z" />
    <glyph glyph-name="registered.cap" unicode="&#xe99c;" horiz-adv-x="1884" 
d="M121 799q0 167 65 319t175 262t262 175t319 65t319 -65t262 -175t175 -262t65 -319t-65 -319t-175 -262.5t-262 -175.5t-319 -65t-319 65t-262 175.5t-175 262.5t-65 319zM209 799q0 -200 98 -368.5t266.5 -266.5t368.5 -98t368.5 98t266.5 266.5t98 368.5t-98 368.5
t-266.5 266.5t-368.5 98t-368.5 -98t-266.5 -266.5t-98 -368.5zM743 700v-383h-135v963h373q58 0 107.5 -12.5t95 -41.5t72 -85.5t26.5 -136.5v-25q0 -196 -160 -256l160 -406h-143l-142 383h-254zM743 811h220q27 0 51 4t49 15.5t43 30t29.5 50t11.5 72.5v14
q0 172 -184 172h-220v-358z" />
    <glyph glyph-name="period.T" unicode="&#xf182;" 
d="M399 184v-184h-184v184h184z" />
    <glyph glyph-name="comma.T" unicode="&#xf183;" 
d="M399 184v-147q0 -279 -231 -279v86q66 0 101.5 36t41.5 120h-96v184h184z" />
    <glyph glyph-name="colon.T" unicode="&#xf184;" 
d="M399 184v-184h-184v184h184zM399 891v-184h-184v184h184z" />
    <glyph glyph-name="semicolon.T" unicode="&#xf185;" 
d="M399 184v-147q0 -279 -231 -279v86q66 0 101.5 36t41.5 120h-96v184h184zM399 891v-184h-184v184h184z" />
    <glyph glyph-name="onesixteenth" unicode="&#xf215;" horiz-adv-x="2252" 
d="M2171 811v-109q-189 0 -277 -118q-46 -54 -65 -133q61 51 149 51q104 0 168 -66t64 -186v-10q0 -121 -68.5 -187.5t-193.5 -66.5q-121 0 -191.5 78t-70.5 210v13q0 215 112 366q117 158 373 158zM295 0h-131l1179 1597h132zM567 799h-501v106h190v539l-156 -105l-59 91
l250 169h88v-694h188v-106zM1591 0h-501v106h190v539l-156 -104l-59 90l250 170h88v-695h188v-106zM1950 395q-45 0 -83.5 -23.5t-58.5 -64.5v-41q0 -80 39 -126t97 -46h6q61 0 99 38t38 106v18q0 67 -35.5 103t-95.5 36h-6z" />
    <glyph glyph-name="threesixteenths" unicode="&#xf216;" horiz-adv-x="2252" 
d="M2171 811v-109q-189 0 -277 -118q-46 -54 -65 -133q61 51 149 51q104 0 168 -66t64 -186v-10q0 -121 -68.5 -187.5t-193.5 -66.5q-121 0 -191.5 78t-70.5 210v13q0 215 112 366q117 158 373 158zM168 1055q0 -162 133 -162h10q57 0 96 32t39 93v14q0 58 -35 89.5
t-94 31.5h-112v107h108q58 0 92.5 29t34.5 85v8q0 54 -36 86.5t-93 32.5h-10q-65 0 -97 -40t-32 -130h-121v23q0 256 256 256q127 0 191.5 -61t64.5 -152v-17q0 -123 -104 -174q108 -55 108 -180v-18q0 -91 -69 -157.5t-191 -66.5q-130 0 -196 67t-66 189v15h123zM295 0
h-131l1179 1597h132zM1591 0h-501v106h190v539l-156 -104l-59 90l250 170h88v-695h188v-106zM1950 395q-45 0 -83.5 -23.5t-58.5 -64.5v-41q0 -80 39 -126t97 -46h6q61 0 99 38t38 106v18q0 67 -35.5 103t-95.5 36h-6z" />
    <glyph glyph-name="fivesixteenths" unicode="&#xf217;" horiz-adv-x="2252" 
d="M2171 811v-109q-189 0 -277 -118q-46 -54 -65 -133q61 51 149 51q104 0 168 -66t64 -186v-10q0 -121 -68.5 -187.5t-193.5 -66.5q-121 0 -191.5 78t-70.5 210v13q0 215 112 366q117 158 373 158zM45 1055h123q0 -162 133 -162h10q57 0 96 37t39 110v17q0 74 -39.5 110.5
t-101.5 36.5h-6q-45 0 -85 -22t-58 -62l-105 35l19 442h487v-108h-379l-10 -215q66 37 145 37q118 0 186 -67.5t68 -186.5v-17q0 -120 -69 -188t-191 -68q-130 0 -196 67t-66 189v15zM295 0h-131l1179 1597h132zM1591 0h-501v106h190v539l-156 -104l-59 90l250 170h88v-695
h188v-106zM1950 395q-45 0 -83.5 -23.5t-58.5 -64.5v-41q0 -80 39 -126t97 -46h6q61 0 99 38t38 106v18q0 67 -35.5 103t-95.5 36h-6z" />
    <glyph glyph-name="sevensixteenths" unicode="&#xf218;" horiz-adv-x="2252" 
d="M2171 811v-109q-189 0 -277 -118q-46 -54 -65 -133q61 51 149 51q104 0 168 -66t64 -186v-10q0 -121 -68.5 -187.5t-193.5 -66.5q-121 0 -191.5 78t-70.5 210v13q0 215 112 366q117 158 373 158zM295 0h-131l1179 1597h132zM47 1311v286h524v-75l-295 -723h-129l285 692
l-104 -2h-172v-178h-109zM1591 0h-501v106h190v539l-156 -104l-59 90l250 170h88v-695h188v-106zM1950 395q-45 0 -83.5 -23.5t-58.5 -64.5v-41q0 -80 39 -126t97 -46h6q61 0 99 38t38 106v18q0 67 -35.5 103t-95.5 36h-6z" />
    <glyph glyph-name="ninesixteenths" unicode="&#xf219;" horiz-adv-x="2252" 
d="M2171 811v-109q-189 0 -277 -118q-46 -54 -65 -133q61 51 149 51q104 0 168 -66t64 -186v-10q0 -121 -68.5 -187.5t-193.5 -66.5q-121 0 -191.5 78t-70.5 210v13q0 215 112 366q117 158 373 158zM80 784v109q187 3 278 119q43 54 66 135q-64 -51 -152 -51
q-104 0 -166.5 65.5t-62.5 184.5v10q0 121 68.5 187.5t193.5 66.5q120 0 190 -78t70 -211v-10q0 -219 -112 -369q-119 -158 -373 -158zM295 0h-131l1179 1597h132zM1591 0h-501v106h190v539l-156 -104l-59 90l250 170h88v-695h188v-106zM1950 395q-45 0 -83.5 -23.5
t-58.5 -64.5v-41q0 -80 39 -126t97 -46h6q61 0 99 38t38 106v18q0 67 -35.5 103t-95.5 36h-6zM303 1202q44 0 82 22.5t59 63.5v43q0 79 -39 124.5t-98 45.5h-6q-61 0 -98 -37.5t-37 -103.5v-19q0 -69 35 -104t96 -35h6z" />
    <glyph glyph-name="elevensixteenths" unicode="&#xf220;" horiz-adv-x="2867" 
d="M2785 811v-109q-187 0 -276 -118q-47 -56 -66 -133q61 51 150 51q104 0 167.5 -66t63.5 -186v-10q0 -121 -68.5 -187.5t-193.5 -66.5q-121 0 -191.5 78t-70.5 210v13q0 214 113 366q117 158 372 158zM909 0h-131l1180 1597h131zM2206 0h-502v106h190v539l-155 -104
l-60 90l250 170h88v-695h189v-106zM1182 799h-502v106h190v539l-155 -105l-60 91l250 169h88v-694h189v-106zM567 799h-501v106h190v539l-156 -105l-59 91l250 169h88v-694h188v-106zM2564 395q-45 0 -83 -23.5t-58 -64.5v-41q0 -80 38.5 -126t96.5 -46h6q61 0 99 38t38 106
v18q0 67 -35.5 103t-95.5 36h-6z" />
    <glyph glyph-name="thirteensixteenths" unicode="&#xf221;" horiz-adv-x="2867" 
d="M2785 811v-109q-187 0 -276 -118q-47 -56 -66 -133q61 51 150 51q104 0 167.5 -66t63.5 -186v-10q0 -121 -68.5 -187.5t-193.5 -66.5q-121 0 -191.5 78t-70.5 210v13q0 214 113 366q117 158 372 158zM782 1055q0 -162 133 -162h11q57 0 96 32t39 93v14q0 58 -35 89.5
t-94 31.5h-113v107h109q58 0 92.5 29t34.5 85v8q0 54 -36 86.5t-93 32.5h-11q-65 0 -97 -40t-32 -130h-120v23q0 256 256 256q127 0 191.5 -61t64.5 -152v-17q0 -122 -105 -174q109 -55 109 -180v-18q0 -91 -69 -157.5t-191 -66.5q-130 0 -196.5 67t-66.5 189v15h123zM909 0
h-131l1180 1597h131zM567 799h-501v106h190v539l-156 -105l-59 91l250 169h88v-694h188v-106zM2206 0h-502v106h190v539l-155 -104l-60 90l250 170h88v-695h189v-106zM2564 395q-45 0 -83 -23.5t-58 -64.5v-41q0 -80 38.5 -126t96.5 -46h6q61 0 99 38t38 106v18
q0 67 -35.5 103t-95.5 36h-6z" />
    <glyph glyph-name="fifteensixteenths" unicode="&#xf222;" horiz-adv-x="2867" 
d="M2785 811v-109q-187 0 -276 -118q-47 -56 -66 -133q61 51 150 51q104 0 167.5 -66t63.5 -186v-10q0 -121 -68.5 -187.5t-193.5 -66.5q-121 0 -191.5 78t-70.5 210v13q0 214 113 366q117 158 372 158zM659 1055h123q0 -162 133 -162h11q57 0 96 37t39 110v17
q0 74 -39.5 110.5t-101.5 36.5h-7q-45 0 -85 -22t-58 -62l-104 35l18 442h487v-108h-378l-11 -215q66 37 146 37q118 0 186 -67.5t68 -186.5v-17q0 -120 -69 -188t-191 -68q-130 0 -196.5 67t-66.5 189v15zM909 0h-131l1180 1597h131zM567 799h-501v106h190v539l-156 -105
l-59 91l250 169h88v-694h188v-106zM2206 0h-502v106h190v539l-155 -104l-60 90l250 170h88v-695h189v-106zM2564 395q-45 0 -83 -23.5t-58 -64.5v-41q0 -80 38.5 -126t96.5 -46h6q61 0 99 38t38 106v18q0 67 -35.5 103t-95.5 36h-6z" />
    </font>
</defs>
</svg>
