<?xml version="1.0" standalone="no"?>
<!DOCTYPE svg PUBLIC "-//W3C//DTD SVG 1.1//EN" "http://www.w3.org/Graphics/SVG/1.1/DTD/svg11.dtd" >
<svg xmlns="http://www.w3.org/2000/svg" xmlns:xlink="http://www.w3.org/1999/xlink" version="1.1">
<metadata>
Created by FontForge 20170731 at Thu Jan 27 16:36:04 2022
 By Aleksey,,,
Copyright (c) 2014, Cooper Hewitt Smithsonian Design Museum (cooperhewitt.org)
</metadata>
<defs>
<font id="CooperHewitt-BookItalic" horiz-adv-x="614" >
  <font-face 
    font-family="Cooper Hewitt"
    font-weight="706"
    font-style="italic"
    font-stretch="normal"
    units-per-em="2048"
    panose-1="0 0 0 0 0 0 0 0 0 0"
    ascent="1536"
    descent="-512"
    x-height="1085"
    cap-height="1597"
    bbox="-555 -438 2789 1970"
    underline-thickness="40"
    underline-position="-224"
    unicode-range="U+0020-F222"
  />
<missing-glyph horiz-adv-x="1982" 
d="M193 0v1597h1597v-1597h-1597zM991 707l-571 -572h1143zM420 1462l571 -571l572 571h-1143zM899 799l-563 563v-1126zM1083 799l564 -563v1126z" />
    <glyph glyph-name=".notdef" horiz-adv-x="1982" 
d="M193 0v1597h1597v-1597h-1597zM991 707l-571 -572h1143zM420 1462l571 -571l572 571h-1143zM899 799l-563 563v-1126zM1083 799l564 -563v1126z" />
    <glyph glyph-name=".null" horiz-adv-x="0" 
 />
    <glyph glyph-name="nonmarkingreturn" horiz-adv-x="682" 
 />
    <glyph glyph-name="space" unicode=" " horiz-adv-x="409" 
 />
    <glyph glyph-name="exclam" unicode="!" horiz-adv-x="444" 
d="M244 1597h174l-197 -1210h-96zM238 184l-25 -184h-184l24 184h185z" />
    <glyph glyph-name="quotedbl" unicode="&#x22;" horiz-adv-x="692" 
d="M250 1597h162l-103 -550h-102zM498 1597h161l-102 -550h-102z" />
    <glyph glyph-name="numbersign" unicode="#" horiz-adv-x="1228" 
d="M475 0l170 481h-283l-169 -481h-140l170 481h-192l16 135h225l129 365h-188l18 135h218l172 481h139l-172 -481h282l172 481h140l-172 -481h194l-16 -135h-225l-129 -365h188l-18 -135h-220l-170 -481h-139zM541 981l-129 -365h282l129 365h-282z" />
    <glyph glyph-name="dollar" unicode="$" horiz-adv-x="1228" 
d="M1016 1720l-98 -264q123 -43 174.5 -155t29.5 -259l-4 -26h-143q36 236 -103 315l-174 -467q404 -66 365 -370l-2 -17q-21 -174 -156 -271t-344 -97q-90 0 -139 8l-88 -240h-125l100 273q-120 52 -175.5 155t-35.5 230l4 26h142q-16 -114 7.5 -177t104.5 -105l179 483
q-380 61 -342 354l2 17q23 174 160.5 265t353.5 91q49 0 92 -6l88 237h127zM555 236h12q144 0 237.5 63.5t108.5 179.5l2 17q13 108 -52 161.5t-210 83.5l-184 -497q39 -8 86 -8zM340 1133l-2 -17q-12 -96 45 -153t197 -80l176 475q-24 4 -60 4h-8q-137 0 -236 -62
t-112 -167z" />
    <glyph glyph-name="percent" unicode="%" horiz-adv-x="1886" 
d="M1188 348l-2 -18q-12 -106 38 -169t154 -63h17q104 0 164.5 60.5t72.5 171.5l2 18q12 106 -38 169t-154 63h-17q-104 0 -164.5 -60.5t-72.5 -171.5zM1063 334l2 18q18 158 116 253t253 95q163 0 252 -95t71 -261l-2 -18q-18 -158 -116.5 -253.5t-252.5 -95.5
q-163 0 -252 95.5t-71 261.5zM264 1268l-2 -19q-12 -106 38.5 -168.5t154.5 -62.5h16q104 0 165 60.5t73 170.5l2 19q12 106 -38.5 168.5t-154.5 62.5h-16q-104 0 -165 -60.5t-73 -170.5zM510 1620q85 0 156 -29q138 -57 352 -57q102 0 225.5 22t171.5 43l-14 -100
l-819 -1499h-140l789 1440q-8 -3 -36.5 -9.5t-83.5 -14t-107 -7.5q-71 0 -193 23q35 -59 23 -168l-3 -19q-18 -158 -116 -253t-252 -95q-163 0 -252.5 95t-71.5 261l2 19q18 158 116 253t253 95z" />
    <glyph glyph-name="ampersand" unicode="&#x26;" horiz-adv-x="1353" 
d="M473 -23q-221 0 -341 117.5t-93 321.5l4 30q11 77 38.5 141.5t72 115t93.5 89t115 76.5q-91 115 -131.5 209t-27.5 189l4 30q20 148 118.5 236t280.5 88q190 0 287 -95t78 -239l-4 -31q-5 -40 -20.5 -77.5t-32.5 -66.5t-49 -61t-56 -52.5t-68.5 -50.5t-70 -45.5
l-76.5 -46.5q-17 -10 -25 -15l365 -459q57 90 93 185t50 225l2 18h152q-41 -331 -209 -545l209 -264h-187l-124 154q-177 -177 -447 -177zM465 111h16q214 0 355 153l-392 498q-52 -32 -88.5 -60t-73.5 -67t-59.5 -87t-29.5 -106l-5 -30q-19 -142 49.5 -221.5t227.5 -79.5z
M356 1292l-4 -30q-10 -77 25 -150t110 -166q14 9 57.5 35t59 35.5t51.5 33t51 37t39.5 37t35.5 42.5t22 43.5t14 50.5l4 30q11 87 -44 143t-163 56h-16q-113 0 -172 -54t-70 -143z" />
    <glyph glyph-name="quotesingle" unicode="'" horiz-adv-x="444" 
d="M250 1597h162l-103 -550h-102z" />
    <glyph glyph-name="parenleft" unicode="(" horiz-adv-x="649" 
d="M96 713l6 49q21 172 64 317.5t106 260.5t129.5 203t153.5 177h154q-91 -93 -161 -186.5t-132 -209.5t-104 -257t-62 -305l-6 -49q-10 -102 -11.5 -187.5t12 -174.5t31.5 -163.5t47.5 -153.5t59.5 -144t68 -136h-154q-31 60 -54.5 110t-49.5 116t-44.5 126t-34.5 133.5
t-23 146t-6.5 157t11.5 170.5z" />
    <glyph glyph-name="parenright" unicode=")" horiz-adv-x="649" 
d="M545 762l-6 -49q-21 -172 -64 -317.5t-106 -261t-129.5 -203.5t-153.5 -177h-154q189 193 304.5 418.5t154.5 540.5l6 49q10 102 11.5 187t-12 174.5t-31.5 163.5t-47.5 153t-59.5 144t-68 136h154q31 -60 54.5 -110t50 -115.5t44.5 -125.5t34 -134t23 -146t6.5 -156.5
t-11.5 -170.5z" />
    <glyph glyph-name="asterisk" unicode="*" horiz-adv-x="796" 
d="M459 1638h108l-51 -299h-86zM94 1327l47 103l269 -103l-37 -82zM240 924l-78 63l213 234l63 -50zM827 1430l21 -103l-299 -82l-17 82zM692 987l-94 -63l-135 247l76 50z" />
    <glyph glyph-name="plus" unicode="+" horiz-adv-x="1228" 
d="M616 1315h138l-60 -449h449l-19 -135h-448l-60 -448h-137l60 448h-449l19 135h448z" />
    <glyph glyph-name="comma" unicode="," horiz-adv-x="444" 
d="M238 184l-21 -153q-38 -275 -266 -275l12 88q64 0 102 35.5t56 120.5h-92l24 184h185z" />
    <glyph glyph-name="hyphen" unicode="-" horiz-adv-x="673" 
d="M573 651h-507l18 131h508z" />
    <glyph glyph-name="period" unicode="." horiz-adv-x="444" 
d="M238 184l-25 -184h-184l24 184h185z" />
    <glyph glyph-name="slash" unicode="/" horiz-adv-x="675" 
d="M772 1720l-729 -1966h-145l729 1966h145z" />
    <glyph glyph-name="zero" unicode="0" horiz-adv-x="1228" 
d="M702 1620q254 0 366.5 -124.5t82.5 -352.5l-90 -688q-32 -239 -155.5 -358.5t-370.5 -119.5q-254 0 -366.5 124.5t-82.5 353.5l90 688q32 239 155.5 358t370.5 119zM532 109h13q179 0 264 91.5t111 284.5l84 639q25 188 -45 276.5t-254 88.5h-13q-179 0 -264 -92
t-111 -285l-84 -639q-25 -188 45 -276t254 -88z" />
    <glyph glyph-name="one" unicode="1" horiz-adv-x="1228" 
d="M1024 0h-979l16 135h418l166 1272l-407 -254l-60 113l547 340h92l-192 -1471h417z" />
    <glyph glyph-name="two" unicode="2" horiz-adv-x="1228" 
d="M412 135h620l-18 -135h-1000l13 100l784 725q102 96 149 166t58 160l2 16q18 146 -71 234t-247 88h-14q-173 0 -266.5 -101.5t-122.5 -322.5h-145l6 45q34 249 162.5 379.5t377.5 130.5q239 0 366 -122.5t103 -315.5l-2 -17q-12 -93 -38 -158t-69.5 -118.5t-127.5 -132.5
l-676 -623z" />
    <glyph glyph-name="three" unicode="3" horiz-adv-x="1228" 
d="M215 512q-35 -202 53 -302.5t269 -100.5h12q146 0 253 81t126 232l2 16q20 151 -59.5 231.5t-231.5 80.5h-233l18 131h223q155 0 254 69t117 215l2 17q18 140 -71.5 223.5t-246.5 83.5h-14q-174 0 -267 -101t-122 -323h-145l6 45q34 248 163 379t377 131q241 0 367 -121
t102 -313l-2 -17q-18 -138 -102.5 -231t-208.5 -125q119 -33 180 -134t43 -249l-2 -16q-23 -192 -171 -314.5t-361 -122.5q-267 0 -389.5 137.5t-89.5 368.5l4 29h145z" />
    <glyph glyph-name="four" unicode="4" horiz-adv-x="1228" 
d="M797 0h-146l56 424h-684l12 98l829 1075h142l-138 -1038h267l-21 -135h-262zM829 1354l-614 -797l176 2h332l78 586z" />
    <glyph glyph-name="five" unicode="5" horiz-adv-x="1228" 
d="M70 512h145q-35 -202 53 -302.5t269 -100.5h12q154 0 260.5 92.5t130.5 277.5l2 17q12 94 -8 168.5t-65 121t-107.5 71t-138.5 24.5h-19q-122 0 -220.5 -51.5t-156.5 -157.5l-118 39l155 886h948l-16 -135h-821l-103 -585q52 61 149.5 98t215.5 37q225 0 354 -138.5
t99 -377.5l-3 -17q-30 -241 -176 -371.5t-366 -130.5q-267 0 -389.5 137.5t-89.5 368.5z" />
    <glyph glyph-name="six" unicode="6" horiz-adv-x="1228" 
d="M1171 1620l-18 -135q-91 -10 -162.5 -24.5t-155 -42.5t-162.5 -77t-153 -118q-86 -80 -146.5 -183t-88.5 -204q58 72 162.5 120t207.5 48q229 0 351 -130.5t92 -375.5l-2 -17q-30 -246 -175.5 -375t-369.5 -129q-243 0 -374 158.5t-93 427.5l4 29q64 457 326 719
q86 86 180 146t192.5 92.5t187.5 48t197 22.5zM639 870h-10q-119 0 -217.5 -58.5t-163.5 -158.5q-11 -42 -19 -108q-14 -111 5 -195.5t65 -135.5t108.5 -76t139.5 -25h12q163 0 264 95t123 269l2 17q21 176 -63.5 276t-245.5 100z" />
    <glyph glyph-name="seven" unicode="7" horiz-adv-x="1228" 
d="M152 1024l75 573h1008l-10 -90l-811 -1507h-160l795 1466l-230 -4h-475l-59 -438h-133z" />
    <glyph glyph-name="eight" unicode="8" horiz-adv-x="1228" 
d="M537 -23q-153 0 -267 55t-169.5 156t-39.5 230l2 16q37 296 322 383q-102 26 -168 128.5t-49 236.5l2 16q24 195 157.5 308.5t368.5 113.5q242 0 369.5 -121.5t103.5 -312.5l-2 -17q-18 -138 -102.5 -231t-208.5 -125q121 -34 181 -134.5t42 -248.5l-2 -16
q-23 -192 -172 -314.5t-368 -122.5zM637 750h-45q-155 0 -258 -80t-121 -230l-2 -16q-19 -152 75 -233.5t251 -81.5h12q162 0 260.5 79t118.5 234l2 16q20 151 -61 231.5t-232 80.5zM702 1489h-14q-158 0 -255 -77t-116 -222l-2 -16q-18 -138 65.5 -215.5t225.5 -77.5h41
q155 0 254 69t117 215l2 17q18 140 -72 223.5t-246 83.5z" />
    <glyph glyph-name="nine" unicode="9" horiz-adv-x="1228" 
d="M66 -23l18 136q91 10 162.5 24.5t155 42.5t162.5 77t153 118q86 80 146.5 183t88.5 204q-58 -72 -162.5 -120t-207.5 -48q-229 0 -351 130.5t-92 375.5l2 16q30 246 175.5 375t369.5 129q243 0 374 -158.5t93 -427.5l-4 -28q-64 -457 -326 -719q-86 -86 -180 -146
t-192.5 -93t-187.5 -48.5t-197 -22.5zM598 727h10q119 0 217.5 58.5t163.5 158.5q11 43 19 109q14 111 -5 195.5t-65 135.5t-108.5 76t-139.5 25h-12q-163 0 -264 -95t-123 -270l-2 -16q-21 -176 63.5 -276.5t245.5 -100.5z" />
    <glyph glyph-name="colon" unicode=":" horiz-adv-x="444" 
d="M238 184l-25 -184h-184l24 184h185zM330 891l-25 -184h-184l24 184h185z" />
    <glyph glyph-name="semicolon" unicode=";" horiz-adv-x="444" 
d="M238 184l-21 -153q-38 -275 -266 -275l12 88q64 0 102 35.5t56 120.5h-92l24 184h185zM330 891l-25 -184h-184l24 184h185z" />
    <glyph glyph-name="less" unicode="&#x3c;" horiz-adv-x="1228" 
d="M109 870l1097 482l-20 -154l-936 -405l829 -408l-18 -139l-971 481z" />
    <glyph glyph-name="equal" unicode="=" horiz-adv-x="1228" 
d="M121 940l18 135h1035l-19 -135h-1034zM59 522l19 135h1034l-18 -135h-1035z" />
    <glyph glyph-name="greater" unicode="&#x3e;" horiz-adv-x="1228" 
d="M1122 727l-1097 -481l20 153l936 406l-829 407l18 140l971 -482z" />
    <glyph glyph-name="question" unicode="?" horiz-adv-x="931" 
d="M559 1487q-79 0 -136.5 -31t-94.5 -93t-59 -141t-36 -190h-145l4 29q19 138 50.5 235.5t85 173.5t136.5 113t199 37q373 0 373 -354q0 -93 -22.5 -169.5t-59 -130.5t-81.5 -102t-93.5 -95t-91 -98t-77 -124t-48.5 -160h-96q7 89 34 166t64 133.5t80.5 108.5t85.5 101
t76.5 100.5t55.5 117.5t21 141q0 117 -53 174.5t-172 57.5zM479 184l-24 -184h-185l25 184h184z" />
    <glyph glyph-name="at" unicode="@" horiz-adv-x="1968" 
d="M891 -319h20q185 0 369.5 59t314.5 158l64 -88q-147 -123 -354 -182.5t-404 -59.5q-221 0 -395 67t-287.5 192t-161 310.5t-18.5 415.5l10 82q38 305 185.5 529.5t374 340t507.5 115.5q147 0 273.5 -30t231 -95t174.5 -159t99 -229.5t9 -299.5l-11 -82
q-18 -145 -58.5 -252t-95.5 -173.5t-131.5 -106.5t-157 -55t-181.5 -15h-94l-3 147q-126 -170 -327 -170q-87 0 -154 26.5t-107 72t-65 107t-27.5 132t5.5 146.5l6 45q14 97 48 180.5t90 152t141.5 107.5t191.5 39q108 0 182 -48t109 -124l36 149h111l-51 -307l-72 -545
q59 1 104.5 7t93.5 20t84.5 37t71 60t59.5 87.5t44.5 121t30.5 159.5l10 82q18 149 -8 269t-85.5 199t-149.5 132.5t-193.5 76.5t-223.5 23h-20q-246 0 -446 -102t-330.5 -300.5t-163.5 -469.5l-10 -82q-26 -209 15 -375t140 -274.5t246.5 -165.5t333.5 -57zM1231 821
q-21 41 -50 74.5t-85.5 61.5t-126.5 28q-136 0 -220.5 -96.5t-105.5 -255.5l-6 -45q-23 -164 33 -264.5t192 -100.5q101 0 182 49.5t130 114.5z" />
    <glyph glyph-name="A" unicode="A" horiz-adv-x="1251" 
d="M633 1614h209l250 -1614h-156l-62 410h-585l-168 -410h-162zM719 1452l-375 -909h510z" />
    <glyph glyph-name="B" unicode="B" horiz-adv-x="1200" 
d="M260 1597h418q103 0 183.5 -23t139.5 -71t84.5 -128t12.5 -187l-4 -33q-17 -131 -95 -219t-190 -115q114 -21 183 -124t50 -251l-4 -32q-53 -414 -538 -414h-449zM614 754h-317l-82 -621h301q334 0 371 285l4 33q19 149 -60.5 226t-216.5 77zM668 1464h-277l-76 -577h275
q148 0 241 65t111 207l4 33q18 142 -58.5 207t-219.5 65z" />
    <glyph glyph-name="C" unicode="C" horiz-adv-x="1265" 
d="M276 840l-10 -82q-43 -340 30 -493.5t275 -153.5h15q176 0 271 103t122 306h151l-4 -28q-36 -257 -170.5 -386t-384.5 -129q-280 0 -394 186.5t-62 594.5l10 82q52 410 206.5 595t432.5 185q255 0 366 -137.5t74 -407.5l-8 -59h-152q32 248 -33 359.5t-245 111.5h-14
q-202 0 -318 -154.5t-158 -492.5z" />
    <glyph glyph-name="D" unicode="D" horiz-adv-x="1308" 
d="M1200 840l-10 -82q-95 -758 -721 -758h-418l209 1597h404q119 0 211.5 -25.5t165 -81.5t113 -144.5t55 -214.5t-8.5 -291zM215 133h258q487 0 565 625l11 82q19 171 4 289.5t-70.5 193t-137 108t-196.5 33.5h-258z" />
    <glyph glyph-name="E" unicode="E" horiz-adv-x="1124" 
d="M260 1597h891l-16 -133h-746l-76 -583h641l-18 -131h-641l-80 -617h743l-16 -133h-891z" />
    <glyph glyph-name="F" unicode="F" horiz-adv-x="1050" 
d="M260 1597h858l-16 -133h-713l-76 -583h607l-19 -131h-606l-96 -750h-148z" />
    <glyph glyph-name="G" unicode="G" horiz-adv-x="1327" 
d="M600 -23q-584 0 -485 781l10 82q52 409 210.5 594.5t438.5 185.5q256 0 372 -138t79 -407l-8 -59h-152q32 246 -38 358.5t-251 112.5h-14q-203 0 -323.5 -155.5t-162.5 -491.5l-10 -82q-42 -334 45 -490.5t293 -156.5h14q113 0 203 35t146 87l55 422h-274l16 131h422
l-82 -624q-201 -185 -504 -185z" />
    <glyph glyph-name="H" unicode="H" horiz-adv-x="1308" 
d="M1118 1597h148l-209 -1597h-148l99 750h-711l-98 -750h-148l209 1597h148l-95 -716h711z" />
    <glyph glyph-name="I" unicode="I" horiz-adv-x="471" 
d="M418 1597l-209 -1597h-148l209 1597h148z" />
    <glyph glyph-name="J" unicode="J" horiz-adv-x="1013" 
d="M834 1597h147l-145 -1105q-33 -258 -139.5 -386.5t-313.5 -128.5q-117 0 -197 36.5t-119.5 103.5t-51 162.5t7.5 212.5l4 28h139q-32 -219 18.5 -314t194.5 -95q141 0 212.5 93t100.5 312z" />
    <glyph glyph-name="K" unicode="K" horiz-adv-x="1150" 
d="M408 1597l-115 -866l715 866h182l-565 -673l356 -924h-164l-301 793l-254 -301l-63 -492h-148l209 1597h148z" />
    <glyph glyph-name="L" unicode="L" horiz-adv-x="1005" 
d="M874 0h-823l209 1597h148l-193 -1464h676z" />
    <glyph glyph-name="M" unicode="M" horiz-adv-x="1644" 
d="M1430 1341l-642 -1341h-133l-288 1341l-41 -356l-127 -985h-148l209 1597h203l287 -1343l643 1343h211l-209 -1597h-148l127 985z" />
    <glyph glyph-name="N" unicode="N" horiz-adv-x="1349" 
d="M1307 1597l-209 -1597h-156l-577 1348l-43 -375l-127 -973h-144l209 1597h156l577 -1347l43 375l127 972h144z" />
    <glyph glyph-name="O" unicode="O" horiz-adv-x="1329" 
d="M762 1620q280 0 395 -186.5t64 -593.5l-11 -82q-52 -410 -206 -595.5t-431 -185.5q-279 0 -394.5 187t-63.5 594l10 82q52 410 206 595t431 185zM569 111h15q203 0 318 154.5t157 492.5l10 82q43 341 -29.5 494t-273.5 153h-14q-203 0 -318.5 -154.5t-157.5 -492.5
l-10 -82q-43 -341 29.5 -494t273.5 -153z" />
    <glyph glyph-name="P" unicode="P" horiz-adv-x="1173" 
d="M283 649l-84 -649h-148l209 1597h438q73 0 138 -12t128.5 -44.5t105 -83t60.5 -133.5t3 -189l-7 -41q-16 -106 -56.5 -186.5t-92.5 -128.5t-120.5 -78t-133.5 -41t-139 -11h-301zM301 782h305q46 0 88 6.5t90.5 27.5t85.5 54.5t66.5 93t40.5 138.5l4 31q11 79 -3.5 139.5
t-44.5 96t-74 57.5t-85.5 30t-87.5 8h-297z" />
    <glyph glyph-name="Q" unicode="Q" horiz-adv-x="1329" 
d="M762 1620q280 0 395 -186.5t64 -593.5l-11 -82q-41 -321 -142.5 -502t-272.5 -244l57 -217h-135l-45 189q-58 -7 -99 -7q-279 0 -394.5 187t-63.5 594l10 82q52 410 206 595t431 185zM569 111h15q37 0 55 2l-84 350h127l80 -316q119 56 192 205.5t105 405.5l10 82
q43 341 -29.5 494t-273.5 153h-14q-203 0 -318.5 -154.5t-157.5 -492.5l-10 -82q-43 -341 29.5 -494t273.5 -153z" />
    <glyph glyph-name="R" unicode="R" horiz-adv-x="1196" 
d="M283 649l-84 -649h-148l209 1597h438q73 0 138 -12t128.5 -44.5t105 -83t60.5 -133.5t3 -189l-7 -41q-51 -332 -331 -416l188 -678h-162l-170 651q-23 -2 -67 -2h-301zM301 782h305q46 0 88 6.5t90.5 27.5t85.5 54.5t66.5 93t40.5 138.5l4 31q11 79 -3.5 139.5t-44.5 96
t-74 57.5t-85.5 30t-87.5 8h-297z" />
    <glyph glyph-name="S" unicode="S" horiz-adv-x="1230" 
d="M586 760q-473 83 -420 438l6 41q30 194 167 287.5t361 93.5q272 0 384.5 -137.5t74.5 -397.5l-4 -28h-147q33 222 -45 326t-261 104h-20q-151 0 -247 -64t-113 -188l-5 -31q-18 -130 60.5 -208t286.5 -115q249 -45 353.5 -158t76.5 -297l-7 -41q-30 -205 -175.5 -306.5
t-387.5 -101.5q-255 0 -378.5 135t-88.5 380l4 28h148q-18 -111 -5 -188.5t59 -126.5t110 -71.5t147 -22.5h21q169 0 273 69t124 209l4 31q19 140 -67.5 222.5t-288.5 117.5z" />
    <glyph glyph-name="T" unicode="T" horiz-adv-x="1054" 
d="M692 1464l-192 -1464h-148l193 1464h-406l17 133h960l-16 -133h-408z" />
    <glyph glyph-name="U" unicode="U" horiz-adv-x="1308" 
d="M557 -23q-131 0 -222.5 27.5t-151 88t-79 161t-0.5 242.5l146 1101h147l-143 -1091q-29 -219 44 -307t263 -88q191 0 293.5 89.5t130.5 305.5l143 1091h148l-146 -1101q-36 -279 -174 -399t-399 -120z" />
    <glyph glyph-name="V" unicode="V" horiz-adv-x="1251" 
d="M627 -16h-211l-248 1613h156l217 -1452l598 1452h161z" />
    <glyph glyph-name="W" unicode="W" horiz-adv-x="1832" 
d="M1147 -16l-141 1462l-525 -1462h-200l-88 1613h151l62 -1431l516 1431h198l142 -1431l436 1431h160l-508 -1613h-203z" />
    <glyph glyph-name="X" unicode="X" horiz-adv-x="1255" 
d="M-37 0l576 803l-369 794h168l307 -671l479 671h176l-575 -800l369 -797h-168l-305 672l-482 -672h-176z" />
    <glyph glyph-name="Y" unicode="Y" horiz-adv-x="1181" 
d="M629 483l-64 -483h-147l63 483l-329 1114h153l270 -933l508 933h166z" />
    <glyph glyph-name="Z" unicode="Z" horiz-adv-x="1153" 
d="M-8 102l973 1368l-258 -6h-514l16 133h948l-12 -102l-973 -1368l258 6h555l-16 -133h-989z" />
    <glyph glyph-name="bracketleft" unicode="[" horiz-adv-x="649" 
d="M262 1720h426l-16 -133h-283l-223 -1700h280l-16 -133h-426z" />
    <glyph glyph-name="backslash" unicode="\" horiz-adv-x="673" 
d="M371 -246l-213 1966h139l213 -1966h-139z" />
    <glyph glyph-name="bracketright" unicode="]" horiz-adv-x="649" 
d="M379 -246h-426l16 133h283l223 1700h-280l16 133h426z" />
    <glyph glyph-name="asciicircum" unicode="^" horiz-adv-x="1228" 
d="M795 1597l346 -1032h-142l-292 871l-521 -871h-153l618 1032h144z" />
    <glyph glyph-name="underscore" unicode="_" horiz-adv-x="655" 
d="M-39 -276l19 131h458l-18 -131h-459z" />
    <glyph glyph-name="grave" unicode="`" horiz-adv-x="1024" 
d="M354 1597h156l139 -340h-147z" />
    <glyph glyph-name="a" unicode="a" horiz-adv-x="1048" 
d="M711 0v152q-66 -77 -163 -126t-224 -49q-153 0 -233.5 83.5t-63.5 215.5l4 33q11 83 43.5 140.5t89 91.5t115.5 52t147 32l336 53l6 45q19 136 -30.5 200t-192.5 64q-74 0 -127.5 -20.5t-84 -59t-46.5 -81.5t-23 -99h-137l4 27q8 54 23.5 100.5t47.5 94.5t76 82t114 55.5
t157 21.5q114 0 192 -29t117 -82t52.5 -127t-1.5 -165l-53 -398l-27 -307h-118zM356 102q224 0 355 177l37 286l-320 -51q-227 -36 -250 -197l-4 -28q-11 -77 36 -132t146 -55z" />
    <glyph glyph-name="b" unicode="b" horiz-adv-x="1099" 
d="M393 1638l-88 -667q50 62 130 99.5t177 37.5q144 0 235 -72.5t121.5 -193.5t8.5 -279l-6 -45q-17 -122 -52.5 -218t-92.5 -170t-142 -113.5t-192 -39.5q-114 0 -195.5 55.5t-114.5 125.5l-39 -158h-118l51 307l174 1331h143zM215 283q32 -72 96.5 -124.5t161.5 -52.5
q150 0 237.5 106.5t114.5 301.5l6 45q27 198 -37.5 309t-215.5 111q-176 0 -291 -158z" />
    <glyph glyph-name="c" unicode="c" horiz-adv-x="1069" 
d="M221 571l-6 -45q-27 -197 40 -308.5t224 -111.5q256 0 299 271h140l-5 -27q-12 -76 -39 -138.5t-76 -117.5t-130 -86t-189 -31q-156 0 -257 73.5t-137 194.5t-15 277l6 45q17 121 53.5 217t95.5 170t147.5 114t200.5 40q117 0 202 -36.5t127 -95.5t57 -125.5t4 -135.5
l-5 -27h-137q20 129 -42 210t-206 81q-148 0 -236.5 -106.5t-115.5 -301.5z" />
    <glyph glyph-name="d" unicode="d" horiz-adv-x="1105" 
d="M434 -23q-144 0 -235 73t-121 193.5t-8 278.5l6 45q17 122 52.5 218t92.5 170t142 113.5t192 39.5q59 0 111 -16t88 -41t60 -50t38 -49l90 686h143l-176 -1343l-26 -295h-123v137q-52 -73 -139 -116.5t-187 -43.5zM573 979q-150 0 -237.5 -106.5t-114.5 -301.5l-6 -45
q-27 -198 38.5 -309t215.5 -111q176 0 293 156l69 539q-32 72 -96.5 125t-161.5 53z" />
    <glyph glyph-name="e" unicode="e" horiz-adv-x="1114" 
d="M977 483h-766q-40 -377 291 -377q78 0 138.5 21t97 56.5t57 76.5t26.5 88h137l-4 -26q-10 -62 -42.5 -121t-86.5 -110.5t-139 -82.5t-188 -31q-106 0 -187.5 28t-131.5 77.5t-80.5 118t-34.5 149.5t6 172l6 45q16 119 56 216t102.5 170.5t154 114t203.5 40.5
q97 0 171.5 -26t121.5 -74.5t75.5 -116t33 -150t-6.5 -178.5zM592 979q-147 0 -245 -104t-122 -273h623q25 183 -38.5 280t-217.5 97z" />
    <glyph glyph-name="f" unicode="f" horiz-adv-x="778" 
d="M453 1331l-33 -246h303l-16 -129h-304l-124 -956h-144l125 956h-172l16 129h172l37 275q40 301 359 301q97 0 147 -25l-16 -123q-15 7 -52.5 13t-70.5 6q-101 0 -157 -44.5t-70 -156.5z" />
    <glyph glyph-name="g" unicode="g" horiz-adv-x="1099" 
d="M723 -6l25 199q-50 -62 -131 -100t-179 -38q-89 0 -158.5 26t-112.5 72.5t-70 110t-31 139.5t6 160l6 45q15 113 49.5 202.5t91 157t141 104t191.5 36.5q114 0 196.5 -55t114.5 -125l39 157h119l-51 -307l-105 -794q-53 -416 -465 -416q-115 0 -198 31.5t-126 87.5
t-57.5 128t-1.5 158l4 27h134q-25 -154 35.5 -228.5t209.5 -74.5q160 0 232 72t92 225zM768 342l61 461q-30 71 -95.5 123.5t-162.5 52.5q-297 0 -348 -367l-6 -45q-25 -181 39.5 -282t218.5 -101q175 0 293 158z" />
    <glyph glyph-name="h" unicode="h" horiz-adv-x="1081" 
d="M391 1638l-90 -686q55 69 143.5 112.5t198.5 43.5q172 0 251 -94.5t58 -253.5l-100 -760h-143l98 739q17 120 -39 180t-174 60q-187 0 -311 -170l-107 -809h-143l215 1638h143z" />
    <glyph glyph-name="i" unicode="i" horiz-adv-x="442" 
d="M49 0l141 1085h144l-141 -1085h-144zM414 1526l-25 -185h-184l24 185h185z" />
    <glyph glyph-name="j" unicode="j" horiz-adv-x="442" 
d="M37 -100l153 1185h144l-158 -1214q-40 -303 -356 -303q-100 0 -148 24l17 125q15 -7 52.5 -13.5t70.5 -6.5q100 0 155.5 45t69.5 158zM414 1526l-25 -185h-184l24 185h185z" />
    <glyph glyph-name="k" unicode="k" horiz-adv-x="1026" 
d="M33 0l215 1638h143l-147 -1118l585 565h183l-428 -409l286 -676h-155l-240 573l-258 -249l-41 -324h-143z" />
    <glyph glyph-name="l" unicode="l" horiz-adv-x="442" 
d="M49 0l215 1638h144l-215 -1638h-144z" />
    <glyph glyph-name="m" unicode="m" horiz-adv-x="1648" 
d="M1425 0h-143l100 766q14 113 -35 163t-153 50q-90 0 -166 -50t-121 -114l-106 -815h-144l101 766q14 113 -35.5 163t-153.5 50q-90 0 -164.5 -49.5t-121.5 -114.5l-107 -815h-143l104 791l27 294h123v-145q56 74 140.5 121t190.5 47q117 0 187.5 -48.5t91.5 -131.5
q62 80 150.5 130t195.5 50q150 0 227.5 -83.5t57.5 -238.5z" />
    <glyph glyph-name="n" unicode="n" horiz-adv-x="1081" 
d="M852 0h-143l98 739q17 120 -39 180t-174 60q-187 0 -311 -170l-107 -809h-143l104 791l27 294h123v-151q59 81 150 127.5t206 46.5q172 0 251 -94.5t58 -253.5z" />
    <glyph glyph-name="o" unicode="o" horiz-adv-x="1114" 
d="M475 106q150 0 242 107t119 301l6 45q27 198 -38.5 309t-223.5 111q-150 0 -241 -107t-118 -301l-6 -45q-27 -199 37.5 -309.5t222.5 -110.5zM475 -23q-119 0 -206 42t-134.5 116.5t-64 172.5t-0.5 214l6 45q17 120 54.5 217t98 170.5t150 113.5t201.5 40
q119 0 206.5 -42t135.5 -116.5t64.5 -172.5t0.5 -214l-6 -45q-17 -120 -55 -217t-98.5 -170.5t-150.5 -113.5t-202 -40z" />
    <glyph glyph-name="p" unicode="p" horiz-adv-x="1099" 
d="M612 1108q144 0 235 -72.5t121.5 -193.5t8.5 -279l-6 -45q-17 -122 -52.5 -218t-92.5 -170t-142 -113.5t-192 -39.5q-59 0 -111 16t-88 41t-60 50t-38 49l-72 -543h-143l157 1201l27 294h123v-137q52 73 138.5 116.5t186.5 43.5zM473 106q150 0 237.5 106.5t114.5 301.5
l6 45q27 198 -38 309t-215 111q-176 0 -293 -156l-70 -538q32 -72 96.5 -125.5t161.5 -53.5z" />
    <glyph glyph-name="q" unicode="q" horiz-adv-x="1103" 
d="M670 -410l69 525q-50 -62 -130 -100t-177 -38q-144 0 -235 73t-121 193.5t-8 278.5l6 45q17 122 52.5 218t92.5 170t142 113.5t192 39.5q114 0 195 -55t114 -125l39 157h119l-51 -307l-156 -1188h-143zM758 264l71 539q-32 72 -96.5 124t-161.5 52q-150 0 -237.5 -106.5
t-114.5 -301.5l-6 -45q-27 -198 38 -309t216 -111q176 0 291 158z" />
    <glyph glyph-name="r" unicode="r" horiz-adv-x="681" 
d="M608 1108l29 -2l-16 -141h-29q-76 0 -142 -29t-103 -64.5t-66 -78.5l-105 -793h-143l104 791l27 294h123v-141q53 74 134.5 119t186.5 45z" />
    <glyph glyph-name="s" unicode="s" horiz-adv-x="1069" 
d="M455 106q146 0 217 54t71 164q0 79 -60 116t-204 58q-199 27 -280 103t-66 204l2 16q17 135 126 211t292 76q222 0 316 -93.5t69 -252.5l-4 -27h-139q16 122 -39 183t-203 61q-277 0 -277 -205q0 -72 59 -107.5t210 -54.5q189 -22 274.5 -99t67.5 -220l-2 -17
q-18 -137 -128.5 -218t-301.5 -81q-117 0 -202 26.5t-129.5 73t-60.5 103.5t-6 125l4 27h142q-15 -109 42 -167.5t210 -58.5z" />
    <glyph glyph-name="t" unicode="t" horiz-adv-x="819" 
d="M420 1085h344l-16 -129h-345l-84 -639q-16 -120 27.5 -165.5t134.5 -45.5q80 0 137 19l-16 -125q-69 -23 -141 -23q-155 0 -232 79t-55 247l86 653h-172l16 129h172l41 308h144z" />
    <glyph glyph-name="u" unicode="u" horiz-adv-x="1081" 
d="M168 1085h143l-98 -739q-17 -120 39 -180t174 -60q187 0 311 170l107 809h143l-104 -790l-27 -295h-123v152q-59 -81 -150 -128t-206 -47q-172 0 -251 95t-58 254z" />
    <glyph glyph-name="v" unicode="v" horiz-adv-x="1048" 
d="M330 0l-238 1085h150l194 -950l447 950h157l-522 -1085h-188z" />
    <glyph glyph-name="w" unicode="w" horiz-adv-x="1468" 
d="M754 926l-369 -926h-188l-93 1085h142l67 -935l373 935h174l129 -935l311 935h146l-375 -1085h-190z" />
    <glyph glyph-name="x" unicode="x" horiz-adv-x="993" 
d="M88 1085h166l225 -430l334 430h174l-436 -544l295 -541h-166l-225 430l-334 -430h-174l434 547z" />
    <glyph glyph-name="y" unicode="y" horiz-adv-x="991" 
d="M430 197l426 888h160l-527 -1044l-213 -451h-165l229 451l-252 1044h148z" />
    <glyph glyph-name="z" unicode="z" horiz-adv-x="948" 
d="M-16 98l708 860l-241 -2h-334l16 129h760l-12 -98l-709 -860l242 2h374l-16 -129h-801z" />
    <glyph glyph-name="braceleft" unicode="{" horiz-adv-x="649" 
d="M688 1720l-16 -133q-105 0 -155.5 -46t-67.5 -171l-56 -424q-12 -84 -49.5 -134t-105.5 -75q62 -27 86 -76t14 -135l-55 -424q-10 -53 -6.5 -90.5t12.5 -62t32 -38t52 -19t73 -5.5l-16 -133h-37q-61 0 -110.5 15.5t-88.5 48t-56 92t-7 139.5l57 440q14 107 -21 144
t-130 37l16 135q95 0 141 36.5t60 143.5l59 453q10 81 43 138.5t81.5 87.5t100.5 43t113 13h37z" />
    <glyph glyph-name="bar" unicode="|" horiz-adv-x="411" 
d="M2 -246l258 1966h143l-258 -1966h-143z" />
    <glyph glyph-name="braceright" unicode="}" horiz-adv-x="649" 
d="M-47 -246l16 133q105 0 156 46t68 171l55 424q12 84 49.5 134t105.5 75q-62 27 -86 76t-14 135l55 424q10 53 6.5 90.5t-12.5 62t-32 38t-51.5 19t-73.5 5.5l16 133h37q61 0 110.5 -15.5t88.5 -48t56 -92t7 -139.5l-57 -440q-14 -107 21 -143.5t130 -36.5l-16 -135
q-95 0 -141 -37t-60 -144l-59 -452q-10 -81 -43 -138.5t-81.5 -88t-100.5 -43.5t-113 -13h-37z" />
    <glyph glyph-name="asciitilde" unicode="~" horiz-adv-x="1228" 
d="M369 924q73 0 144 -23t117.5 -50t110 -50t123.5 -23q126 0 217 115l78 -82q-46 -66 -121 -111t-174 -45q-73 0 -144 23t-117.5 50t-110 50t-123.5 23q-126 0 -217 -115l-78 82q46 66 121 111t174 45z" />
    <glyph glyph-name="nbspace" unicode="&#xa0;" horiz-adv-x="409" 
 />
    <glyph glyph-name="exclamdown" unicode="&#xa1;" horiz-adv-x="444" 
d="M154 -410h-174l186 1108h94zM147 901l25 184h184l-24 -184h-185z" />
    <glyph glyph-name="cent" unicode="&#xa2;" horiz-adv-x="1228" 
d="M1016 1720l-96 -258q88 -30 142.5 -99t71 -160t-0.5 -199l-5 -27h-143q40 275 -115 350l-397 -1071q36 -10 98 -10h7q311 0 354 332h145l-4 -29q-30 -208 -155 -322t-345 -114q-79 0 -147 14l-92 -250h-125l106 291q-247 142 -190 590l10 82q40 320 189.5 484.5
t396.5 164.5q56 0 80 -4l88 235h127zM287 840l-11 -82q-42 -324 93 -447l385 1041q-21 2 -29 2h-6q-369 0 -432 -514z" />
    <glyph glyph-name="sterling" unicode="&#xa3;" horiz-adv-x="1228" 
d="M750 1487q-318 0 -318 -445q0 -71 14 -190h410l-18 -133h-375q1 -10 8.5 -68t9.5 -75t8 -69.5t7.5 -76.5t4.5 -70.5t3.5 -77.5t-0.5 -71t-4 -76h532l-18 -135h-1000l17 135h338q4 74 -1.5 159t-12.5 136.5t-23 152.5t-21 136h-205l19 133h164q-8 98 -8 207
q0 125 25.5 224t79.5 176.5t146 119t218 41.5q129 0 219 -39.5t135.5 -110.5t61.5 -169.5t-3 -217.5l-8 -59h-143q71 463 -262 463z" />
    <glyph glyph-name="yen" unicode="&#xa5;" horiz-adv-x="1228" 
d="M100 848l19 135h233l-209 614h156l299 -905l535 905h170l-371 -614h235l-18 -135h-295l-170 -275h428l-16 -135h-451l-57 -438h-148l58 438h-451l16 135h426l-96 275h-293z" />
    <glyph glyph-name="brokenbar" unicode="&#xa6;" horiz-adv-x="411" 
d="M141 811l119 909h143l-118 -909h-144zM2 -246l119 910h143l-119 -910h-143z" />
    <glyph glyph-name="section" unicode="&#xa7;" horiz-adv-x="1050" 
d="M498 592h22q143 0 225 68t82 176q0 86 -73 128t-193 42h-22q-144 0 -226 -67.5t-82 -176.5q0 -86 73.5 -128t193.5 -42zM707 530q69 -25 107.5 -89t27.5 -160l-2 -17q-18 -139 -122.5 -213t-295.5 -74q-222 0 -316 94t-69 253l4 26h139q-16 -122 39 -183t203 -61
q276 0 276 205q0 72 -58.5 107.5t-209.5 54.5q-188 24 -273 102t-67 222l2 16q12 97 73.5 159t186.5 95q-69 25 -107.5 89.5t-27.5 160.5l2 16q18 139 122.5 213t295.5 74q222 0 316 -93.5t69 -252.5l-4 -27h-139q16 122 -39 183t-203 61q-277 0 -277 -205q0 -72 59 -107.5
t210 -54.5q188 -24 273 -101.5t67 -221.5l-2 -17q-12 -97 -73.5 -159t-186.5 -95z" />
    <glyph glyph-name="dieresis" unicode="&#xa8;" horiz-adv-x="1024" 
d="M532 1526l-24 -185h-184l24 185h184zM874 1526l-24 -185h-184l24 185h184z" />
    <glyph glyph-name="copyright" unicode="&#xa9;" horiz-adv-x="1884" 
d="M121 799q0 167 65 319t175 262t262 175t319 65t319 -65t262 -175t175 -262t65 -319t-65 -319t-175 -262.5t-262 -175.5t-319 -65t-319 65t-262 175.5t-175 262.5t-65 319zM209 799q0 -200 98 -368.5t266.5 -266.5t368.5 -98t368.5 98t266.5 266.5t98 368.5t-98 368.5
t-266.5 266.5t-368.5 98t-368.5 -98t-266.5 -266.5t-98 -368.5zM944 422q72 0 124.5 20t79.5 53.5t39.5 68.5t12.5 73h133v-27q0 -40 -12 -81t-41.5 -83.5t-73 -75.5t-112 -54t-152.5 -21q-111 0 -196 42.5t-133.5 113.5t-72.5 152.5t-24 170.5v49q0 70 14.5 136.5t47 129.5
t80.5 110t121.5 75.5t162.5 28.5q84 0 152.5 -22t112 -56t73 -78.5t41.5 -87.5t12 -84v-35h-133q0 47 -13 87t-41.5 74.5t-80 54.5t-121.5 20q-76 0 -133.5 -30t-90.5 -81.5t-49 -112.5t-16 -129v-49q0 -68 16 -129t49 -112t90.5 -81t133.5 -30z" />
    <glyph glyph-name="ordfeminine" unicode="&#xaa;" horiz-adv-x="798" 
d="M614 795v108q-37 -53 -115 -90t-165 -37q-124 0 -181.5 65.5t-41.5 168.5l4 26q9 58 33 99t64.5 66.5t87.5 40t114 24.5l237 34l4 27q14 91 -22 138.5t-133 47.5t-139 -47t-54 -131h-125l4 27q7 51 26 93.5t53.5 81.5t94.5 61t140 22q91 0 153 -23t91 -64t39.5 -98
t-1.5 -124l-39 -289l-20 -227h-109zM369 887q75 0 141.5 35.5t101.5 76.5l27 213l-221 -34q-79 -12 -122.5 -47t-53.5 -99l-4 -26q-9 -58 23.5 -88.5t107.5 -30.5zM676 434h-625l17 117h624z" />
    <glyph glyph-name="guillemotleft" unicode="&#xab;" horiz-adv-x="1058" 
d="M559 1073l-18 -149l-336 -232l274 -233l-18 -137l-377 313l16 127zM995 1073l-18 -149l-336 -232l274 -233l-18 -137l-377 313l17 127z" />
    <glyph glyph-name="logicalnot" unicode="&#xac;" horiz-adv-x="1228" 
d="M129 1006l18 135h1031l-93 -705h-139l76 570h-893z" />
    <glyph glyph-name="uni00AD" unicode="&#xad;" horiz-adv-x="673" 
d="M573 651h-507l18 131h508z" />
    <glyph glyph-name="registered" unicode="&#xae;" horiz-adv-x="675" 
d="M39 1362q0 123 88 211t211 88t211 -88t88 -211t-88 -211t-211 -88t-211 88t-88 211zM88 1362q0 -103 73.5 -176.5t176.5 -73.5t176.5 73.5t73.5 176.5t-73.5 176.5t-176.5 73.5t-176.5 -73.5t-73.5 -176.5zM469 1419q0 -73 -61 -96l61 -137h-74l-55 129h-61v-129h-72v352
h147q52 0 83.5 -26.5t31.5 -77.5v-15zM397 1430q0 47 -57 47h-61v-103h61q57 0 57 49v7z" />
    <glyph glyph-name="macron" unicode="&#xaf;" horiz-adv-x="1024" 
d="M350 1360l19 135h477l-17 -135h-479z" />
    <glyph glyph-name="degree" unicode="&#xb0;" horiz-adv-x="819" 
d="M451 1102h16q91 0 148 46.5t67 145.5l2 19q9 89 -38 142.5t-138 53.5h-16q-91 0 -148.5 -47t-67.5 -145l-2 -19q-9 -89 38.5 -142.5t138.5 -53.5zM500 1620q148 0 230 -82t65 -225l-2 -19q-17 -147 -106 -225t-228 -78q-148 0 -230 82t-65 225l2 19q17 147 106 225
t228 78z" />
    <glyph glyph-name="plusminus" unicode="&#xb1;" horiz-adv-x="1228" 
d="M621 1329h137l-39 -287h448l-18 -135h-449l-38 -286h-138l39 286h-448l18 135h449zM39 330l18 135h1035l-19 -135h-1034z" />
    <glyph glyph-name="twosuperior" unicode="&#xb2;" 
d="M582 899l-15 -100h-512l11 82l372 344q43 40 62.5 69.5t23.5 65.5l2 16q9 66 -23.5 98.5t-92.5 32.5h-13q-141 0 -157 -176h-115l6 45q33 234 272 234q132 0 191.5 -64.5t48.5 -161.5l-2 -16q-7 -60 -35 -102.5t-84 -94.5l-295 -272h355z" />
    <glyph glyph-name="threesuperior" unicode="&#xb3;" 
d="M199 1055q-27 -168 116 -168h15q135 0 151 121l2 16q7 64 -23 97.5t-91 33.5h-113l12 102h111q133 0 147 111l2 16q7 62 -25.5 92.5t-92.5 30.5h-13q-141 0 -157 -176h-115l6 45q33 234 272 234q128 0 190.5 -61.5t51.5 -155.5l-2 -17q-7 -67 -46.5 -114t-94.5 -56
q52 -13 78.5 -64.5t17.5 -119.5l-2 -16q-12 -97 -85 -159.5t-189 -62.5q-274 0 -242 254l2 17h117z" />
    <glyph glyph-name="acute" unicode="&#xb4;" horiz-adv-x="1024" 
d="M731 1597h156l-238 -340h-147z" />
    <glyph glyph-name="paragraph" unicode="&#xb6;" horiz-adv-x="1050" 
d="M117 1112l6 41q67 444 543 444h356l-209 -1597h-147l192 1464h-84l-190 -1464h-148l84 649q-65 0 -125.5 13.5t-119 48t-98.5 85.5t-57.5 132.5t-2.5 183.5zM272 1145l-4 -31q-10 -75 1 -133.5t36.5 -95t64.5 -60.5t80.5 -33.5t88.5 -9.5l88 682q-43 0 -84 -7.5t-87 -29
t-82 -55.5t-64 -92.5t-38 -134.5z" />
    <glyph glyph-name="periodcentered" unicode="&#xb7;" horiz-adv-x="444" 
d="M319 809l-24 -184h-184l24 184h184z" />
    <glyph glyph-name="cedilla" unicode="&#xb8;" horiz-adv-x="1232" 
d="M174 -377l41 74q62 -43 145 -43q127 0 127 80q0 69 -112 69l-64 -6l-26 39l84 164h94l-64 -119h9q75 -2 125.5 -35t50.5 -106q0 -87 -60.5 -129.5t-161.5 -42.5q-56 0 -107 16t-81 39z" />
    <glyph glyph-name="onesuperior" unicode="&#xb9;" 
d="M571 799h-501l14 100h192l74 553l-174 -109l-45 87l270 169h82l-92 -700h195z" />
    <glyph glyph-name="ordmasculine" unicode="&#xba;" horiz-adv-x="856" 
d="M270 1210l-4 -26q-22 -140 23.5 -216.5t161.5 -76.5q104 0 162.5 72t82.5 223l4 26q22 140 -23 216.5t-161 76.5q-105 0 -163.5 -72t-82.5 -223zM53 434l17 117h661l-16 -117h-662zM135 1184l4 26q30 195 127 302.5t254 107.5q190 0 265 -108.5t46 -299.5l-4 -26
q-30 -195 -127 -302.5t-254 -107.5q-190 0 -265 108.5t-46 299.5z" />
    <glyph glyph-name="guillemotright" unicode="&#xbb;" horiz-adv-x="1058" 
d="M43 322l18 149l336 231l-274 234l18 137l377 -313l-16 -127zM479 322l19 149l336 231l-275 234l19 137l376 -313l-16 -127z" />
    <glyph glyph-name="onequarter" unicode="&#xbc;" horiz-adv-x="1638" 
d="M571 799h-501l14 100h192l74 553l-174 -109l-45 87l270 169h82l-92 -700h195zM203 0h-144l1389 1597h143zM1397 0h-115l27 195h-332l10 81l399 523h115l-65 -504h110l-14 -100h-111zM1364 608l-242 -315l74 2h125l31 227z" />
    <glyph glyph-name="onehalf" unicode="&#xbd;" horiz-adv-x="1638" 
d="M571 799h-501l14 100h192l74 553l-174 -109l-45 87l270 169h82l-92 -700h195zM203 0h-144l1389 1597h143zM1501 100l-14 -100h-512l10 82l373 344q43 40 62.5 69.5t23.5 65.5l2 17q9 66 -23.5 98.5t-93.5 32.5h-12q-66 0 -107.5 -42.5t-50.5 -134.5h-115l7 46
q33 233 272 233q132 0 191.5 -64t48.5 -161l-2 -17q-7 -60 -35 -102t-84 -94l-295 -273h354z" />
    <glyph glyph-name="threequarters" unicode="&#xbe;" horiz-adv-x="1638" 
d="M199 1055q-27 -168 116 -168h15q135 0 151 121l2 16q7 64 -23 97.5t-91 33.5h-113l12 102h111q133 0 147 111l2 16q7 62 -25.5 92.5t-92.5 30.5h-13q-141 0 -157 -176h-115l6 45q33 234 272 234q128 0 190.5 -61.5t51.5 -155.5l-2 -17q-7 -67 -46.5 -114t-94.5 -56
q52 -13 78.5 -64.5t17.5 -119.5l-2 -16q-12 -97 -85 -159.5t-189 -62.5q-274 0 -242 254l2 17h117zM203 0h-144l1389 1597h143zM1397 0h-115l27 195h-332l10 81l399 523h115l-65 -504h110l-14 -100h-111zM1364 608l-242 -315l74 2h125l31 227z" />
    <glyph glyph-name="questiondown" unicode="&#xbf;" horiz-adv-x="931" 
d="M317 -299q148 0 225.5 103.5t102.5 318.5h148l-5 -29q-38 -270 -146 -398t-327 -128q-191 0 -280.5 87t-89.5 243q0 91 22 163t58 119.5t80.5 88.5t92.5 81t90 84.5t76 112t48 151.5h94q-7 -85 -33.5 -158t-63 -125t-79.5 -98.5t-84.5 -90t-75.5 -88.5t-55 -103.5
t-21 -126.5q0 -207 223 -207zM395 901l25 184h184l-24 -184h-185z" />
    <glyph glyph-name="Agrave" unicode="&#xc0;" horiz-adv-x="1251" 
d="M580 1946h151l92 -226h-147zM633 1614h209l250 -1614h-156l-62 410h-585l-168 -410h-162zM719 1452l-375 -909h510z" />
    <glyph glyph-name="Aacute" unicode="&#xc1;" horiz-adv-x="1251" 
d="M829 1946h152l-158 -226h-147zM633 1614h209l250 -1614h-156l-62 410h-585l-168 -410h-162zM719 1452l-375 -909h510z" />
    <glyph glyph-name="Acircumflex" unicode="&#xc2;" horiz-adv-x="1251" 
d="M1032 1720h-137l-117 142l-160 -142h-151l248 226h131zM633 1614h209l250 -1614h-156l-62 410h-585l-168 -410h-162zM719 1452l-375 -909h510z" />
    <glyph glyph-name="Atilde" unicode="&#xc3;" horiz-adv-x="1251" 
d="M987 1917h98q-10 -95 -62.5 -143t-127.5 -48q-41 0 -81 18.5t-65.5 41t-57 41t-58.5 18.5q-38 0 -63 -23.5t-29 -72.5h-99q10 95 63 142.5t128 47.5q41 0 81 -18.5t65.5 -40.5t57 -40.5t58.5 -18.5q38 0 63 23.5t29 72.5zM633 1614h209l250 -1614h-156l-62 410h-585
l-168 -410h-162zM719 1452l-375 -909h510z" />
    <glyph glyph-name="Adieresis" unicode="&#xc4;" horiz-adv-x="1251" 
d="M694 1905l-18 -144h-162l18 144h162zM1014 1905l-19 -144h-161l18 144h162zM633 1614h209l250 -1614h-156l-62 410h-585l-168 -410h-162zM719 1452l-375 -909h510z" />
    <glyph glyph-name="Aring" unicode="&#xc5;" horiz-adv-x="1251" 
d="M952 1790q0 -60 -29.5 -107.5t-80.5 -74.5l250 -1608h-156l-62 410h-585l-168 -410h-162l674 1612q-72 51 -72 149q0 88 62 147.5t151 59.5q83 0 130.5 -49.5t47.5 -128.5zM719 1452l-375 -909h510zM739 1661q56 0 94.5 33t38.5 96q0 44 -26 72t-72 28q-56 0 -94.5 -33
t-38.5 -96q0 -44 26 -72t72 -28z" />
    <glyph glyph-name="AE" unicode="&#xc6;" horiz-adv-x="1714" 
d="M741 1597h1000l-17 -133h-772l6 -583h584l-16 -131h-565l6 -617h581l-16 -133h-715l-4 426h-506l-209 -426h-157zM805 1440l-432 -883h438z" />
    <glyph glyph-name="Ccedilla" unicode="&#xc7;" horiz-adv-x="1265" 
d="M276 840l-10 -82q-43 -340 30 -493.5t275 -153.5h15q176 0 271 103t122 306h151l-4 -28q-34 -244 -157 -372t-351 -140l-51 -99h8q75 -2 126 -35t51 -106q0 -87 -60.5 -129.5t-161.5 -42.5q-56 0 -107 16t-81 39l41 74q62 -43 145 -43q127 0 127 80q0 69 -112 69l-64 -6
l-26 39l71 144q-255 14 -357 200.5t-52 577.5l10 82q52 410 206.5 595t432.5 185q255 0 366 -137.5t74 -407.5l-8 -59h-152q32 248 -33 359.5t-245 111.5h-14q-202 0 -318 -154.5t-158 -492.5z" />
    <glyph glyph-name="Egrave" unicode="&#xc8;" horiz-adv-x="1124" 
d="M567 1946h152l92 -226h-147zM260 1597h891l-16 -133h-746l-76 -583h641l-18 -131h-641l-80 -617h743l-16 -133h-891z" />
    <glyph glyph-name="Eacute" unicode="&#xc9;" horiz-adv-x="1124" 
d="M817 1946h152l-158 -226h-147zM260 1597h891l-16 -133h-746l-76 -583h641l-18 -131h-641l-80 -617h743l-16 -133h-891z" />
    <glyph glyph-name="Ecircumflex" unicode="&#xca;" horiz-adv-x="1124" 
d="M1020 1720h-137l-117 142l-160 -142h-151l247 226h132zM260 1597h891l-16 -133h-746l-76 -583h641l-18 -131h-641l-80 -617h743l-16 -133h-891z" />
    <glyph glyph-name="Edieresis" unicode="&#xcb;" horiz-adv-x="1124" 
d="M682 1905l-18 -144h-162l18 144h162zM1001 1905l-18 -144h-162l19 144h161zM260 1597h891l-16 -133h-746l-76 -583h641l-18 -131h-641l-80 -617h743l-16 -133h-891z" />
    <glyph glyph-name="Igrave" unicode="&#xcc;" horiz-adv-x="468" 
d="M190 1946h152l92 -226h-147zM418 1597l-209 -1597h-148l209 1597h148z" />
    <glyph glyph-name="Iacute" unicode="&#xcd;" horiz-adv-x="468" 
d="M440 1946h152l-158 -226h-147zM418 1597l-209 -1597h-148l209 1597h148z" />
    <glyph glyph-name="Icircumflex" unicode="&#xce;" horiz-adv-x="468" 
d="M643 1720h-137l-117 142l-160 -142h-151l248 226h131zM418 1597l-209 -1597h-148l209 1597h148z" />
    <glyph glyph-name="Idieresis" unicode="&#xcf;" horiz-adv-x="468" 
d="M305 1905l-18 -144h-162l18 144h162zM625 1905l-19 -144h-162l19 144h162zM418 1597l-209 -1597h-148l209 1597h148z" />
    <glyph glyph-name="Eth" unicode="&#xd0;" horiz-adv-x="1431" 
d="M1323 840l-10 -82q-95 -758 -721 -758h-418l98 750h-237l18 131h236l94 716h403q119 0 212 -25.5t165.5 -81.5t113 -144.5t55 -214.5t-8.5 -291zM338 133h258q487 0 565 625l10 82q19 171 4 289.5t-70 193t-136.5 108t-196.5 33.5h-258l-78 -583h438l-18 -131h-436z" />
    <glyph glyph-name="Ntilde" unicode="&#xd1;" horiz-adv-x="1349" 
d="M1036 1917h99q-10 -95 -63 -143t-128 -48q-41 0 -81 18.5t-65.5 41t-57 41t-58.5 18.5q-38 0 -63 -23.5t-29 -72.5h-98q10 95 62.5 142.5t127.5 47.5q41 0 81 -18.5t65.5 -40.5t57 -40.5t58.5 -18.5q38 0 63 23.5t29 72.5zM1307 1597l-209 -1597h-156l-577 1348l-43 -375
l-127 -973h-144l209 1597h156l577 -1347l43 375l127 972h144z" />
    <glyph glyph-name="Ograve" unicode="&#xd2;" horiz-adv-x="1329" 
d="M618 1946h152l92 -226h-147zM762 1620q280 0 395 -186.5t64 -593.5l-11 -82q-52 -410 -206 -595.5t-431 -185.5q-279 0 -394.5 187t-63.5 594l10 82q52 410 206 595t431 185zM569 111h15q203 0 318 154.5t157 492.5l10 82q43 341 -29.5 494t-273.5 153h-14
q-203 0 -318.5 -154.5t-157.5 -492.5l-10 -82q-43 -341 29.5 -494t273.5 -153z" />
    <glyph glyph-name="Oacute" unicode="&#xd3;" horiz-adv-x="1329" 
d="M868 1946h152l-158 -226h-147zM762 1620q280 0 395 -186.5t64 -593.5l-11 -82q-52 -410 -206 -595.5t-431 -185.5q-279 0 -394.5 187t-63.5 594l10 82q52 410 206 595t431 185zM569 111h15q203 0 318 154.5t157 492.5l10 82q43 341 -29.5 494t-273.5 153h-14
q-203 0 -318.5 -154.5t-157.5 -492.5l-10 -82q-43 -341 29.5 -494t273.5 -153z" />
    <glyph glyph-name="Ocircumflex" unicode="&#xd4;" horiz-adv-x="1329" 
d="M1071 1720h-137l-117 142l-160 -142h-151l248 226h131zM762 1620q280 0 395 -186.5t64 -593.5l-11 -82q-52 -410 -206 -595.5t-431 -185.5q-279 0 -394.5 187t-63.5 594l10 82q52 410 206 595t431 185zM569 111h15q203 0 318 154.5t157 492.5l10 82q43 341 -29.5 494
t-273.5 153h-14q-203 0 -318.5 -154.5t-157.5 -492.5l-10 -82q-43 -341 29.5 -494t273.5 -153z" />
    <glyph glyph-name="Otilde" unicode="&#xd5;" horiz-adv-x="1329" 
d="M1026 1917h98q-10 -95 -62.5 -143t-127.5 -48q-41 0 -81 18.5t-65.5 41t-57 41t-58.5 18.5q-38 0 -63 -23.5t-29 -72.5h-99q10 95 63 142.5t128 47.5q41 0 81 -18.5t65.5 -40.5t57 -40.5t58.5 -18.5q38 0 63 23.5t29 72.5zM762 1620q280 0 395 -186.5t64 -593.5l-11 -82
q-52 -410 -206 -595.5t-431 -185.5q-279 0 -394.5 187t-63.5 594l10 82q52 410 206 595t431 185zM569 111h15q203 0 318 154.5t157 492.5l10 82q43 341 -29.5 494t-273.5 153h-14q-203 0 -318.5 -154.5t-157.5 -492.5l-10 -82q-43 -341 29.5 -494t273.5 -153z" />
    <glyph glyph-name="Odieresis" unicode="&#xd6;" horiz-adv-x="1329" 
d="M733 1905l-18 -144h-162l18 144h162zM1053 1905l-19 -144h-162l19 144h162zM762 1620q280 0 395 -186.5t64 -593.5l-11 -82q-52 -410 -206 -595.5t-431 -185.5q-279 0 -394.5 187t-63.5 594l10 82q52 410 206 595t431 185zM569 111h15q203 0 318 154.5t157 492.5l10 82
q43 341 -29.5 494t-273.5 153h-14q-203 0 -318.5 -154.5t-157.5 -492.5l-10 -82q-43 -341 29.5 -494t273.5 -153z" />
    <glyph glyph-name="multiply" unicode="&#xd7;" horiz-adv-x="1228" 
d="M100 258l-84 96l504 445l-385 444l109 96l387 -442l499 442l87 -96l-502 -444l385 -445l-111 -96l-385 442z" />
    <glyph glyph-name="Oslash" unicode="&#xd8;" horiz-adv-x="1306" 
d="M115 758l10 82q52 410 206 595t431 185q229 0 346 -123l74 100h139l-145 -198q93 -194 45 -559l-11 -82q-52 -410 -206 -595.5t-431 -185.5q-229 0 -346 123l-73 -100h-140l146 199q-93 194 -45 559zM268 346l750 1028q-74 113 -252 113h-14q-203 0 -318.5 -154.5
t-157.5 -492.5l-10 -82q-35 -262 2 -412zM1067 1251l-750 -1028q73 -112 252 -112h15q203 0 318 154.5t157 492.5l10 82q35 262 -2 411z" />
    <glyph glyph-name="Ugrave" unicode="&#xd9;" horiz-adv-x="1308" 
d="M608 1946h152l92 -226h-147zM557 -23q-131 0 -222.5 27.5t-151 88t-79 161t-0.5 242.5l146 1101h147l-143 -1091q-29 -219 44 -307t263 -88q191 0 293.5 89.5t130.5 305.5l143 1091h148l-146 -1101q-36 -279 -174 -399t-399 -120z" />
    <glyph glyph-name="Uacute" unicode="&#xda;" horiz-adv-x="1308" 
d="M858 1946h152l-158 -226h-147zM557 -23q-131 0 -222.5 27.5t-151 88t-79 161t-0.5 242.5l146 1101h147l-143 -1091q-29 -219 44 -307t263 -88q191 0 293.5 89.5t130.5 305.5l143 1091h148l-146 -1101q-36 -279 -174 -399t-399 -120z" />
    <glyph glyph-name="Ucircumflex" unicode="&#xdb;" horiz-adv-x="1308" 
d="M1061 1720h-137l-117 142l-160 -142h-151l247 226h131zM557 -23q-131 0 -222.5 27.5t-151 88t-79 161t-0.5 242.5l146 1101h147l-143 -1091q-29 -219 44 -307t263 -88q191 0 293.5 89.5t130.5 305.5l143 1091h148l-146 -1101q-36 -279 -174 -399t-399 -120z" />
    <glyph glyph-name="Udieresis" unicode="&#xdc;" horiz-adv-x="1308" 
d="M723 1905l-18 -144h-162l18 144h162zM1042 1905l-18 -144h-162l19 144h161zM557 -23q-131 0 -222.5 27.5t-151 88t-79 161t-0.5 242.5l146 1101h147l-143 -1091q-29 -219 44 -307t263 -88q191 0 293.5 89.5t130.5 305.5l143 1091h148l-146 -1101q-36 -279 -174 -399
t-399 -120z" />
    <glyph glyph-name="Yacute" unicode="&#xdd;" horiz-adv-x="1181" 
d="M797 1946h151l-157 -226h-148zM629 483l-64 -483h-147l63 483l-329 1114h153l270 -933l508 933h166z" />
    <glyph glyph-name="Thorn" unicode="&#xde;" horiz-adv-x="1173" 
d="M260 459h305q46 0 88 6.5t90.5 27t85.5 54.5t66.5 93t40.5 138l4 31q11 79 -3.5 139.5t-44.5 96t-74 58t-86 30.5t-87 8h-297zM408 1597l-43 -323h292q73 0 138 -12.5t128.5 -45t105 -83t60.5 -133.5t3 -189l-7 -41q-16 -106 -56.5 -186t-92.5 -128t-120.5 -78.5
t-133.5 -41t-139 -10.5h-301l-43 -326h-148l209 1597h148z" />
    <glyph glyph-name="germandbls" unicode="&#xdf;" horiz-adv-x="1169" 
d="M657 106q130 0 193 73t63 181q0 76 -49.5 135t-185.5 158l-143 105l12 92q188 95 268 195.5t80 250.5q0 110 -58.5 171t-181.5 61q-277 0 -317 -291l-162 -1237h-143l164 1247q26 197 140 305.5t318 108.5q218 0 311.5 -112.5t69.5 -301.5l-2 -16q-17 -133 -92.5 -232.5
t-228.5 -191.5l84 -62q103 -75 159 -132.5t82.5 -125.5t16.5 -151l-2 -17q-6 -52 -21 -98t-45.5 -92t-73.5 -78.5t-109.5 -53t-148.5 -20.5q-81 0 -142.5 17.5t-97 48t-57 72t-23 89.5t4.5 101l4 27h135q-9 -48 -6 -89.5t18 -72t56.5 -47.5t109.5 -17z" />
    <glyph glyph-name="agrave" unicode="&#xe0;" horiz-adv-x="1048" 
d="M367 1597h155l140 -340h-148zM711 0v152q-66 -77 -163 -126t-224 -49q-153 0 -233.5 83.5t-63.5 215.5l4 33q11 83 43.5 140.5t89 91.5t115.5 52t147 32l336 53l6 45q19 136 -30.5 200t-192.5 64q-74 0 -127.5 -20.5t-84 -59t-46.5 -81.5t-23 -99h-137l4 27
q8 54 23.5 100.5t47.5 94.5t76 82t114 55.5t157 21.5q114 0 192 -29t117 -82t52.5 -127t-1.5 -165l-53 -398l-27 -307h-118zM356 102q224 0 355 177l37 286l-320 -51q-227 -36 -250 -197l-4 -28q-11 -77 36 -132t146 -55z" />
    <glyph glyph-name="aacute" unicode="&#xe1;" horiz-adv-x="1048" 
d="M743 1597h156l-237 -340h-148zM711 0v152q-66 -77 -163 -126t-224 -49q-153 0 -233.5 83.5t-63.5 215.5l4 33q11 83 43.5 140.5t89 91.5t115.5 52t147 32l336 53l6 45q19 136 -30.5 200t-192.5 64q-74 0 -127.5 -20.5t-84 -59t-46.5 -81.5t-23 -99h-137l4 27
q8 54 23.5 100.5t47.5 94.5t76 82t114 55.5t157 21.5q114 0 192 -29t117 -82t52.5 -127t-1.5 -165l-53 -398l-27 -307h-118zM356 102q224 0 355 177l37 286l-320 -51q-227 -36 -250 -197l-4 -28q-11 -77 36 -132t146 -55z" />
    <glyph glyph-name="acircumflex" unicode="&#xe2;" horiz-adv-x="1048" 
d="M406 1257h-150l313 340h127l224 -340h-136l-159 232zM711 0v152q-66 -77 -163 -126t-224 -49q-153 0 -233.5 83.5t-63.5 215.5l4 33q11 83 43.5 140.5t89 91.5t115.5 52t147 32l336 53l6 45q19 136 -30.5 200t-192.5 64q-74 0 -127.5 -20.5t-84 -59t-46.5 -81.5t-23 -99
h-137l4 27q8 54 23.5 100.5t47.5 94.5t76 82t114 55.5t157 21.5q114 0 192 -29t117 -82t52.5 -127t-1.5 -165l-53 -398l-27 -307h-118zM356 102q224 0 355 177l37 286l-320 -51q-227 -36 -250 -197l-4 -28q-11 -77 36 -132t146 -55z" />
    <glyph glyph-name="atilde" unicode="&#xe3;" horiz-adv-x="1048" 
d="M836 1528h108q-15 -105 -66.5 -158t-127.5 -53q-41 0 -82.5 18.5t-69.5 41t-62.5 41t-62.5 18.5q-33 0 -55.5 -23.5t-28.5 -73.5h-108q13 105 64 158t128 53q41 0 82.5 -18.5t69.5 -40.5t62.5 -40.5t62.5 -18.5q72 0 86 96zM711 0v152q-66 -77 -163 -126t-224 -49
q-153 0 -233.5 83.5t-63.5 215.5l4 33q11 83 43.5 140.5t89 91.5t115.5 52t147 32l336 53l6 45q19 136 -30.5 200t-192.5 64q-74 0 -127.5 -20.5t-84 -59t-46.5 -81.5t-23 -99h-137l4 27q8 54 23.5 100.5t47.5 94.5t76 82t114 55.5t157 21.5q114 0 192 -29t117 -82
t52.5 -127t-1.5 -165l-53 -398l-27 -307h-118zM356 102q224 0 355 177l37 286l-320 -51q-227 -36 -250 -197l-4 -28q-11 -77 36 -132t146 -55z" />
    <glyph glyph-name="adieresis" unicode="&#xe4;" horiz-adv-x="1048" 
d="M545 1526l-25 -185h-184l24 185h185zM887 1526l-25 -185h-184l24 185h185zM711 0v152q-66 -77 -163 -126t-224 -49q-153 0 -233.5 83.5t-63.5 215.5l4 33q11 83 43.5 140.5t89 91.5t115.5 52t147 32l336 53l6 45q19 136 -30.5 200t-192.5 64q-74 0 -127.5 -20.5t-84 -59
t-46.5 -81.5t-23 -99h-137l4 27q8 54 23.5 100.5t47.5 94.5t76 82t114 55.5t157 21.5q114 0 192 -29t117 -82t52.5 -127t-1.5 -165l-53 -398l-27 -307h-118zM356 102q224 0 355 177l37 286l-320 -51q-227 -36 -250 -197l-4 -28q-11 -77 36 -132t146 -55z" />
    <glyph glyph-name="aring" unicode="&#xe5;" horiz-adv-x="1048" 
d="M594 1313q56 0 94.5 33t38.5 96q0 44 -26 72t-72 28q-56 0 -94.5 -33t-38.5 -96q0 -44 26 -72t72 -28zM594 1235q-83 0 -130.5 49.5t-47.5 128.5q0 88 62 147.5t151 59.5q83 0 130.5 -49.5t47.5 -128.5q0 -88 -62 -147.5t-151 -59.5zM711 0v152q-66 -77 -163 -126
t-224 -49q-153 0 -233.5 83.5t-63.5 215.5l4 33q11 83 43.5 140.5t89 91.5t115.5 52t147 32l336 53l6 45q19 136 -30.5 200t-192.5 64q-74 0 -127.5 -20.5t-84 -59t-46.5 -81.5t-23 -99h-137l4 27q8 54 23.5 100.5t47.5 94.5t76 82t114 55.5t157 21.5q114 0 192 -29t117 -82
t52.5 -127t-1.5 -165l-53 -398l-27 -307h-118zM356 102q224 0 355 177l37 286l-320 -51q-227 -36 -250 -197l-4 -28q-11 -77 36 -132t146 -55z" />
    <glyph glyph-name="ae" unicode="&#xe6;" horiz-adv-x="1783" 
d="M1651 483h-766q-40 -377 291 -377q78 0 138.5 21t97 56.5t57 76.5t26.5 88h137l-4 -26q-10 -62 -42.5 -121t-87 -110.5t-139.5 -82.5t-188 -31q-296 0 -393 209q-85 -95 -208 -152t-246 -57q-153 0 -233.5 83.5t-63.5 215.5l4 33q11 83 43.5 140.5t89 91.5t115.5 52
t147 32l336 53l6 45q19 136 -30.5 200t-192.5 64q-74 0 -127.5 -20.5t-84 -59t-46.5 -81.5t-23 -99h-137l4 27q8 54 23.5 100.5t47.5 94.5t76 82t114 55.5t157 21.5q289 0 336 -199q133 199 381 199q97 0 171.5 -26t121.5 -74.5t75.5 -116t33 -150t-6.5 -178.5zM356 102
q224 0 385 213q-14 88 2 207l7 43l-322 -51q-227 -36 -250 -197l-4 -28q-11 -77 36 -132t146 -55zM1266 979q-147 0 -245 -104t-122 -273h623q25 183 -38.5 280t-217.5 97z" />
    <glyph glyph-name="ccedilla" unicode="&#xe7;" horiz-adv-x="1069" 
d="M221 571l-6 -45q-27 -197 40 -308.5t224 -111.5q256 0 299 271h140l-5 -27q-57 -355 -401 -370l-51 -99h8q75 -2 125.5 -35t50.5 -106q0 -87 -60 -129.5t-161 -42.5q-56 0 -107 16t-81 39l40 74q62 -43 146 -43q127 0 127 80q0 69 -113 69l-63 -6l-27 39l74 146
q-202 20 -291 168t-59 372l6 45q17 121 53.5 217t95.5 170t147.5 114t200.5 40q117 0 202 -36.5t127 -95.5t57 -125.5t4 -135.5l-5 -27h-137q20 129 -42 210t-206 81q-148 0 -236.5 -106.5t-115.5 -301.5z" />
    <glyph glyph-name="egrave" unicode="&#xe8;" horiz-adv-x="1114" 
d="M401 1597h156l139 -340h-147zM977 483h-766q-40 -377 291 -377q78 0 138.5 21t97 56.5t57 76.5t26.5 88h137l-4 -26q-10 -62 -42.5 -121t-86.5 -110.5t-139 -82.5t-188 -31q-106 0 -187.5 28t-131.5 77.5t-80.5 118t-34.5 149.5t6 172l6 45q16 119 56 216t102.5 170.5
t154 114t203.5 40.5q97 0 171.5 -26t121.5 -74.5t75.5 -116t33 -150t-6.5 -178.5zM592 979q-147 0 -245 -104t-122 -273h623q25 183 -38.5 280t-217.5 97z" />
    <glyph glyph-name="eacute" unicode="&#xe9;" horiz-adv-x="1114" 
d="M778 1597h156l-238 -340h-147zM977 483h-766q-40 -377 291 -377q78 0 138.5 21t97 56.5t57 76.5t26.5 88h137l-4 -26q-10 -62 -42.5 -121t-86.5 -110.5t-139 -82.5t-188 -31q-106 0 -187.5 28t-131.5 77.5t-80.5 118t-34.5 149.5t6 172l6 45q16 119 56 216t102.5 170.5
t154 114t203.5 40.5q97 0 171.5 -26t121.5 -74.5t75.5 -116t33 -150t-6.5 -178.5zM592 979q-147 0 -245 -104t-122 -273h623q25 183 -38.5 280t-217.5 97z" />
    <glyph glyph-name="ecircumflex" unicode="&#xea;" horiz-adv-x="1114" 
d="M440 1257h-149l313 340h127l223 -340h-135l-160 232zM977 483h-766q-40 -377 291 -377q78 0 138.5 21t97 56.5t57 76.5t26.5 88h137l-4 -26q-10 -62 -42.5 -121t-86.5 -110.5t-139 -82.5t-188 -31q-106 0 -187.5 28t-131.5 77.5t-80.5 118t-34.5 149.5t6 172l6 45
q16 119 56 216t102.5 170.5t154 114t203.5 40.5q97 0 171.5 -26t121.5 -74.5t75.5 -116t33 -150t-6.5 -178.5zM592 979q-147 0 -245 -104t-122 -273h623q25 183 -38.5 280t-217.5 97z" />
    <glyph glyph-name="edieresis" unicode="&#xeb;" horiz-adv-x="1114" 
d="M580 1526l-25 -185h-184l24 185h185zM922 1526l-25 -185h-184l24 185h185zM977 483h-766q-40 -377 291 -377q78 0 138.5 21t97 56.5t57 76.5t26.5 88h137l-4 -26q-10 -62 -42.5 -121t-86.5 -110.5t-139 -82.5t-188 -31q-106 0 -187.5 28t-131.5 77.5t-80.5 118
t-34.5 149.5t6 172l6 45q16 119 56 216t102.5 170.5t154 114t203.5 40.5q97 0 171.5 -26t121.5 -74.5t75.5 -116t33 -150t-6.5 -178.5zM592 979q-147 0 -245 -104t-122 -273h623q25 183 -38.5 280t-217.5 97z" />
    <glyph glyph-name="igrave" unicode="&#xec;" horiz-adv-x="442" 
d="M63 1597h156l139 -340h-147zM49 0l141 1085h144l-141 -1085h-144z" />
    <glyph glyph-name="iacute" unicode="&#xed;" horiz-adv-x="442" 
d="M440 1597h156l-238 -340h-147zM49 0l141 1085h144l-141 -1085h-144z" />
    <glyph glyph-name="icircumflex" unicode="&#xee;" horiz-adv-x="442" 
d="M102 1257h-149l313 340h127l223 -340h-135l-159 232zM49 0l141 1085h144l-141 -1085h-144z" />
    <glyph glyph-name="idieresis" unicode="&#xef;" horiz-adv-x="442" 
d="M242 1526l-25 -185h-184l24 185h185zM584 1526l-25 -185h-184l24 185h185zM49 0l141 1085h144l-141 -1085h-144z" />
    <glyph glyph-name="eth" unicode="&#xf0;" horiz-adv-x="1114" 
d="M203 1530l16 131q280 -23 457 -139l258 139l-14 -113l-164 -86q60 -50 102 -106q55 -76 89.5 -178.5t45.5 -210.5t9 -208t-15 -196l-6 -45q-17 -120 -55 -217t-98.5 -170.5t-150.5 -113.5t-202 -40q-119 0 -206 42t-134.5 116.5t-64 172.5t-0.5 214l6 45q17 120 54.5 217
t98 170.5t150 113.5t201.5 40q174 0 266 -92q-35 149 -113 254q-10 13 -21 25.5t-19 20.5t-21.5 19.5t-19 16t-22 17t-20.5 15.5l-377 -202l17 112l270 146q-132 68 -317 90zM475 106q150 0 242 107t119 301l6 45q17 127 -4 219.5t-86 146.5t-172 54q-150 0 -241 -107
t-118 -301l-6 -45q-27 -199 37.5 -309.5t222.5 -110.5z" />
    <glyph glyph-name="ntilde" unicode="&#xf1;" horiz-adv-x="1081" 
d="M858 1528h109q-15 -105 -66.5 -158t-128.5 -53q-41 0 -82 18.5t-69 41t-62.5 41t-62.5 18.5q-33 0 -55.5 -23.5t-28.5 -73.5h-109q13 105 64.5 158t128.5 53q41 0 82 -18.5t69 -40.5t62.5 -40.5t62.5 -18.5q72 0 86 96zM852 0h-143l98 739q17 120 -39 180t-174 60
q-187 0 -311 -170l-107 -809h-143l104 791l27 294h123v-151q59 81 150 127.5t206 46.5q172 0 251 -94.5t58 -253.5z" />
    <glyph glyph-name="ograve" unicode="&#xf2;" horiz-adv-x="1114" 
d="M399 1597h156l139 -340h-147zM475 106q150 0 242 107t119 301l6 45q27 198 -38.5 309t-223.5 111q-150 0 -241 -107t-118 -301l-6 -45q-27 -199 37.5 -309.5t222.5 -110.5zM475 -23q-119 0 -206 42t-134.5 116.5t-64 172.5t-0.5 214l6 45q17 120 54.5 217t98 170.5
t150 113.5t201.5 40q119 0 206.5 -42t135.5 -116.5t64.5 -172.5t0.5 -214l-6 -45q-17 -120 -55 -217t-98.5 -170.5t-150.5 -113.5t-202 -40z" />
    <glyph glyph-name="oacute" unicode="&#xf3;" horiz-adv-x="1114" 
d="M776 1597h156l-238 -340h-147zM475 106q150 0 242 107t119 301l6 45q27 198 -38.5 309t-223.5 111q-150 0 -241 -107t-118 -301l-6 -45q-27 -199 37.5 -309.5t222.5 -110.5zM475 -23q-119 0 -206 42t-134.5 116.5t-64 172.5t-0.5 214l6 45q17 120 54.5 217t98 170.5
t150 113.5t201.5 40q119 0 206.5 -42t135.5 -116.5t64.5 -172.5t0.5 -214l-6 -45q-17 -120 -55 -217t-98.5 -170.5t-150.5 -113.5t-202 -40z" />
    <glyph glyph-name="ocircumflex" unicode="&#xf4;" horiz-adv-x="1114" 
d="M438 1257h-149l313 340h127l223 -340h-135l-160 232zM475 106q150 0 242 107t119 301l6 45q27 198 -38.5 309t-223.5 111q-150 0 -241 -107t-118 -301l-6 -45q-27 -199 37.5 -309.5t222.5 -110.5zM475 -23q-119 0 -206 42t-134.5 116.5t-64 172.5t-0.5 214l6 45
q17 120 54.5 217t98 170.5t150 113.5t201.5 40q119 0 206.5 -42t135.5 -116.5t64.5 -172.5t0.5 -214l-6 -45q-17 -120 -55 -217t-98.5 -170.5t-150.5 -113.5t-202 -40z" />
    <glyph glyph-name="otilde" unicode="&#xf5;" horiz-adv-x="1114" 
d="M868 1528h109q-15 -105 -66.5 -158t-128.5 -53q-41 0 -82 18.5t-69 41t-62.5 41t-62.5 18.5q-33 0 -55.5 -23.5t-28.5 -73.5h-109q13 105 64.5 158t128.5 53q41 0 82 -18.5t69 -40.5t62.5 -40.5t62.5 -18.5q72 0 86 96zM475 106q150 0 242 107t119 301l6 45
q27 198 -38.5 309t-223.5 111q-150 0 -241 -107t-118 -301l-6 -45q-27 -199 37.5 -309.5t222.5 -110.5zM475 -23q-119 0 -206 42t-134.5 116.5t-64 172.5t-0.5 214l6 45q17 120 54.5 217t98 170.5t150 113.5t201.5 40q119 0 206.5 -42t135.5 -116.5t64.5 -172.5t0.5 -214
l-6 -45q-17 -120 -55 -217t-98.5 -170.5t-150.5 -113.5t-202 -40z" />
    <glyph glyph-name="odieresis" unicode="&#xf6;" horiz-adv-x="1114" 
d="M578 1526l-25 -185h-184l24 185h185zM920 1526l-25 -185h-184l24 185h185zM475 106q150 0 242 107t119 301l6 45q27 198 -38.5 309t-223.5 111q-150 0 -241 -107t-118 -301l-6 -45q-27 -199 37.5 -309.5t222.5 -110.5zM475 -23q-119 0 -206 42t-134.5 116.5t-64 172.5
t-0.5 214l6 45q17 120 54.5 217t98 170.5t150 113.5t201.5 40q119 0 206.5 -42t135.5 -116.5t64.5 -172.5t0.5 -214l-6 -45q-17 -120 -55 -217t-98.5 -170.5t-150.5 -113.5t-202 -40z" />
    <glyph glyph-name="divide" unicode="&#xf7;" horiz-adv-x="1228" 
d="M90 731l19 135h1034l-19 -135h-1034zM662 446l-25 -184h-184l24 184h185zM780 1335l-24 -184h-185l25 184h184z" />
    <glyph glyph-name="oslash" unicode="&#xf8;" horiz-adv-x="1114" 
d="M827 815l-542 -637q69 -72 192 -72q150 0 241 107t118 301l6 45q18 157 -15 256zM70 522l6 45q17 120 54.5 217t98 170.5t150 113.5t201.5 40q174 0 282 -94l62 71h133l-127 -149q86 -142 57 -373l-6 -45q-17 -120 -54.5 -217t-98 -170.5t-150 -113.5t-201.5 -40
q-173 0 -282 95l-62 -72h-133l127 150q-86 142 -57 372zM229 270l543 637q-69 72 -192 72q-150 0 -241 -107t-118 -301l-6 -45q-19 -159 14 -256z" />
    <glyph glyph-name="ugrave" unicode="&#xf9;" horiz-adv-x="1081" 
d="M377 1597h155l140 -340h-148zM168 1085h143l-98 -739q-17 -120 39 -180t174 -60q187 0 311 170l107 809h143l-104 -790l-27 -295h-123v152q-59 -81 -150 -128t-206 -47q-172 0 -251 95t-58 254z" />
    <glyph glyph-name="uacute" unicode="&#xfa;" horiz-adv-x="1081" 
d="M754 1597h155l-237 -340h-148zM168 1085h143l-98 -739q-17 -120 39 -180t174 -60q187 0 311 170l107 809h143l-104 -790l-27 -295h-123v152q-59 -81 -150 -128t-206 -47q-172 0 -251 95t-58 254z" />
    <glyph glyph-name="ucircumflex" unicode="&#xfb;" horiz-adv-x="1081" 
d="M416 1257h-150l314 340h127l223 -340h-135l-160 232zM168 1085h143l-98 -739q-17 -120 39 -180t174 -60q187 0 311 170l107 809h143l-104 -790l-27 -295h-123v152q-59 -81 -150 -128t-206 -47q-172 0 -251 95t-58 254z" />
    <glyph glyph-name="udieresis" unicode="&#xfc;" horiz-adv-x="1081" 
d="M555 1526l-25 -185h-184l25 185h184zM897 1526l-25 -185h-184l25 185h184zM168 1085h143l-98 -739q-17 -120 39 -180t174 -60q187 0 311 170l107 809h143l-104 -790l-27 -295h-123v152q-59 -81 -150 -128t-206 -47q-172 0 -251 95t-58 254z" />
    <glyph glyph-name="yacute" unicode="&#xfd;" horiz-adv-x="991" 
d="M729 1597h156l-238 -340h-147zM430 197l426 888h160l-527 -1044l-213 -451h-165l229 451l-252 1044h148z" />
    <glyph glyph-name="thorn" unicode="&#xfe;" horiz-adv-x="1099" 
d="M250 1638h143l-88 -667q50 62 130 99.5t177 37.5q144 0 235 -72.5t121.5 -193.5t8.5 -279l-6 -45q-17 -122 -52.5 -218t-92.5 -170t-142 -113.5t-192 -39.5q-59 0 -111 16t-88 41t-60 50t-38 49l-72 -543h-143zM473 106q150 0 237.5 106.5t114.5 301.5l6 45
q27 198 -38 309t-215 111q-176 0 -293 -156l-70 -538q32 -72 96.5 -125.5t161.5 -53.5z" />
    <glyph glyph-name="ydieresis" unicode="&#xff;" horiz-adv-x="991" 
d="M530 1526l-24 -185h-184l24 185h184zM872 1526l-24 -185h-184l24 185h184zM430 197l426 888h160l-527 -1044l-213 -451h-165l229 451l-252 1044h148z" />
    <glyph glyph-name="Amacron" unicode="&#x100;" horiz-adv-x="1251" 
d="M526 1778l15 110h463l-15 -110h-463zM633 1614h209l250 -1614h-156l-62 410h-585l-168 -410h-162zM719 1452l-375 -909h510z" />
    <glyph glyph-name="amacron" unicode="&#x101;" horiz-adv-x="1048" 
d="M362 1360l19 135h477l-16 -135h-480zM711 0v152q-66 -77 -163 -126t-224 -49q-153 0 -233.5 83.5t-63.5 215.5l4 33q11 83 43.5 140.5t89 91.5t115.5 52t147 32l336 53l6 45q19 136 -30.5 200t-192.5 64q-74 0 -127.5 -20.5t-84 -59t-46.5 -81.5t-23 -99h-137l4 27
q8 54 23.5 100.5t47.5 94.5t76 82t114 55.5t157 21.5q114 0 192 -29t117 -82t52.5 -127t-1.5 -165l-53 -398l-27 -307h-118zM356 102q224 0 355 177l37 286l-320 -51q-227 -36 -250 -197l-4 -28q-11 -77 36 -132t146 -55z" />
    <glyph glyph-name="Abreve" unicode="&#x102;" horiz-adv-x="1251" 
d="M750 1698q-148 0 -215.5 68.5t-51.5 179.5h109q-11 -70 30.5 -112t133.5 -42t144 41.5t61 112.5h116q-14 -112 -96.5 -180t-230.5 -68zM633 1614h209l250 -1614h-156l-62 410h-585l-168 -410h-162zM719 1452l-375 -909h510z" />
    <glyph glyph-name="abreve" unicode="&#x103;" horiz-adv-x="1048" 
d="M594 1235q-171 0 -242.5 97.5t-48.5 264.5h111q-30 -249 180 -249q111 0 173.5 66t76.5 183h119q-21 -169 -111.5 -265.5t-257.5 -96.5zM711 0v152q-66 -77 -163 -126t-224 -49q-153 0 -233.5 83.5t-63.5 215.5l4 33q11 83 43.5 140.5t89 91.5t115.5 52t147 32l336 53
l6 45q19 136 -30.5 200t-192.5 64q-74 0 -127.5 -20.5t-84 -59t-46.5 -81.5t-23 -99h-137l4 27q8 54 23.5 100.5t47.5 94.5t76 82t114 55.5t157 21.5q114 0 192 -29t117 -82t52.5 -127t-1.5 -165l-53 -398l-27 -307h-118zM356 102q224 0 355 177l37 286l-320 -51
q-227 -36 -250 -197l-4 -28q-11 -77 36 -132t146 -55z" />
    <glyph glyph-name="Aogonek" unicode="&#x104;" horiz-adv-x="1251" 
d="M633 1614h209l250 -1614q-38 -16 -71 -36.5t-65 -49t-50.5 -66t-18.5 -79.5q0 -45 32.5 -69t88.5 -24q62 0 118 27l25 -94q-68 -41 -174 -41q-98 0 -152.5 42.5t-54.5 125.5q0 164 164 272l-60 402h-585l-168 -410h-162zM719 1452l-375 -909h510z" />
    <glyph glyph-name="aogonek" unicode="&#x105;" horiz-adv-x="1048" 
d="M829 0q-38 -16 -70.5 -36.5t-64.5 -49t-50.5 -66t-18.5 -79.5q0 -45 32 -69t88 -24q63 0 119 27l25 -94q-68 -41 -174 -41q-98 0 -152.5 42.5t-54.5 125.5q0 99 56 173.5t147 123.5v119q-66 -77 -163 -126t-224 -49q-153 0 -233.5 83.5t-63.5 215.5l4 33
q11 83 43.5 140.5t89 91.5t115.5 52t147 32l336 53l6 45q19 136 -30.5 200t-192.5 64q-74 0 -127.5 -20.5t-84 -59t-46.5 -81.5t-23 -99h-137l4 27q8 54 23.5 100.5t47.5 94.5t76 82t114 55.5t157 21.5q114 0 192 -29t117 -82t52.5 -127t-1.5 -165l-53 -398zM356 102
q224 0 355 177l37 286l-320 -51q-227 -36 -250 -197l-4 -28q-11 -77 36 -132t146 -55z" />
    <glyph glyph-name="Cacute" unicode="&#x106;" horiz-adv-x="1265" 
d="M864 1946h152l-158 -226h-147zM276 840l-10 -82q-43 -340 30 -493.5t275 -153.5h15q176 0 271 103t122 306h151l-4 -28q-36 -257 -170.5 -386t-384.5 -129q-280 0 -394 186.5t-62 594.5l10 82q52 410 206.5 595t432.5 185q255 0 366 -137.5t74 -407.5l-8 -59h-152
q32 248 -33 359.5t-245 111.5h-14q-202 0 -318 -154.5t-158 -492.5z" />
    <glyph glyph-name="cacute" unicode="&#x107;" horiz-adv-x="1069" 
d="M772 1597h156l-238 -340h-147zM221 571l-6 -45q-27 -197 40 -308.5t224 -111.5q256 0 299 271h140l-5 -27q-12 -76 -39 -138.5t-76 -117.5t-130 -86t-189 -31q-156 0 -257 73.5t-137 194.5t-15 277l6 45q17 121 53.5 217t95.5 170t147.5 114t200.5 40q117 0 202 -36.5
t127 -95.5t57 -125.5t4 -135.5l-5 -27h-137q20 129 -42 210t-206 81q-148 0 -236.5 -106.5t-115.5 -301.5z" />
    <glyph glyph-name="Ccircumflex" unicode="&#x108;" horiz-adv-x="1265" 
d="M1067 1720h-137l-117 142l-160 -142h-151l248 226h131zM276 840l-10 -82q-43 -340 30 -493.5t275 -153.5h15q176 0 271 103t122 306h151l-4 -28q-36 -257 -170.5 -386t-384.5 -129q-280 0 -394 186.5t-62 594.5l10 82q52 410 206.5 595t432.5 185q255 0 366 -137.5
t74 -407.5l-8 -59h-152q32 248 -33 359.5t-245 111.5h-14q-202 0 -318 -154.5t-158 -492.5z" />
    <glyph glyph-name="ccircumflex" unicode="&#x109;" horiz-adv-x="1069" 
d="M434 1257h-149l313 340h127l223 -340h-135l-160 232zM221 571l-6 -45q-27 -197 40 -308.5t224 -111.5q256 0 299 271h140l-5 -27q-12 -76 -39 -138.5t-76 -117.5t-130 -86t-189 -31q-156 0 -257 73.5t-137 194.5t-15 277l6 45q17 121 53.5 217t95.5 170t147.5 114
t200.5 40q117 0 202 -36.5t127 -95.5t57 -125.5t4 -135.5l-5 -27h-137q20 129 -42 210t-206 81q-148 0 -236.5 -106.5t-115.5 -301.5z" />
    <glyph glyph-name="Cdotaccent" unicode="&#x10a;" horiz-adv-x="1265" 
d="M889 1905l-19 -144h-161l18 144h162zM276 840l-10 -82q-43 -340 30 -493.5t275 -153.5h15q176 0 271 103t122 306h151l-4 -28q-36 -257 -170.5 -386t-384.5 -129q-280 0 -394 186.5t-62 594.5l10 82q52 410 206.5 595t432.5 185q255 0 366 -137.5t74 -407.5l-8 -59h-152
q32 248 -33 359.5t-245 111.5h-14q-202 0 -318 -154.5t-158 -492.5z" />
    <glyph glyph-name="cdotaccent" unicode="&#x10b;" horiz-adv-x="1069" 
d="M743 1526l-24 -185h-184l24 185h184zM221 571l-6 -45q-27 -197 40 -308.5t224 -111.5q256 0 299 271h140l-5 -27q-12 -76 -39 -138.5t-76 -117.5t-130 -86t-189 -31q-156 0 -257 73.5t-137 194.5t-15 277l6 45q17 121 53.5 217t95.5 170t147.5 114t200.5 40
q117 0 202 -36.5t127 -95.5t57 -125.5t4 -135.5l-5 -27h-137q20 129 -42 210t-206 81q-148 0 -236.5 -106.5t-115.5 -301.5z" />
    <glyph glyph-name="Ccaron" unicode="&#x10c;" horiz-adv-x="1265" 
d="M532 1946h138l116 -142l160 142h152l-248 -226h-131zM276 840l-10 -82q-43 -340 30 -493.5t275 -153.5h15q176 0 271 103t122 306h151l-4 -28q-36 -257 -170.5 -386t-384.5 -129q-280 0 -394 186.5t-62 594.5l10 82q52 410 206.5 595t432.5 185q255 0 366 -137.5
t74 -407.5l-8 -59h-152q32 248 -33 359.5t-245 111.5h-14q-202 0 -318 -154.5t-158 -492.5z" />
    <glyph glyph-name="ccaron" unicode="&#x10d;" horiz-adv-x="1069" 
d="M330 1597h135l160 -231l219 231h149l-313 -340h-127zM221 571l-6 -45q-27 -197 40 -308.5t224 -111.5q256 0 299 271h140l-5 -27q-12 -76 -39 -138.5t-76 -117.5t-130 -86t-189 -31q-156 0 -257 73.5t-137 194.5t-15 277l6 45q17 121 53.5 217t95.5 170t147.5 114
t200.5 40q117 0 202 -36.5t127 -95.5t57 -125.5t4 -135.5l-5 -27h-137q20 129 -42 210t-206 81q-148 0 -236.5 -106.5t-115.5 -301.5z" />
    <glyph glyph-name="Dcaron" unicode="&#x10e;" horiz-adv-x="1308" 
d="M1200 840l-10 -82q-95 -758 -721 -758h-418l209 1597h404q119 0 211.5 -25.5t165 -81.5t113 -144.5t55 -214.5t-8.5 -291zM215 133h258q487 0 565 625l11 82q19 171 4 289.5t-70.5 193t-137 108t-196.5 33.5h-258zM471 1946h137l117 -142l160 142h151l-248 -226h-131z
" />
    <glyph glyph-name="dcaron" unicode="&#x10f;" horiz-adv-x="1105" 
d="M434 -23q-144 0 -235 73t-121 193.5t-8 278.5l6 45q17 122 52.5 218t92.5 170t142 113.5t192 39.5q59 0 111 -16t88 -41t60 -50t38 -49l90 686h143l-176 -1343l-26 -295h-123v137q-52 -73 -139 -116.5t-187 -43.5zM573 979q-150 0 -237.5 -106.5t-114.5 -301.5l-6 -45
q-27 -198 38.5 -309t215.5 -111q176 0 293 156l69 539q-32 72 -96.5 125t-161.5 53zM1237 1638h117l-86 -381h-82z" />
    <glyph glyph-name="Dcroat" unicode="&#x110;" horiz-adv-x="1431" 
d="M1323 840l-10 -82q-95 -758 -721 -758h-418l98 750h-237l18 131h236l94 716h403q119 0 212 -25.5t165.5 -81.5t113 -144.5t55 -214.5t-8.5 -291zM338 133h258q487 0 565 625l10 82q19 171 4 289.5t-70 193t-136.5 108t-196.5 33.5h-258l-78 -583h438l-18 -131h-436z" />
    <glyph glyph-name="dcroat" unicode="&#x111;" horiz-adv-x="1105" 
d="M1227 1296h-187l-131 -1001l-26 -295h-123v137q-52 -73 -139 -116.5t-187 -43.5q-144 0 -235 73t-121 193.5t-8 278.5l6 45q17 122 52.5 218t92.5 170t142 113.5t192 39.5q59 0 111 -16t88 -41t60 -50t38 -49l45 344h-276l18 131h274l29 211h143l-28 -211h188zM573 979
q-150 0 -237.5 -106.5t-114.5 -301.5l-6 -45q-27 -198 38.5 -309t215.5 -111q176 0 293 156l69 539q-32 72 -96.5 125t-161.5 53z" />
    <glyph glyph-name="Emacron" unicode="&#x112;" horiz-adv-x="1124" 
d="M514 1778l14 110h463l-14 -110h-463zM260 1597h891l-16 -133h-746l-76 -583h641l-18 -131h-641l-80 -617h743l-16 -133h-891z" />
    <glyph glyph-name="emacron" unicode="&#x113;" horiz-adv-x="1114" 
d="M397 1360l19 135h477l-16 -135h-480zM977 483h-766q-40 -377 291 -377q78 0 138.5 21t97 56.5t57 76.5t26.5 88h137l-4 -26q-10 -62 -42.5 -121t-86.5 -110.5t-139 -82.5t-188 -31q-106 0 -187.5 28t-131.5 77.5t-80.5 118t-34.5 149.5t6 172l6 45q16 119 56 216
t102.5 170.5t154 114t203.5 40.5q97 0 171.5 -26t121.5 -74.5t75.5 -116t33 -150t-6.5 -178.5zM592 979q-147 0 -245 -104t-122 -273h623q25 183 -38.5 280t-217.5 97z" />
    <glyph glyph-name="Ebreve" unicode="&#x114;" horiz-adv-x="1124" 
d="M737 1698q-148 0 -215 68.5t-51 179.5h109q-11 -70 30 -112t133 -42t144 41.5t61 112.5h117q-14 -112 -96.5 -180t-231.5 -68zM260 1597h891l-16 -133h-746l-76 -583h641l-18 -131h-641l-80 -617h743l-16 -133h-891z" />
    <glyph glyph-name="ebreve" unicode="&#x115;" horiz-adv-x="1114" 
d="M629 1235q-171 0 -242.5 97.5t-48.5 264.5h111q-30 -249 180 -249q111 0 173.5 66t76.5 183h118q-21 -169 -111 -265.5t-257 -96.5zM977 483h-766q-40 -377 291 -377q78 0 138.5 21t97 56.5t57 76.5t26.5 88h137l-4 -26q-10 -62 -42.5 -121t-86.5 -110.5t-139 -82.5
t-188 -31q-106 0 -187.5 28t-131.5 77.5t-80.5 118t-34.5 149.5t6 172l6 45q16 119 56 216t102.5 170.5t154 114t203.5 40.5q97 0 171.5 -26t121.5 -74.5t75.5 -116t33 -150t-6.5 -178.5zM592 979q-147 0 -245 -104t-122 -273h623q25 183 -38.5 280t-217.5 97z" />
    <glyph glyph-name="Edotaccent" unicode="&#x116;" horiz-adv-x="1124" 
d="M842 1905l-19 -144h-161l18 144h162zM260 1597h891l-16 -133h-746l-76 -583h641l-18 -131h-641l-80 -617h743l-16 -133h-891z" />
    <glyph glyph-name="edotaccent" unicode="&#x117;" horiz-adv-x="1114" 
d="M750 1526l-25 -185h-184l24 185h185zM977 483h-766q-40 -377 291 -377q78 0 138.5 21t97 56.5t57 76.5t26.5 88h137l-4 -26q-10 -62 -42.5 -121t-86.5 -110.5t-139 -82.5t-188 -31q-106 0 -187.5 28t-131.5 77.5t-80.5 118t-34.5 149.5t6 172l6 45q16 119 56 216
t102.5 170.5t154 114t203.5 40.5q97 0 171.5 -26t121.5 -74.5t75.5 -116t33 -150t-6.5 -178.5zM592 979q-147 0 -245 -104t-122 -273h623q25 183 -38.5 280t-217.5 97z" />
    <glyph glyph-name="Eogonek" unicode="&#x118;" horiz-adv-x="1124" 
d="M260 1597h891l-16 -133h-746l-76 -583h641l-18 -131h-641l-80 -617h743l-16 -133q-38 -16 -71 -36.5t-65 -49t-50.5 -66t-18.5 -79.5q0 -45 32.5 -69t88.5 -24q63 0 119 27l24 -94q-68 -41 -174 -41q-97 0 -151.5 42.5t-54.5 125.5q0 160 151 264h-721z" />
    <glyph glyph-name="eogonek" unicode="&#x119;" horiz-adv-x="1114" 
d="M977 483h-766q-40 -377 291 -377q78 0 138.5 21t97 56.5t57 76.5t26.5 88h137l-4 -26q-17 -103 -92.5 -194t-202.5 -128q-38 -16 -70.5 -36.5t-64.5 -49t-50.5 -66t-18.5 -79.5q0 -45 32 -69t88 -24q63 0 119 27l25 -94q-68 -41 -174 -41q-98 0 -152.5 42.5t-54.5 125.5
q0 143 123 244q-98 5 -173 34.5t-121 79t-73.5 116.5t-30.5 145.5t7 166.5l6 45q16 119 56 216t102.5 170.5t154 114t203.5 40.5q97 0 171.5 -26t121.5 -74.5t75.5 -116t33 -150t-6.5 -178.5zM592 979q-147 0 -245 -104t-122 -273h623q25 183 -38.5 280t-217.5 97z" />
    <glyph glyph-name="Ecaron" unicode="&#x11a;" horiz-adv-x="1124" 
d="M485 1946h138l116 -142l160 142h152l-248 -226h-131zM260 1597h891l-16 -133h-746l-76 -583h641l-18 -131h-641l-80 -617h743l-16 -133h-891z" />
    <glyph glyph-name="ecaron" unicode="&#x11b;" horiz-adv-x="1114" 
d="M336 1597h135l160 -231l219 231h149l-313 -340h-127zM977 483h-766q-40 -377 291 -377q78 0 138.5 21t97 56.5t57 76.5t26.5 88h137l-4 -26q-10 -62 -42.5 -121t-86.5 -110.5t-139 -82.5t-188 -31q-106 0 -187.5 28t-131.5 77.5t-80.5 118t-34.5 149.5t6 172l6 45
q16 119 56 216t102.5 170.5t154 114t203.5 40.5q97 0 171.5 -26t121.5 -74.5t75.5 -116t33 -150t-6.5 -178.5zM592 979q-147 0 -245 -104t-122 -273h623q25 183 -38.5 280t-217.5 97z" />
    <glyph glyph-name="Gcircumflex" unicode="&#x11c;" horiz-adv-x="1327" 
d="M1083 1720h-137l-117 142l-159 -142h-152l248 226h131zM600 -23q-584 0 -485 781l10 82q52 409 210.5 594.5t438.5 185.5q256 0 372 -138t79 -407l-8 -59h-152q32 246 -38 358.5t-251 112.5h-14q-203 0 -323.5 -155.5t-162.5 -491.5l-10 -82q-42 -334 45 -490.5
t293 -156.5h14q113 0 203 35t146 87l55 422h-274l16 131h422l-82 -624q-201 -185 -504 -185z" />
    <glyph glyph-name="gcircumflex" unicode="&#x11d;" horiz-adv-x="1099" 
d="M403 1257h-149l313 340h127l224 -340h-136l-159 232zM723 -6l25 199q-50 -62 -131 -100t-179 -38q-89 0 -158.5 26t-112.5 72.5t-70 110t-31 139.5t6 160l6 45q15 113 49.5 202.5t91 157t141 104t191.5 36.5q114 0 196.5 -55t114.5 -125l39 157h119l-51 -307l-105 -794
q-53 -416 -465 -416q-115 0 -198 31.5t-126 87.5t-57.5 128t-1.5 158l4 27h134q-25 -154 35.5 -228.5t209.5 -74.5q160 0 232 72t92 225zM768 342l61 461q-30 71 -95.5 123.5t-162.5 52.5q-297 0 -348 -367l-6 -45q-25 -181 39.5 -282t218.5 -101q175 0 293 158z" />
    <glyph glyph-name="Gbreve" unicode="&#x11e;" horiz-adv-x="1327" 
d="M801 1698q-148 0 -215 68.5t-51 179.5h108q-11 -70 30.5 -112t133.5 -42t144 41.5t61 112.5h116q-14 -112 -96.5 -180t-230.5 -68zM600 -23q-584 0 -485 781l10 82q52 409 210.5 594.5t438.5 185.5q256 0 372 -138t79 -407l-8 -59h-152q32 246 -38 358.5t-251 112.5h-14
q-203 0 -323.5 -155.5t-162.5 -491.5l-10 -82q-42 -334 45 -490.5t293 -156.5h14q113 0 203 35t146 87l55 422h-274l16 131h422l-82 -624q-201 -185 -504 -185z" />
    <glyph glyph-name="gbreve" unicode="&#x11f;" horiz-adv-x="1099" 
d="M592 1235q-171 0 -242.5 97.5t-48.5 264.5h111q-30 -249 180 -249q111 0 173.5 66t76.5 183h119q-21 -169 -111.5 -265.5t-257.5 -96.5zM723 -6l25 199q-50 -62 -131 -100t-179 -38q-89 0 -158.5 26t-112.5 72.5t-70 110t-31 139.5t6 160l6 45q15 113 49.5 202.5t91 157
t141 104t191.5 36.5q114 0 196.5 -55t114.5 -125l39 157h119l-51 -307l-105 -794q-53 -416 -465 -416q-115 0 -198 31.5t-126 87.5t-57.5 128t-1.5 158l4 27h134q-25 -154 35.5 -228.5t209.5 -74.5q160 0 232 72t92 225zM768 342l61 461q-30 71 -95.5 123.5t-162.5 52.5
q-297 0 -348 -367l-6 -45q-25 -181 39.5 -282t218.5 -101q175 0 293 158z" />
    <glyph glyph-name="Gdotaccent" unicode="&#x120;" horiz-adv-x="1327" 
d="M905 1905l-18 -144h-162l18 144h162zM600 -23q-584 0 -485 781l10 82q52 409 210.5 594.5t438.5 185.5q256 0 372 -138t79 -407l-8 -59h-152q32 246 -38 358.5t-251 112.5h-14q-203 0 -323.5 -155.5t-162.5 -491.5l-10 -82q-42 -334 45 -490.5t293 -156.5h14
q113 0 203 35t146 87l55 422h-274l16 131h422l-82 -624q-201 -185 -504 -185z" />
    <glyph glyph-name="gdotaccent" unicode="&#x121;" horiz-adv-x="1099" 
d="M713 1526l-25 -185h-184l24 185h185zM723 -6l25 199q-50 -62 -131 -100t-179 -38q-89 0 -158.5 26t-112.5 72.5t-70 110t-31 139.5t6 160l6 45q15 113 49.5 202.5t91 157t141 104t191.5 36.5q114 0 196.5 -55t114.5 -125l39 157h119l-51 -307l-105 -794
q-53 -416 -465 -416q-115 0 -198 31.5t-126 87.5t-57.5 128t-1.5 158l4 27h134q-25 -154 35.5 -228.5t209.5 -74.5q160 0 232 72t92 225zM768 342l61 461q-30 71 -95.5 123.5t-162.5 52.5q-297 0 -348 -367l-6 -45q-25 -181 39.5 -282t218.5 -101q175 0 293 158z" />
    <glyph glyph-name="Gcommaaccent" unicode="&#x122;" horiz-adv-x="1327" 
d="M664 -115l-15 -104q-13 -105 -76.5 -162t-166.5 -57l10 73q116 0 149 111h-86l19 139h166zM600 -23q-584 0 -485 781l10 82q52 409 210.5 594.5t438.5 185.5q256 0 372 -138t79 -407l-8 -59h-152q32 246 -38 358.5t-251 112.5h-14q-203 0 -323.5 -155.5t-162.5 -491.5
l-10 -82q-42 -334 45 -490.5t293 -156.5h14q113 0 203 35t146 87l55 422h-274l16 131h422l-82 -624q-201 -185 -504 -185z" />
    <glyph glyph-name="gcommaaccent" unicode="&#x123;" horiz-adv-x="1099" 
d="M723 -6l25 199q-50 -62 -131 -100t-179 -38q-89 0 -158.5 26t-112.5 72.5t-70 110t-31 139.5t6 160l6 45q15 113 49.5 202.5t91 157t141 104t191.5 36.5q114 0 196.5 -55t114.5 -125l39 157h119l-51 -307l-105 -794q-53 -416 -465 -416q-115 0 -198 31.5t-126 87.5
t-57.5 128t-1.5 158l4 27h134q-25 -154 35.5 -228.5t209.5 -74.5q160 0 232 72t92 225zM768 342l61 461q-30 71 -95.5 123.5t-162.5 52.5q-297 0 -348 -367l-6 -45q-25 -181 39.5 -282t218.5 -101q175 0 293 158zM502 1257l14 107q34 256 250 256l-10 -74
q-66 0 -104.5 -32.5t-55.5 -112.5h92l-20 -144h-166z" />
    <glyph glyph-name="Hcircumflex" unicode="&#x124;" horiz-adv-x="1308" 
d="M1118 1597h148l-209 -1597h-148l99 750h-711l-98 -750h-148l209 1597h148l-95 -716h711zM1061 1720h-137l-117 142l-160 -142h-151l247 226h131z" />
    <glyph glyph-name="hcircumflex" unicode="&#x125;" horiz-adv-x="1081" 
d="M391 1638l-90 -686q55 69 143.5 112.5t198.5 43.5q172 0 251 -94.5t58 -253.5l-100 -760h-143l98 739q17 120 -39 180t-174 60q-187 0 -311 -170l-107 -809h-143l215 1638h143zM614 1720h-137l-117 142l-159 -142h-152l248 226h131z" />
    <glyph glyph-name="Hbar" unicode="&#x126;" horiz-adv-x="1308" 
d="M1118 1597h148l-209 -1597h-148l99 750h-711l-98 -750h-148l209 1597h148l-39 -288h710zM313 881h711l39 297h-711z" />
    <glyph glyph-name="hbar" unicode="&#x127;" horiz-adv-x="1081" 
d="M621 1296h-275l-45 -344q55 69 143.5 112.5t198.5 43.5q172 0 251 -94.5t58 -253.5l-100 -760h-143l98 739q17 120 -39 180t-174 60q-187 0 -311 -170l-107 -809h-143l170 1296h-189l19 131h186l29 211h143l-29 -211h277z" />
    <glyph glyph-name="Itilde" unicode="&#x128;" horiz-adv-x="468" 
d="M598 1917h98q-10 -95 -62.5 -143t-127.5 -48q-41 0 -81 18.5t-65.5 41t-57 41t-58.5 18.5q-38 0 -63 -23.5t-29 -72.5h-99q10 95 63 142.5t128 47.5q41 0 81 -18.5t65.5 -40.5t57 -40.5t58.5 -18.5q38 0 63 23.5t29 72.5zM418 1597l-209 -1597h-148l209 1597h148z" />
    <glyph glyph-name="itilde" unicode="&#x129;" horiz-adv-x="442" 
d="M532 1528h109q-15 -105 -66.5 -158t-128.5 -53q-41 0 -82 18.5t-69 41t-62.5 41t-62.5 18.5q-33 0 -55.5 -23.5t-28.5 -73.5h-109q13 105 64.5 158t128.5 53q41 0 82 -18.5t69 -40.5t62.5 -40.5t62.5 -18.5q72 0 86 96zM49 0l141 1085h144l-141 -1085h-144z" />
    <glyph glyph-name="Imacron" unicode="&#x12a;" horiz-adv-x="468" 
d="M137 1778l15 110h462l-14 -110h-463zM418 1597l-209 -1597h-148l209 1597h148z" />
    <glyph glyph-name="imacron" unicode="&#x12b;" horiz-adv-x="442" 
d="M59 1360l19 135h477l-16 -135h-480zM49 0l141 1085h144l-141 -1085h-144z" />
    <glyph glyph-name="Ibreve" unicode="&#x12c;" horiz-adv-x="468" 
d="M360 1698q-148 0 -215 68.5t-51 179.5h109q-11 -70 30.5 -112t133.5 -42t143.5 41.5t60.5 112.5h117q-14 -112 -96.5 -180t-231.5 -68zM418 1597l-209 -1597h-148l209 1597h148z" />
    <glyph glyph-name="ibreve" unicode="&#x12d;" horiz-adv-x="442" 
d="M291 1235q-171 0 -242.5 97.5t-48.5 264.5h111q-30 -249 180 -249q111 0 173.5 66t76.5 183h118q-21 -169 -111 -265.5t-257 -96.5zM49 0l141 1085h144l-141 -1085h-144z" />
    <glyph glyph-name="Iogonek" unicode="&#x12e;" horiz-adv-x="468" 
d="M418 1597l-209 -1597q-38 -16 -71 -36.5t-65 -49t-50.5 -66t-18.5 -79.5q0 -45 32.5 -69t88.5 -24q63 0 119 27l24 -94q-68 -41 -174 -41q-98 0 -152.5 42.5t-54.5 125.5q0 168 176 280l207 1581h148z" />
    <glyph glyph-name="iogonek" unicode="&#x12f;" horiz-adv-x="442" 
d="M193 0q-38 -16 -71 -36.5t-65 -49t-50.5 -66t-18.5 -79.5q0 -45 32.5 -69t88.5 -24q62 0 118 27l25 -94q-68 -41 -174 -41q-98 0 -152.5 42.5t-54.5 125.5q0 174 180 282l139 1067h144zM414 1526l-25 -185h-184l24 185h185z" />
    <glyph glyph-name="Idotaccent" unicode="&#x130;" horiz-adv-x="468" 
d="M465 1905l-19 -144h-161l18 144h162zM418 1597l-209 -1597h-148l209 1597h148z" />
    <glyph glyph-name="dotlessi" unicode="&#x131;" horiz-adv-x="442" 
d="M49 0l141 1085h144l-141 -1085h-144z" />
    <glyph glyph-name="IJ" unicode="&#x132;" horiz-adv-x="1021" 
d="M418 1597l-209 -1597h-148l209 1597h148zM672 313l168 1284h147l-172 -1312q-41 -308 -350 -308q-93 0 -143 25l18 129q45 -20 119 -20q98 0 148.5 44t64.5 158z" />
    <glyph glyph-name="ij" unicode="&#x133;" horiz-adv-x="784" 
d="M49 0l141 1085h144l-141 -1085h-144zM414 1526l-25 -185h-184l24 185h185zM379 -100l153 1185h144l-158 -1214q-40 -303 -356 -303q-100 0 -148 24l17 125q15 -7 52.5 -13.5t70.5 -6.5q100 0 155.5 45t69.5 158zM756 1526l-25 -185h-184l24 185h185z" />
    <glyph glyph-name="Jcircumflex" unicode="&#x134;" horiz-adv-x="1013" 
d="M1206 1720h-137l-117 142l-159 -142h-152l248 226h131zM834 1597h147l-145 -1105q-33 -258 -139.5 -386.5t-313.5 -128.5q-117 0 -197 36.5t-119.5 103.5t-51 162.5t7.5 212.5l4 28h139q-32 -219 18.5 -314t194.5 -95q141 0 212.5 93t100.5 312z" />
    <glyph glyph-name="jcircumflex" unicode="&#x135;" horiz-adv-x="442" 
d="M102 1257h-149l313 340h127l223 -340h-135l-159 232zM37 -100l153 1185h144l-158 -1214q-40 -303 -356 -303q-100 0 -148 24l17 125q15 -7 52.5 -13.5t70.5 -6.5q100 0 155.5 45t69.5 158z" />
    <glyph glyph-name="Kcommaaccent" unicode="&#x136;" horiz-adv-x="1150" 
d="M408 1597l-115 -866l715 866h182l-565 -673l356 -924h-164l-301 793l-254 -301l-63 -492h-148l209 1597h148zM537 -115l-15 -104q-13 -105 -76.5 -162t-166.5 -57l10 73q116 0 149 111h-86l19 139h166z" />
    <glyph glyph-name="kcommaaccent" unicode="&#x137;" horiz-adv-x="1026" 
d="M33 0l215 1638h143l-147 -1118l585 565h183l-428 -409l286 -676h-155l-240 573l-258 -249l-41 -324h-143zM489 -115l-14 -104q-13 -105 -77 -162t-167 -57l11 73q116 0 149 111h-86l19 139h165z" />
    <glyph glyph-name="kgreenlandic" unicode="&#x138;" horiz-adv-x="1026" 
d="M174 1085h143l-73 -565l585 565h183l-428 -409l286 -676h-155l-240 573l-258 -249l-41 -324h-143z" />
    <glyph glyph-name="Lacute" unicode="&#x139;" horiz-adv-x="1005" 
d="M430 1946h152l-158 -226h-148zM874 0h-823l209 1597h148l-193 -1464h676z" />
    <glyph glyph-name="lacute" unicode="&#x13a;" horiz-adv-x="444" 
d="M49 0l215 1638h144l-215 -1638h-144zM426 1946h152l-158 -226h-148z" />
    <glyph glyph-name="Lcommaaccent" unicode="&#x13b;" horiz-adv-x="1005" 
d="M874 0h-823l209 1597h148l-193 -1464h676zM532 -115l-14 -104q-13 -105 -77 -162t-167 -57l11 73q116 0 149 111h-86l19 139h165z" />
    <glyph glyph-name="lcommaaccent" unicode="&#x13c;" horiz-adv-x="444" 
d="M49 0l215 1638h144l-215 -1638h-144zM190 -115l-14 -104q-13 -105 -77 -162t-167 -57l11 73q116 0 149 111h-86l19 139h165z" />
    <glyph glyph-name="Lcaron" unicode="&#x13d;" horiz-adv-x="1005" 
d="M715 1638h116l-86 -381h-81zM874 0h-823l209 1597h148l-193 -1464h676z" />
    <glyph glyph-name="lcaron" unicode="&#x13e;" horiz-adv-x="444" 
d="M49 0l215 1638h144l-215 -1638h-144zM559 1638h117l-86 -381h-82z" />
    <glyph glyph-name="Ldot" unicode="&#x13f;" horiz-adv-x="1005" 
d="M874 0h-823l209 1597h148l-193 -1464h676zM815 899l-20 -168h-168l22 168h166z" />
    <glyph glyph-name="ldot" unicode="&#x140;" horiz-adv-x="686" 
d="M49 0l215 1638h144l-215 -1638h-144zM664 809l-25 -184h-184l24 184h185z" />
    <glyph glyph-name="Lslash" unicode="&#x141;" horiz-adv-x="1128" 
d="M6 543l19 137l254 123l104 794h147l-94 -718l475 231l-18 -137l-475 -232l-80 -608h676l-17 -133h-823l86 666z" />
    <glyph glyph-name="lslash" unicode="&#x142;" horiz-adv-x="673" 
d="M35 537l18 143l211 145l107 813h143l-92 -704l252 174l-19 -143l-254 -179l-102 -786h-143l90 682z" />
    <glyph glyph-name="Nacute" unicode="&#x143;" horiz-adv-x="1349" 
d="M879 1946h151l-158 -226h-147zM1307 1597l-209 -1597h-156l-577 1348l-43 -375l-127 -973h-144l209 1597h156l577 -1347l43 375l127 972h144z" />
    <glyph glyph-name="nacute" unicode="&#x144;" horiz-adv-x="1081" 
d="M766 1597h156l-238 -340h-147zM852 0h-143l98 739q17 120 -39 180t-174 60q-187 0 -311 -170l-107 -809h-143l104 791l27 294h123v-151q59 81 150 127.5t206 46.5q172 0 251 -94.5t58 -253.5z" />
    <glyph glyph-name="Ncommaaccent" unicode="&#x145;" horiz-adv-x="1349" 
d="M1307 1597l-209 -1597h-156l-577 1348l-43 -375l-127 -973h-144l209 1597h156l577 -1347l43 375l127 972h144zM641 -115l-14 -104q-13 -105 -77 -162t-167 -57l10 73q117 0 150 111h-86l18 139h166z" />
    <glyph glyph-name="ncommaaccent" unicode="&#x146;" horiz-adv-x="1081" 
d="M514 -115l-14 -104q-13 -105 -77 -162t-167 -57l10 73q117 0 150 111h-86l18 139h166zM852 0h-143l98 739q17 120 -39 180t-174 60q-187 0 -311 -170l-107 -809h-143l104 791l27 294h123v-151q59 81 150 127.5t206 46.5q172 0 251 -94.5t58 -253.5z" />
    <glyph glyph-name="Ncaron" unicode="&#x147;" horiz-adv-x="1349" 
d="M547 1946h137l117 -142l160 142h151l-248 -226h-131zM1307 1597l-209 -1597h-156l-577 1348l-43 -375l-127 -973h-144l209 1597h156l577 -1347l43 375l127 972h144z" />
    <glyph glyph-name="ncaron" unicode="&#x148;" horiz-adv-x="1081" 
d="M324 1597h135l159 -231l220 231h149l-313 -340h-127zM852 0h-143l98 739q17 120 -39 180t-174 60q-187 0 -311 -170l-107 -809h-143l104 791l27 294h123v-151q59 81 150 127.5t206 46.5q172 0 251 -94.5t58 -253.5z" />
    <glyph glyph-name="Eng" unicode="&#x14a;" horiz-adv-x="1349" 
d="M942 -100l8 77l-585 1371l-43 -375l-127 -973h-144l209 1597h156l577 -1347l43 375l127 972h144l-226 -1726q-40 -303 -356 -303q-99 0 -147 24l16 125q15 -7 52.5 -13.5t70.5 -6.5q101 0 157.5 45.5t67.5 157.5z" />
    <glyph glyph-name="eng" unicode="&#x14b;" horiz-adv-x="1081" 
d="M952 760l-116 -889q-40 -303 -357 -303q-99 0 -147 24l16 125q15 -7 52.5 -13.5t70.5 -6.5q100 0 155.5 45t69.5 158l111 839q17 120 -39 180t-174 60q-187 0 -311 -170l-107 -809h-143l104 791l27 294h123v-151q59 81 150 127.5t206 46.5q172 0 251 -94.5t58 -253.5z
" />
    <glyph glyph-name="Omacron" unicode="&#x14c;" horiz-adv-x="1329" 
d="M565 1778l15 110h462l-14 -110h-463zM762 1620q280 0 395 -186.5t64 -593.5l-11 -82q-52 -410 -206 -595.5t-431 -185.5q-279 0 -394.5 187t-63.5 594l10 82q52 410 206 595t431 185zM569 111h15q203 0 318 154.5t157 492.5l10 82q43 341 -29.5 494t-273.5 153h-14
q-203 0 -318.5 -154.5t-157.5 -492.5l-10 -82q-43 -341 29.5 -494t273.5 -153z" />
    <glyph glyph-name="omacron" unicode="&#x14d;" horiz-adv-x="1114" 
d="M395 1360l19 135h477l-17 -135h-479zM475 106q150 0 242 107t119 301l6 45q27 198 -38.5 309t-223.5 111q-150 0 -241 -107t-118 -301l-6 -45q-27 -199 37.5 -309.5t222.5 -110.5zM475 -23q-119 0 -206 42t-134.5 116.5t-64 172.5t-0.5 214l6 45q17 120 54.5 217
t98 170.5t150 113.5t201.5 40q119 0 206.5 -42t135.5 -116.5t64.5 -172.5t0.5 -214l-6 -45q-17 -120 -55 -217t-98.5 -170.5t-150.5 -113.5t-202 -40z" />
    <glyph glyph-name="Obreve" unicode="&#x14e;" horiz-adv-x="1329" 
d="M788 1698q-148 0 -215 68.5t-51 179.5h109q-11 -70 30.5 -112t133.5 -42t143.5 41.5t60.5 112.5h117q-14 -112 -96.5 -180t-231.5 -68zM762 1620q280 0 395 -186.5t64 -593.5l-11 -82q-52 -410 -206 -595.5t-431 -185.5q-279 0 -394.5 187t-63.5 594l10 82
q52 410 206 595t431 185zM569 111h15q203 0 318 154.5t157 492.5l10 82q43 341 -29.5 494t-273.5 153h-14q-203 0 -318.5 -154.5t-157.5 -492.5l-10 -82q-43 -341 29.5 -494t273.5 -153z" />
    <glyph glyph-name="obreve" unicode="&#x14f;" horiz-adv-x="1114" 
d="M627 1235q-171 0 -242.5 97.5t-48.5 264.5h110q-30 -249 181 -249q111 0 173.5 66t76.5 183h118q-21 -169 -111 -265.5t-257 -96.5zM475 106q150 0 242 107t119 301l6 45q27 198 -38.5 309t-223.5 111q-150 0 -241 -107t-118 -301l-6 -45q-27 -199 37.5 -309.5
t222.5 -110.5zM475 -23q-119 0 -206 42t-134.5 116.5t-64 172.5t-0.5 214l6 45q17 120 54.5 217t98 170.5t150 113.5t201.5 40q119 0 206.5 -42t135.5 -116.5t64.5 -172.5t0.5 -214l-6 -45q-17 -120 -55 -217t-98.5 -170.5t-150.5 -113.5t-202 -40z" />
    <glyph glyph-name="Ohungarumlaut" unicode="&#x150;" horiz-adv-x="1329" 
d="M741 1946h144l-156 -226h-137zM1001 1946h144l-160 -226h-137zM762 1620q280 0 395 -186.5t64 -593.5l-11 -82q-52 -410 -206 -595.5t-431 -185.5q-279 0 -394.5 187t-63.5 594l10 82q52 410 206 595t431 185zM569 111h15q203 0 318 154.5t157 492.5l10 82
q43 341 -29.5 494t-273.5 153h-14q-203 0 -318.5 -154.5t-157.5 -492.5l-10 -82q-43 -341 29.5 -494t273.5 -153z" />
    <glyph glyph-name="ohungarumlaut" unicode="&#x151;" horiz-adv-x="1114" 
d="M911 1597h140l-240 -340h-129zM647 1597h137l-225 -340h-129zM475 106q150 0 242 107t119 301l6 45q27 198 -38.5 309t-223.5 111q-150 0 -241 -107t-118 -301l-6 -45q-27 -199 37.5 -309.5t222.5 -110.5zM475 -23q-119 0 -206 42t-134.5 116.5t-64 172.5t-0.5 214l6 45
q17 120 54.5 217t98 170.5t150 113.5t201.5 40q119 0 206.5 -42t135.5 -116.5t64.5 -172.5t0.5 -214l-6 -45q-17 -120 -55 -217t-98.5 -170.5t-150.5 -113.5t-202 -40z" />
    <glyph glyph-name="OE" unicode="&#x152;" horiz-adv-x="1925" 
d="M1044 1464h-202q-488 0 -566 -624l-10 -82q-19 -136 -9 -239.5t39 -177t83.5 -119.5t124.5 -67.5t162 -21.5h202zM115 758l10 82q95 757 721 757h1106l-17 -133h-745l-76 -583h639l-16 -131h-641l-80 -617h743l-16 -133h-1092q-119 0 -211.5 25.5t-165 82t-113 145
t-55 214.5t8.5 291z" />
    <glyph glyph-name="oe" unicode="&#x153;" horiz-adv-x="1818" 
d="M1745 483h-766q-40 -377 291 -377q78 0 138.5 21t97 56.5t57 76.5t26.5 88h137l-4 -26q-10 -62 -42.5 -121t-86.5 -110.5t-139 -82.5t-188 -31q-316 0 -394 240q-124 -240 -397 -240q-119 0 -206 42t-134.5 116.5t-64 172.5t-0.5 214l6 45q17 120 54.5 217t98 170.5
t150 113.5t201.5 40q292 0 370 -248q131 248 410 248q97 0 171.5 -26t121.5 -74.5t75.5 -116t33 -150t-6.5 -178.5zM475 106q150 0 242 107t119 301l6 45q27 198 -38.5 309t-223.5 111q-150 0 -241 -107t-118 -301l-6 -45q-27 -199 37.5 -309.5t222.5 -110.5zM1360 979
q-147 0 -245 -104t-122 -273h623q25 183 -38.5 280t-217.5 97z" />
    <glyph glyph-name="Racute" unicode="&#x154;" horiz-adv-x="1196" 
d="M283 649l-84 -649h-148l209 1597h438q73 0 138 -12t128.5 -44.5t105 -83t60.5 -133.5t3 -189l-7 -41q-51 -332 -331 -416l188 -678h-162l-170 651q-23 -2 -67 -2h-301zM301 782h305q46 0 88 6.5t90.5 27.5t85.5 54.5t66.5 93t40.5 138.5l4 31q11 79 -3.5 139.5t-44.5 96
t-74 57.5t-85.5 30t-87.5 8h-297zM766 1946h152l-158 -226h-148z" />
    <glyph glyph-name="racute" unicode="&#x155;" horiz-adv-x="681" 
d="M584 1597h155l-237 -340h-148zM608 1108l29 -2l-16 -141h-29q-76 0 -142 -29t-103 -64.5t-66 -78.5l-105 -793h-143l104 791l27 294h123v-141q53 74 134.5 119t186.5 45z" />
    <glyph glyph-name="Rcommaaccent" unicode="&#x156;" horiz-adv-x="1196" 
d="M283 649l-84 -649h-148l209 1597h438q73 0 138 -12t128.5 -44.5t105 -83t60.5 -133.5t3 -189l-7 -41q-51 -332 -331 -416l188 -678h-162l-170 651q-23 -2 -67 -2h-301zM301 782h305q46 0 88 6.5t90.5 27.5t85.5 54.5t66.5 93t40.5 138.5l4 31q11 79 -3.5 139.5t-44.5 96
t-74 57.5t-85.5 30t-87.5 8h-297zM549 -115l-14 -104q-13 -105 -77 -162t-167 -57l10 73q117 0 150 111h-86l18 139h166z" />
    <glyph glyph-name="rcommaaccent" unicode="&#x157;" horiz-adv-x="681" 
d="M176 -115l-14 -104q-13 -105 -77 -162t-167 -57l10 73q117 0 150 111h-86l18 139h166zM608 1108l29 -2l-16 -141h-29q-76 0 -142 -29t-103 -64.5t-66 -78.5l-105 -793h-143l104 791l27 294h123v-141q53 74 134.5 119t186.5 45z" />
    <glyph glyph-name="Rcaron" unicode="&#x158;" horiz-adv-x="1196" 
d="M283 649l-84 -649h-148l209 1597h438q73 0 138 -12t128.5 -44.5t105 -83t60.5 -133.5t3 -189l-7 -41q-51 -332 -331 -416l188 -678h-162l-170 651q-23 -2 -67 -2h-301zM301 782h305q46 0 88 6.5t90.5 27.5t85.5 54.5t66.5 93t40.5 138.5l4 31q11 79 -3.5 139.5t-44.5 96
t-74 57.5t-85.5 30t-87.5 8h-297zM434 1946h137l117 -142l160 142h151l-247 -226h-131z" />
    <glyph glyph-name="rcaron" unicode="&#x159;" horiz-adv-x="681" 
d="M141 1597h135l160 -231l219 231h150l-313 -340h-127zM608 1108l29 -2l-16 -141h-29q-76 0 -142 -29t-103 -64.5t-66 -78.5l-105 -793h-143l104 791l27 294h123v-141q53 74 134.5 119t186.5 45z" />
    <glyph glyph-name="Sacute" unicode="&#x15a;" horiz-adv-x="1230" 
d="M819 1946h152l-158 -226h-147zM586 760q-473 83 -420 438l6 41q30 194 167 287.5t361 93.5q272 0 384.5 -137.5t74.5 -397.5l-4 -28h-147q33 222 -45 326t-261 104h-20q-151 0 -247 -64t-113 -188l-5 -31q-18 -130 60.5 -208t286.5 -115q249 -45 353.5 -158t76.5 -297
l-7 -41q-30 -205 -175.5 -306.5t-387.5 -101.5q-255 0 -378.5 135t-88.5 380l4 28h148q-18 -111 -5 -188.5t59 -126.5t110 -71.5t147 -22.5h21q169 0 273 69t124 209l4 31q19 140 -67.5 222.5t-288.5 117.5z" />
    <glyph glyph-name="sacute" unicode="&#x15b;" horiz-adv-x="1069" 
d="M754 1597h155l-237 -340h-148zM455 106q146 0 217 54t71 164q0 79 -60 116t-204 58q-199 27 -280 103t-66 204l2 16q17 135 126 211t292 76q222 0 316 -93.5t69 -252.5l-4 -27h-139q16 122 -39 183t-203 61q-277 0 -277 -205q0 -72 59 -107.5t210 -54.5
q189 -22 274.5 -99t67.5 -220l-2 -17q-18 -137 -128.5 -218t-301.5 -81q-117 0 -202 26.5t-129.5 73t-60.5 103.5t-6 125l4 27h142q-15 -109 42 -167.5t210 -58.5z" />
    <glyph glyph-name="Scircumflex" unicode="&#x15c;" horiz-adv-x="1230" 
d="M1022 1720h-137l-117 142l-160 -142h-151l248 226h131zM586 760q-473 83 -420 438l6 41q30 194 167 287.5t361 93.5q272 0 384.5 -137.5t74.5 -397.5l-4 -28h-147q33 222 -45 326t-261 104h-20q-151 0 -247 -64t-113 -188l-5 -31q-18 -130 60.5 -208t286.5 -115
q249 -45 353.5 -158t76.5 -297l-7 -41q-30 -205 -175.5 -306.5t-387.5 -101.5q-255 0 -378.5 135t-88.5 380l4 28h148q-18 -111 -5 -188.5t59 -126.5t110 -71.5t147 -22.5h21q169 0 273 69t124 209l4 31q19 140 -67.5 222.5t-288.5 117.5z" />
    <glyph glyph-name="scircumflex" unicode="&#x15d;" horiz-adv-x="1069" 
d="M416 1257h-150l314 340h127l223 -340h-135l-160 232zM455 106q146 0 217 54t71 164q0 79 -60 116t-204 58q-199 27 -280 103t-66 204l2 16q17 135 126 211t292 76q222 0 316 -93.5t69 -252.5l-4 -27h-139q16 122 -39 183t-203 61q-277 0 -277 -205q0 -72 59 -107.5
t210 -54.5q189 -22 274.5 -99t67.5 -220l-2 -17q-18 -137 -128.5 -218t-301.5 -81q-117 0 -202 26.5t-129.5 73t-60.5 103.5t-6 125l4 27h142q-15 -109 42 -167.5t210 -58.5z" />
    <glyph glyph-name="Scedilla" unicode="&#x15e;" horiz-adv-x="1230" 
d="M586 760q-473 83 -420 438l6 41q30 194 167 287.5t361 93.5q272 0 384.5 -137.5t74.5 -397.5l-4 -28h-147q33 222 -45 326t-261 104h-20q-151 0 -247 -64t-113 -188l-5 -31q-18 -130 60.5 -208t286.5 -115q249 -45 353.5 -158t76.5 -297l-7 -41q-30 -197 -166.5 -298.5
t-363.5 -109.5l-51 -96h8q75 -2 125.5 -35t50.5 -106q0 -87 -60 -129.5t-161 -42.5q-56 0 -107 16t-81 39l41 74q62 -43 145 -43q127 0 127 80q0 69 -113 69l-63 -6l-27 39l74 144q-226 15 -334 148.5t-74 363.5l4 28h148q-18 -111 -5 -188.5t59 -126.5t110 -71.5t147 -22.5
h21q169 0 273 69t124 209l4 31q19 140 -67.5 222.5t-288.5 117.5z" />
    <glyph glyph-name="scedilla" unicode="&#x15f;" horiz-adv-x="1069" 
d="M455 106q146 0 217 54t71 164q0 79 -60 116t-204 58q-199 27 -280 103t-66 204l2 16q17 135 126 211t292 76q222 0 316 -93.5t69 -252.5l-4 -27h-139q16 122 -39 183t-203 61q-277 0 -277 -205q0 -72 59 -107.5t210 -54.5q189 -22 274.5 -99t67.5 -220l-2 -17
q-18 -132 -120 -211t-280 -85l-51 -99h8q75 -2 125.5 -35t50.5 -106q0 -87 -60 -129.5t-161 -42.5q-56 0 -107 16t-81 39l41 74q62 -43 145 -43q127 0 127 80q0 69 -112 69l-64 -6l-27 39l74 144q-194 13 -275 102.5t-61 222.5l4 27h142q-15 -109 42 -167.5t210 -58.5z" />
    <glyph glyph-name="Scaron" unicode="&#x160;" horiz-adv-x="1230" 
d="M487 1946h138l116 -142l160 142h152l-248 -226h-131zM586 760q-473 83 -420 438l6 41q30 194 167 287.5t361 93.5q272 0 384.5 -137.5t74.5 -397.5l-4 -28h-147q33 222 -45 326t-261 104h-20q-151 0 -247 -64t-113 -188l-5 -31q-18 -130 60.5 -208t286.5 -115
q249 -45 353.5 -158t76.5 -297l-7 -41q-30 -205 -175.5 -306.5t-387.5 -101.5q-255 0 -378.5 135t-88.5 380l4 28h148q-18 -111 -5 -188.5t59 -126.5t110 -71.5t147 -22.5h21q169 0 273 69t124 209l4 31q19 140 -67.5 222.5t-288.5 117.5z" />
    <glyph glyph-name="scaron" unicode="&#x161;" horiz-adv-x="1069" 
d="M311 1597h135l160 -231l219 231h150l-313 -340h-127zM455 106q146 0 217 54t71 164q0 79 -60 116t-204 58q-199 27 -280 103t-66 204l2 16q17 135 126 211t292 76q222 0 316 -93.5t69 -252.5l-4 -27h-139q16 122 -39 183t-203 61q-277 0 -277 -205q0 -72 59 -107.5
t210 -54.5q189 -22 274.5 -99t67.5 -220l-2 -17q-18 -137 -128.5 -218t-301.5 -81q-117 0 -202 26.5t-129.5 73t-60.5 103.5t-6 125l4 27h142q-15 -109 42 -167.5t210 -58.5z" />
    <glyph glyph-name="Tcommaaccent" unicode="&#x162;" horiz-adv-x="1054" 
d="M494 -115l-15 -104q-13 -105 -76.5 -162t-166.5 -57l10 73q116 0 149 111h-86l19 139h166zM692 1464l-192 -1464h-148l193 1464h-406l17 133h960l-16 -133h-408z" />
    <glyph glyph-name="tcommaaccent" unicode="&#x163;" horiz-adv-x="819" 
d="M442 -115l-14 -104q-13 -105 -77 -162t-167 -57l11 73q116 0 149 111h-86l18 139h166zM420 1085h344l-16 -129h-345l-84 -639q-16 -120 27.5 -165.5t134.5 -45.5q80 0 137 19l-16 -125q-69 -23 -141 -23q-155 0 -232 79t-55 247l86 653h-172l16 129h172l41 308h144z" />
    <glyph glyph-name="Tcaron" unicode="&#x164;" horiz-adv-x="1054" 
d="M399 1946h138l116 -142l160 142h152l-248 -226h-131zM692 1464l-192 -1464h-148l193 1464h-406l17 133h960l-16 -133h-408z" />
    <glyph glyph-name="tcaron" unicode="&#x165;" horiz-adv-x="819" 
d="M645 1638h117l-86 -381h-82zM420 1085h344l-16 -129h-345l-84 -639q-16 -120 27.5 -165.5t134.5 -45.5q80 0 137 19l-16 -125q-69 -23 -141 -23q-155 0 -232 79t-55 247l86 653h-172l16 129h172l41 308h144z" />
    <glyph glyph-name="Tbar" unicode="&#x166;" horiz-adv-x="1054" 
d="M854 750h-256l-98 -750h-148l99 750h-258l18 131h256l78 583h-406l17 133h960l-16 -133h-408l-78 -583h258z" />
    <glyph glyph-name="tbar" unicode="&#x167;" horiz-adv-x="819" 
d="M606 477h-266l-21 -160q-16 -120 27.5 -165.5t134.5 -45.5q80 0 137 19l-16 -125q-69 -23 -141 -23q-155 0 -232 79t-55 247l23 174h-166l18 131h164l47 348h-172l16 129h172l41 308h144l-41 -308h344l-16 -129h-345l-47 -348h269z" />
    <glyph glyph-name="Utilde" unicode="&#x168;" horiz-adv-x="1308" 
d="M1016 1917h98q-10 -95 -62.5 -143t-127.5 -48q-41 0 -81 18.5t-65.5 41t-57 41t-58.5 18.5q-38 0 -63.5 -24t-29.5 -72h-98q10 95 63 142.5t128 47.5q41 0 81 -18.5t65.5 -40.5t57 -40.5t58.5 -18.5q38 0 63 23.5t29 72.5zM557 -23q-131 0 -222.5 27.5t-151 88t-79 161
t-0.5 242.5l146 1101h147l-143 -1091q-29 -219 44 -307t263 -88q191 0 293.5 89.5t130.5 305.5l143 1091h148l-146 -1101q-36 -279 -174 -399t-399 -120z" />
    <glyph glyph-name="utilde" unicode="&#x169;" horiz-adv-x="1081" 
d="M846 1528h108q-15 -105 -66.5 -158t-127.5 -53q-41 0 -82.5 18.5t-69.5 41t-62.5 41t-62.5 18.5q-33 0 -55.5 -23.5t-28.5 -73.5h-108q13 105 64 158t128 53q41 0 82.5 -18.5t69.5 -40.5t62.5 -40.5t62.5 -18.5q72 0 86 96zM168 1085h143l-98 -739q-17 -120 39 -180
t174 -60q187 0 311 170l107 809h143l-104 -790l-27 -295h-123v152q-59 -81 -150 -128t-206 -47q-172 0 -251 95t-58 254z" />
    <glyph glyph-name="Umacron" unicode="&#x16a;" horiz-adv-x="1308" 
d="M555 1778l14 110h463l-14 -110h-463zM557 -23q-131 0 -222.5 27.5t-151 88t-79 161t-0.5 242.5l146 1101h147l-143 -1091q-29 -219 44 -307t263 -88q191 0 293.5 89.5t130.5 305.5l143 1091h148l-146 -1101q-36 -279 -174 -399t-399 -120z" />
    <glyph glyph-name="umacron" unicode="&#x16b;" horiz-adv-x="1081" 
d="M373 1360l18 135h477l-16 -135h-479zM168 1085h143l-98 -739q-17 -120 39 -180t174 -60q187 0 311 170l107 809h143l-104 -790l-27 -295h-123v152q-59 -81 -150 -128t-206 -47q-172 0 -251 95t-58 254z" />
    <glyph glyph-name="Ubreve" unicode="&#x16c;" horiz-adv-x="1308" 
d="M778 1698q-148 0 -215 68.5t-51 179.5h109q-11 -70 30 -112t133 -42t144 41.5t61 112.5h117q-14 -112 -96.5 -180t-231.5 -68zM557 -23q-131 0 -222.5 27.5t-151 88t-79 161t-0.5 242.5l146 1101h147l-143 -1091q-29 -219 44 -307t263 -88q191 0 293.5 89.5t130.5 305.5
l143 1091h148l-146 -1101q-36 -279 -174 -399t-399 -120z" />
    <glyph glyph-name="ubreve" unicode="&#x16d;" horiz-adv-x="1081" 
d="M604 1235q-171 0 -242.5 97.5t-48.5 264.5h111q-30 -249 180 -249q111 0 173.5 66t76.5 183h119q-21 -169 -111.5 -265.5t-257.5 -96.5zM168 1085h143l-98 -739q-17 -120 39 -180t174 -60q187 0 311 170l107 809h143l-104 -790l-27 -295h-123v152q-59 -81 -150 -128
t-206 -47q-172 0 -251 95t-58 254z" />
    <glyph glyph-name="Uring" unicode="&#x16e;" horiz-adv-x="1308" 
d="M768 1661q56 0 94.5 33t38.5 96q0 44 -26 72t-72 28q-56 0 -94.5 -33t-38.5 -96q0 -44 26 -72t72 -28zM768 1583q-83 0 -130.5 49.5t-47.5 128.5q0 88 62 147.5t151 59.5q83 0 130.5 -49.5t47.5 -128.5q0 -88 -62 -147.5t-151 -59.5zM557 -23q-131 0 -222.5 27.5t-151 88
t-79 161t-0.5 242.5l146 1101h147l-143 -1091q-29 -219 44 -307t263 -88q191 0 293.5 89.5t130.5 305.5l143 1091h148l-146 -1101q-36 -279 -174 -399t-399 -120z" />
    <glyph glyph-name="uring" unicode="&#x16f;" horiz-adv-x="1081" 
d="M604 1313q56 0 94.5 33t38.5 96q0 44 -26 72t-72 28q-56 0 -94.5 -33t-38.5 -96q0 -44 26 -72t72 -28zM604 1235q-83 0 -130.5 49.5t-47.5 128.5q0 88 62 147.5t151 59.5q83 0 130.5 -49.5t47.5 -128.5q0 -88 -62 -147.5t-151 -59.5zM168 1085h143l-98 -739
q-17 -120 39 -180t174 -60q187 0 311 170l107 809h143l-104 -790l-27 -295h-123v152q-59 -81 -150 -128t-206 -47q-172 0 -251 95t-58 254z" />
    <glyph glyph-name="Uhungarumlaut" unicode="&#x170;" horiz-adv-x="1308" 
d="M731 1946h143l-155 -226h-137zM991 1946h144l-160 -226h-137zM557 -23q-131 0 -222.5 27.5t-151 88t-79 161t-0.5 242.5l146 1101h147l-143 -1091q-29 -219 44 -307t263 -88q191 0 293.5 89.5t130.5 305.5l143 1091h148l-146 -1101q-36 -279 -174 -399t-399 -120z" />
    <glyph glyph-name="uhungarumlaut" unicode="&#x171;" horiz-adv-x="1081" 
d="M889 1597h139l-240 -340h-129zM625 1597h137l-225 -340h-129zM168 1085h143l-98 -739q-17 -120 39 -180t174 -60q187 0 311 170l107 809h143l-104 -790l-27 -295h-123v152q-59 -81 -150 -128t-206 -47q-172 0 -251 95t-58 254z" />
    <glyph glyph-name="Uogonek" unicode="&#x172;" horiz-adv-x="1308" 
d="M557 -23q-131 0 -222.5 27.5t-151 88t-79 161t-0.5 242.5l146 1101h147l-143 -1091q-29 -219 44 -307t263 -88q191 0 293.5 89.5t130.5 305.5l143 1091h148l-146 -1101q-29 -218 -118.5 -337.5t-247.5 -158.5q-77 -19 -141 -84t-64 -147q0 -45 32.5 -69t88.5 -24
q63 0 119 27l24 -94q-68 -41 -174 -41q-98 0 -152.5 42.5t-54.5 125.5q0 142 121 241h-6z" />
    <glyph glyph-name="uogonek" unicode="&#x173;" horiz-adv-x="1081" 
d="M168 1085h143l-98 -739q-17 -120 39 -180t174 -60q187 0 311 170l107 809h143l-104 -790l-27 -295q-38 -16 -71 -36.5t-65 -49t-50.5 -66t-18.5 -79.5q0 -45 32.5 -69t88.5 -24q63 0 119 27l24 -94q-68 -41 -174 -41q-97 0 -151.5 42.5t-54.5 125.5q0 183 198 293v123
q-59 -81 -150 -128t-206 -47q-172 0 -251 95t-58 254z" />
    <glyph glyph-name="Wcircumflex" unicode="&#x174;" horiz-adv-x="1832" 
d="M1323 1720h-137l-117 142l-160 -142h-151l248 226h131zM1147 -16l-141 1462l-525 -1462h-200l-88 1613h151l62 -1431l516 1431h198l142 -1431l436 1431h160l-508 -1613h-203z" />
    <glyph glyph-name="wcircumflex" unicode="&#x175;" horiz-adv-x="1468" 
d="M614 1257h-149l313 340h127l223 -340h-135l-159 232zM754 926l-369 -926h-188l-93 1085h142l67 -935l373 935h174l129 -935l311 935h146l-375 -1085h-190z" />
    <glyph glyph-name="Ycircumflex" unicode="&#x176;" horiz-adv-x="1181" 
d="M999 1720h-137l-117 142l-159 -142h-152l248 226h131zM629 483l-64 -483h-147l63 483l-329 1114h153l270 -933l508 933h166z" />
    <glyph glyph-name="ycircumflex" unicode="&#x177;" horiz-adv-x="991" 
d="M391 1257h-149l313 340h127l223 -340h-135l-160 232zM430 197l426 888h160l-527 -1044l-213 -451h-165l229 451l-252 1044h148z" />
    <glyph glyph-name="Ydieresis" unicode="&#x178;" horiz-adv-x="1181" 
d="M662 1905l-19 -144h-162l19 144h162zM981 1905l-18 -144h-162l18 144h162zM629 483l-64 -483h-147l63 483l-329 1114h153l270 -933l508 933h166z" />
    <glyph glyph-name="Zacute" unicode="&#x179;" horiz-adv-x="1153" 
d="M774 1946h152l-158 -226h-147zM-8 102l973 1368l-258 -6h-514l16 133h948l-12 -102l-973 -1368l258 6h555l-16 -133h-989z" />
    <glyph glyph-name="zacute" unicode="&#x17a;" horiz-adv-x="948" 
d="M688 1597h156l-238 -340h-147zM-16 98l708 860l-241 -2h-334l16 129h760l-12 -98l-709 -860l242 2h374l-16 -129h-801z" />
    <glyph glyph-name="Zdotaccent" unicode="&#x17b;" horiz-adv-x="1153" 
d="M799 1905l-19 -144h-162l19 144h162zM-8 102l973 1368l-258 -6h-514l16 133h948l-12 -102l-973 -1368l258 6h555l-16 -133h-989z" />
    <glyph glyph-name="zdotaccent" unicode="&#x17c;" horiz-adv-x="948" 
d="M659 1526l-24 -185h-184l24 185h184zM-16 98l708 860l-241 -2h-334l16 129h760l-12 -98l-709 -860l242 2h374l-16 -129h-801z" />
    <glyph glyph-name="Zcaron" unicode="&#x17d;" horiz-adv-x="1153" 
d="M442 1946h138l116 -142l160 142h152l-248 -226h-131zM-8 102l973 1368l-258 -6h-514l16 133h948l-12 -102l-973 -1368l258 6h555l-16 -133h-989z" />
    <glyph glyph-name="zcaron" unicode="&#x17e;" horiz-adv-x="948" 
d="M246 1597h135l160 -231l219 231h149l-313 -340h-127zM-16 98l708 860l-241 -2h-334l16 129h760l-12 -98l-709 -860l242 2h374l-16 -129h-801z" />
    <glyph glyph-name="Scommaaccent" unicode="&#x218;" horiz-adv-x="1230" 
d="M582 -115l-15 -104q-13 -105 -76.5 -162t-166.5 -57l10 73q116 0 149 111h-86l19 139h166zM586 760q-473 83 -420 438l6 41q30 194 167 287.5t361 93.5q272 0 384.5 -137.5t74.5 -397.5l-4 -28h-147q33 222 -45 326t-261 104h-20q-151 0 -247 -64t-113 -188l-5 -31
q-18 -130 60.5 -208t286.5 -115q249 -45 353.5 -158t76.5 -297l-7 -41q-30 -205 -175.5 -306.5t-387.5 -101.5q-255 0 -378.5 135t-88.5 380l4 28h148q-18 -111 -5 -188.5t59 -126.5t110 -71.5t147 -22.5h21q169 0 273 69t124 209l4 31q19 140 -67.5 222.5t-288.5 117.5z
" />
    <glyph glyph-name="scommaaccent" unicode="&#x219;" horiz-adv-x="1069" 
d="M502 -115l-15 -104q-13 -105 -76.5 -162t-166.5 -57l10 73q116 0 149 111h-86l19 139h166zM455 106q146 0 217 54t71 164q0 79 -60 116t-204 58q-199 27 -280 103t-66 204l2 16q17 135 126 211t292 76q222 0 316 -93.5t69 -252.5l-4 -27h-139q16 122 -39 183t-203 61
q-277 0 -277 -205q0 -72 59 -107.5t210 -54.5q189 -22 274.5 -99t67.5 -220l-2 -17q-18 -137 -128.5 -218t-301.5 -81q-117 0 -202 26.5t-129.5 73t-60.5 103.5t-6 125l4 27h142q-15 -109 42 -167.5t210 -58.5z" />
    <glyph glyph-name="Ymacron" unicode="&#x232;" horiz-adv-x="1181" 
d="M494 1778l14 110h463l-15 -110h-462zM629 483l-64 -483h-147l63 483l-329 1114h153l270 -933l508 933h166z" />
    <glyph glyph-name="ymacron" unicode="&#x233;" horiz-adv-x="991" 
d="M348 1360l19 135h477l-17 -135h-479zM430 197l426 888h160l-527 -1044l-213 -451h-165l229 451l-252 1044h148z" />
    <glyph glyph-name="dotlessj" unicode="&#x237;" horiz-adv-x="442" 
d="M37 -100l153 1185h144l-158 -1214q-40 -303 -356 -303q-100 0 -148 24l17 125q15 -7 52.5 -13.5t70.5 -6.5q100 0 155.5 45t69.5 158z" />
    <glyph glyph-name="circumflex" unicode="&#x2c6;" horiz-adv-x="1024" 
d="M393 1257h-149l313 340h127l223 -340h-135l-160 232z" />
    <glyph glyph-name="caron" unicode="&#x2c7;" horiz-adv-x="1024" 
d="M289 1597h135l160 -231l219 231h149l-313 -340h-127z" />
    <glyph glyph-name="breve" unicode="&#x2d8;" horiz-adv-x="1024" 
d="M582 1235q-171 0 -242.5 97.5t-48.5 264.5h110q-30 -249 181 -249q110 0 172.5 66t76.5 183h119q-21 -169 -111 -265.5t-257 -96.5z" />
    <glyph glyph-name="dotaccent" unicode="&#x2d9;" horiz-adv-x="1024" 
d="M702 1526l-24 -185h-184l24 185h184z" />
    <glyph glyph-name="ring" unicode="&#x2da;" horiz-adv-x="1024" 
d="M582 1313q56 0 94.5 33t38.5 96q0 44 -26.5 72t-72.5 28q-56 0 -94.5 -33t-38.5 -96q0 -44 26.5 -72t72.5 -28zM582 1235q-83 0 -131 50t-48 128q0 88 62 147.5t151 59.5q83 0 131 -50t48 -128q0 -88 -62 -147.5t-151 -59.5z" />
    <glyph glyph-name="ogonek" unicode="&#x2db;" horiz-adv-x="1232" 
d="M479 0q-38 -16 -71 -36.5t-65 -49t-50.5 -66t-18.5 -79.5q0 -45 32.5 -69t88.5 -24q63 0 119 27l25 -94q-68 -41 -174 -41q-98 0 -152.5 42.5t-54.5 125.5q0 64 26 120.5t70.5 98t94 70.5t106.5 51z" />
    <glyph glyph-name="tilde" unicode="&#x2dc;" horiz-adv-x="1024" 
d="M823 1528h109q-15 -105 -66.5 -158t-128.5 -53q-41 0 -82 18.5t-69 41t-62.5 41t-62.5 18.5q-33 0 -55.5 -23.5t-28.5 -73.5h-109q13 105 64.5 158t128.5 53q41 0 82 -18.5t69 -40.5t62.5 -40.5t62.5 -18.5q72 0 86 96z" />
    <glyph glyph-name="hungarumlaut" unicode="&#x2dd;" horiz-adv-x="1024" 
d="M866 1597h140l-240 -340h-129zM602 1597h137l-225 -340h-129z" />
    <glyph glyph-name="Bdotaccent" unicode="&#x1e02;" horiz-adv-x="1200" 
d="M791 1905l-19 -144h-162l19 144h162zM260 1597h418q103 0 183.5 -23t139.5 -71t84.5 -128t12.5 -187l-4 -33q-17 -131 -95 -219t-190 -115q114 -21 183 -124t50 -251l-4 -32q-53 -414 -538 -414h-449zM614 754h-317l-82 -621h301q334 0 371 285l4 33q19 149 -60.5 226
t-216.5 77zM668 1464h-277l-76 -577h275q148 0 241 65t111 207l4 33q18 142 -58.5 207t-219.5 65z" />
    <glyph glyph-name="bdotaccent" unicode="&#x1e03;" horiz-adv-x="1099" 
d="M393 1638l-88 -667q50 62 130 99.5t177 37.5q144 0 235 -72.5t121.5 -193.5t8.5 -279l-6 -45q-17 -122 -52.5 -218t-92.5 -170t-142 -113.5t-192 -39.5q-114 0 -195.5 55.5t-114.5 125.5l-39 -158h-118l51 307l174 1331h143zM215 283q32 -72 96.5 -124.5t161.5 -52.5
q150 0 237.5 106.5t114.5 301.5l6 45q27 198 -37.5 309t-215.5 111q-176 0 -291 -158zM436 1905l-18 -144h-162l18 144h162z" />
    <glyph glyph-name="Ddotaccent" unicode="&#x1e0a;" horiz-adv-x="1308" 
d="M827 1905l-18 -144h-162l19 144h161zM1200 840l-10 -82q-95 -758 -721 -758h-418l209 1597h404q119 0 211.5 -25.5t165 -81.5t113 -144.5t55 -214.5t-8.5 -291zM215 133h258q487 0 565 625l11 82q19 171 4 289.5t-70.5 193t-137 108t-196.5 33.5h-258z" />
    <glyph glyph-name="ddotaccent" unicode="&#x1e0b;" horiz-adv-x="1105" 
d="M434 -23q-144 0 -235 73t-121 193.5t-8 278.5l6 45q17 122 52.5 218t92.5 170t142 113.5t192 39.5q59 0 111 -16t88 -41t60 -50t38 -49l90 686h143l-176 -1343l-26 -295h-123v137q-52 -73 -139 -116.5t-187 -43.5zM573 979q-150 0 -237.5 -106.5t-114.5 -301.5l-6 -45
q-27 -198 38.5 -309t215.5 -111q176 0 293 156l69 539q-32 72 -96.5 125t-161.5 53zM1128 1905l-18 -144h-162l19 144h161z" />
    <glyph glyph-name="Fdotaccent" unicode="&#x1e1e;" horiz-adv-x="1050" 
d="M260 1597h858l-16 -133h-713l-76 -583h607l-19 -131h-606l-96 -750h-148zM844 1905l-19 -144h-161l18 144h162z" />
    <glyph glyph-name="fdotaccent" unicode="&#x1e1f;" horiz-adv-x="778" 
d="M453 1331l-33 -246h303l-16 -129h-304l-124 -956h-144l125 956h-172l16 129h172l37 275q40 301 359 301q97 0 147 -25l-16 -123q-15 7 -52.5 13t-70.5 6q-101 0 -157 -44.5t-70 -156.5zM719 1905l-19 -144h-161l18 144h162z" />
    <glyph glyph-name="Mdotaccent" unicode="&#x1e40;" horiz-adv-x="1644" 
d="M1055 1905l-19 -144h-162l19 144h162zM1430 1341l-642 -1341h-133l-288 1341l-41 -356l-127 -985h-148l209 1597h203l287 -1343l643 1343h211l-209 -1597h-148l127 985z" />
    <glyph glyph-name="mdotaccent" unicode="&#x1e41;" horiz-adv-x="1648" 
d="M1425 0h-143l100 766q14 113 -35 163t-153 50q-90 0 -166 -50t-121 -114l-106 -815h-144l101 766q14 113 -35.5 163t-153.5 50q-90 0 -164.5 -49.5t-121.5 -114.5l-107 -815h-143l104 791l27 294h123v-145q56 74 140.5 121t190.5 47q117 0 187.5 -48.5t91.5 -131.5
q62 80 150.5 130t195.5 50q150 0 227.5 -83.5t57.5 -238.5zM1022 1526l-25 -185h-184l25 185h184z" />
    <glyph glyph-name="Pdotaccent" unicode="&#x1e56;" horiz-adv-x="1173" 
d="M817 1905l-18 -144h-162l18 144h162zM283 649l-84 -649h-148l209 1597h438q73 0 138 -12t128.5 -44.5t105 -83t60.5 -133.5t3 -189l-7 -41q-16 -106 -56.5 -186.5t-92.5 -128.5t-120.5 -78t-133.5 -41t-139 -11h-301zM301 782h305q46 0 88 6.5t90.5 27.5t85.5 54.5
t66.5 93t40.5 138.5l4 31q11 79 -3.5 139.5t-44.5 96t-74 57.5t-85.5 30t-87.5 8h-297z" />
    <glyph glyph-name="pdotaccent" unicode="&#x1e57;" horiz-adv-x="1099" 
d="M612 1108q144 0 235 -72.5t121.5 -193.5t8.5 -279l-6 -45q-17 -122 -52.5 -218t-92.5 -170t-142 -113.5t-192 -39.5q-59 0 -111 16t-88 41t-60 50t-38 49l-72 -543h-143l157 1201l27 294h123v-137q52 73 138.5 116.5t186.5 43.5zM473 106q150 0 237.5 106.5t114.5 301.5
l6 45q27 198 -38 309t-215 111q-176 0 -293 -156l-70 -538q32 -72 96.5 -125.5t161.5 -53.5zM754 1526l-25 -185h-184l24 185h185z" />
    <glyph glyph-name="Tdotaccent" unicode="&#x1e6a;" horiz-adv-x="1054" 
d="M756 1905l-19 -144h-162l19 144h162zM692 1464l-192 -1464h-148l193 1464h-406l17 133h960l-16 -133h-408z" />
    <glyph glyph-name="tdotaccent" unicode="&#x1e6b;" horiz-adv-x="819" 
d="M420 1085h344l-16 -129h-345l-84 -639q-16 -120 27.5 -165.5t134.5 -45.5q80 0 137 19l-16 -125q-69 -23 -141 -23q-155 0 -232 79t-55 247l86 653h-172l16 129h172l41 308h144zM506 1659l-19 -143h-161l18 143h162z" />
    <glyph glyph-name="Wgrave" unicode="&#x1e80;" horiz-adv-x="1832" 
d="M870 1946h152l92 -226h-147zM1147 -16l-141 1462l-525 -1462h-200l-88 1613h151l62 -1431l516 1431h198l142 -1431l436 1431h160l-508 -1613h-203z" />
    <glyph glyph-name="wgrave" unicode="&#x1e81;" horiz-adv-x="1468" 
d="M575 1597h156l139 -340h-147zM754 926l-369 -926h-188l-93 1085h142l67 -935l373 935h174l129 -935l311 935h146l-375 -1085h-190z" />
    <glyph glyph-name="Wacute" unicode="&#x1e82;" horiz-adv-x="1832" 
d="M1120 1946h152l-158 -226h-147zM1147 -16l-141 1462l-525 -1462h-200l-88 1613h151l62 -1431l516 1431h198l142 -1431l436 1431h160l-508 -1613h-203z" />
    <glyph glyph-name="wacute" unicode="&#x1e83;" horiz-adv-x="1468" 
d="M952 1597h156l-238 -340h-147zM754 926l-369 -926h-188l-93 1085h142l67 -935l373 935h174l129 -935l311 935h146l-375 -1085h-190z" />
    <glyph glyph-name="Wdieresis" unicode="&#x1e84;" horiz-adv-x="1832" 
d="M985 1905l-18 -144h-162l18 144h162zM1305 1905l-19 -144h-162l19 144h162zM1147 -16l-141 1462l-525 -1462h-200l-88 1613h151l62 -1431l516 1431h198l142 -1431l436 1431h160l-508 -1613h-203z" />
    <glyph glyph-name="wdieresis" unicode="&#x1e85;" horiz-adv-x="1468" 
d="M754 1526l-25 -185h-184l24 185h185zM1096 1526l-25 -185h-184l24 185h185zM754 926l-369 -926h-188l-93 1085h142l67 -935l373 935h174l129 -935l311 935h146l-375 -1085h-190z" />
    <glyph glyph-name="Eszett" unicode="&#x1e9e;" horiz-adv-x="1550" 
d="M643 897l397 559q-82 31 -223 31q-211 0 -334 -91t-151 -304l-144 -1092h-147l145 1102q36 275 195 396.5t440 121.5q252 0 387 -82l-12 -92l-381 -535l180 -22q232 -29 348.5 -152.5t88.5 -310.5l-7 -41q-30 -202 -167.5 -305t-342.5 -103q-238 0 -350.5 134.5
t-77.5 380.5l5 28h147q-18 -111 -7 -188.5t52.5 -126.5t98 -71.5t128.5 -22.5h21q132 0 228.5 70.5t115.5 207.5l4 31q20 153 -64.5 234.5t-275.5 105.5l-309 39z" />
    <glyph glyph-name="Ygrave" unicode="&#x1ef2;" horiz-adv-x="1181" 
d="M547 1946h151l93 -226h-148zM629 483l-64 -483h-147l63 483l-329 1114h153l270 -933l508 933h166z" />
    <glyph glyph-name="ygrave" unicode="&#x1ef3;" horiz-adv-x="991" 
d="M352 1597h156l139 -340h-147zM430 197l426 888h160l-527 -1044l-213 -451h-165l229 451l-252 1044h148z" />
    <glyph glyph-name="enspace" unicode="&#x2002;" horiz-adv-x="1024" 
 />
    <glyph glyph-name="emspace" unicode="&#x2003;" horiz-adv-x="2048" 
 />
    <glyph glyph-name="threeperemspace" unicode="&#x2004;" horiz-adv-x="681" 
 />
    <glyph glyph-name="fourperemspace" unicode="&#x2005;" horiz-adv-x="512" 
 />
    <glyph glyph-name="sixperemspace" unicode="&#x2006;" horiz-adv-x="342" 
 />
    <glyph glyph-name="figurespace" unicode="&#x2007;" horiz-adv-x="1228" 
 />
    <glyph glyph-name="punctuationspace" unicode="&#x2008;" horiz-adv-x="368" 
 />
    <glyph glyph-name="thinspace" unicode="&#x2009;" horiz-adv-x="307" 
 />
    <glyph glyph-name="hairspace" unicode="&#x200a;" horiz-adv-x="102" 
 />
    <glyph glyph-name="zerowidthspace" unicode="&#x200b;" horiz-adv-x="0" 
 />
    <glyph glyph-name="figuredash" unicode="&#x2012;" horiz-adv-x="1228" 
d="M66 651l18 131h1065l-19 -131h-1064z" />
    <glyph glyph-name="endash" unicode="&#x2013;" horiz-adv-x="1024" 
d="M66 651l18 131h860l-18 -131h-860z" />
    <glyph glyph-name="emdash" unicode="&#x2014;" horiz-adv-x="2048" 
d="M66 651l18 131h1884l-18 -131h-1884z" />
    <glyph glyph-name="uni2015" unicode="&#x2015;" horiz-adv-x="2457" 
d="M66 651l18 131h2294l-19 -131h-2293z" />
    <glyph glyph-name="doublebar" unicode="&#x2016;" horiz-adv-x="669" 
d="M2 -246l258 1966h143l-258 -1966h-143zM258 -246l258 1966h143l-258 -1966h-143z" />
    <glyph glyph-name="quoteleft" unicode="&#x2018;" horiz-adv-x="444" 
d="M186 1200l21 154q38 274 266 274l-12 -88q-64 0 -102 -35.5t-56 -120.5h92l-24 -184h-185z" />
    <glyph glyph-name="quoteright" unicode="&#x2019;" horiz-adv-x="444" 
d="M422 1597l-21 -153q-38 -275 -266 -275l12 88q64 0 102 35.5t56 120.5h-92l25 184h184z" />
    <glyph glyph-name="quotesinglbase" unicode="&#x201a;" horiz-adv-x="444" 
d="M238 184l-21 -153q-38 -275 -266 -275l12 88q64 0 102 35.5t56 120.5h-92l24 184h185z" />
    <glyph glyph-name="reversequoteleft" unicode="&#x201b;" horiz-adv-x="444" 
d="M238 1597h184l-25 -184h-98q-11 -84 22 -120t103 -36l-12 -88q-108 0 -160.5 71t-34.5 206z" />
    <glyph glyph-name="quotedblleft" unicode="&#x201c;" horiz-adv-x="743" 
d="M483 1200l21 154q38 274 266 274l-12 -88q-64 0 -102 -35.5t-56 -120.5h92l-24 -184h-185zM186 1200l21 154q38 274 266 274l-12 -88q-64 0 -102 -35.5t-56 -120.5h92l-24 -184h-185z" />
    <glyph glyph-name="quotedblright" unicode="&#x201d;" horiz-adv-x="743" 
d="M422 1597l-21 -153q-38 -275 -266 -275l12 88q64 0 102 35.5t56 120.5h-92l25 184h184zM719 1597l-21 -153q-38 -275 -266 -275l12 88q64 0 102 35.5t56 120.5h-92l25 184h184z" />
    <glyph glyph-name="quotedblbase" unicode="&#x201e;" horiz-adv-x="743" 
d="M238 184l-21 -153q-38 -275 -266 -275l12 88q64 0 102 35.5t56 120.5h-92l24 184h185zM535 184l-21 -153q-38 -275 -266 -275l12 88q64 0 102 35.5t56 120.5h-92l24 184h185z" />
    <glyph glyph-name="reversequotedblleft" unicode="&#x201f;" horiz-adv-x="743" 
d="M238 1597h184l-25 -184h-98q-11 -84 22 -120t103 -36l-12 -88q-108 0 -160.5 71t-34.5 206zM537 1597h184l-25 -184h-98q-11 -84 22 -120t103 -36l-12 -88q-108 0 -160.5 71t-34.5 206z" />
    <glyph glyph-name="dagger" unicode="&#x2020;" horiz-adv-x="796" 
d="M367 938l43 258h88l-23 -258l-45 -260h-88zM459 1638h108l-51 -299h-86zM825 1321l-14 -107l-281 11l11 86zM100 1214l17 107l280 -10l-12 -86z" />
    <glyph glyph-name="daggerdbl" unicode="&#x2021;" horiz-adv-x="796" 
d="M307 494l45 258h88l-24 -258l-43 -258h-88zM459 1638h108l-51 -299h-86zM825 1321l-14 -107l-281 11l11 86zM100 1214l17 107l280 -10l-12 -86zM766 879l-12 -109l-281 10l10 88zM43 770l14 109l281 -11l-10 -88zM487 1047l-30 -150h-86l8 150l31 149h88z" />
    <glyph glyph-name="bullet" unicode="&#x2022;" horiz-adv-x="813" 
d="M702 985l-69 -536h-537l70 536h536z" />
    <glyph glyph-name="ellipsis" unicode="&#x2026;" horiz-adv-x="2048" 
d="M385 184l-25 -184h-184l25 184h184zM1040 184l-24 -184h-185l25 184h184zM1696 184l-25 -184h-184l24 184h185z" />
    <glyph glyph-name="perthousand" unicode="&#x2030;" horiz-adv-x="2682" 
d="M1188 348l-2 -18q-12 -106 38 -169t154 -63h17q104 0 164.5 60.5t72.5 171.5l2 18q12 106 -38 169t-154 63h-17q-104 0 -164.5 -60.5t-72.5 -171.5zM1063 334l2 18q18 158 116 253t253 95q163 0 252 -95t71 -261l-2 -18q-18 -158 -116.5 -253.5t-252.5 -95.5
q-163 0 -252 95.5t-71 261.5zM264 1268l-2 -19q-12 -106 38.5 -168.5t154.5 -62.5h16q104 0 165 60.5t73 170.5l2 19q12 106 -38.5 168.5t-154.5 62.5h-16q-104 0 -165 -60.5t-73 -170.5zM510 1620q85 0 156 -29q138 -57 352 -57q102 0 225.5 22t171.5 43l-14 -100
l-819 -1499h-140l789 1440q-8 -3 -36.5 -9.5t-83.5 -14t-107 -7.5q-71 0 -193 23q35 -59 23 -168l-3 -19q-18 -158 -116 -253t-252 -95q-163 0 -252.5 95t-71.5 261l2 19q18 158 116 253t253 95zM1987 348l-2 -18q-12 -106 38 -169t154 -63h16q104 0 165 61t73 171l2 18
q12 106 -38 169t-154 63h-17q-104 0 -164.5 -60.5t-72.5 -171.5zM1862 334l2 18q18 158 116 253t252 95q163 0 252.5 -95t71.5 -261l-2 -18q-18 -158 -116.5 -253.5t-252.5 -95.5q-163 0 -252 95.5t-71 261.5z" />
    <glyph glyph-name="tripleprime" unicode="&#x2034;" horiz-adv-x="942" 
d="M250 1597h162l-103 -550h-102zM498 1597h161l-102 -550h-102zM745 1597h162l-102 -550h-103z" />
    <glyph glyph-name="guilsinglleft" unicode="&#x2039;" horiz-adv-x="622" 
d="M559 1073l-18 -149l-336 -232l274 -233l-18 -137l-377 313l16 127z" />
    <glyph glyph-name="guilsinglright" unicode="&#x203a;" horiz-adv-x="622" 
d="M43 322l18 149l336 231l-274 234l18 137l377 -313l-16 -127z" />
    <glyph glyph-name="interrobang" unicode="&#x203d;" horiz-adv-x="931" 
d="M463 387h-96l106 1090q-56 -16 -97.5 -53.5t-69 -97t-45 -130t-28.5 -164.5h-145l4 29q19 138 50.5 235.5t85 173.5t136.5 113t199 37q373 0 373 -354q0 -93 -22.5 -169.5t-59 -130.5t-81.5 -102t-93.5 -95t-91 -98t-77 -124t-48.5 -160zM784 1255q0 194 -153 226
l-119 -742q27 38 73 92.5t75.5 93.5t61 90.5t47 111t15.5 128.5zM479 184l-24 -184h-185l25 184h184z" />
    <glyph glyph-name="fraction" unicode="&#x2044;" horiz-adv-x="409" 
d="M-412 0h-143l1389 1597h143z" />
    <glyph glyph-name="uni2070" unicode="&#x2070;" 
d="M641 1370l-45 -344q-16 -119 -81 -180.5t-191 -61.5q-131 0 -192.5 67t-47.5 175l45 344q29 240 272 240q130 0 192 -66t48 -174zM264 1368l-45 -342q-16 -121 105 -121h6q60 0 91 28.5t40 92.5l45 344q16 121 -105 121h-6q-62 0 -93 -28.5t-38 -94.5z" />
    <glyph glyph-name="uni2074" unicode="&#x2074;" 
d="M477 799h-115l27 194h-332l11 82l399 522h115l-66 -503h111l-15 -101h-110zM444 1407l-241 -315l73 2h125l31 227z" />
    <glyph glyph-name="uni2075" unicode="&#x2075;" 
d="M82 1055h117q-27 -168 116 -168h13q60 0 104.5 38t54.5 113l2 17q9 76 -22.5 114.5t-93.5 38.5h-13q-110 0 -163 -86l-97 31l80 444h486l-13 -102h-385l-43 -240q22 22 65.5 39t86.5 17q120 0 182 -64t45 -192l-2 -17q-14 -117 -87.5 -185.5t-192.5 -68.5
q-274 0 -242 254z" />
    <glyph glyph-name="uni2076" unicode="&#x2076;" 
d="M641 1610l-12 -103q-180 0 -295 -118q-60 -62 -90 -148q66 62 164 62t154 -64.5t42 -183.5l-2 -17q-14 -117 -87.5 -185.5t-192.5 -68.5q-127 0 -188 78.5t-44 218.5l2 17q13 111 51 195.5t107 160.5q139 156 391 156zM375 1200h-13q-45 0 -86.5 -25.5t-68.5 -66.5
q-8 -64 -8 -80q-2 -67 28 -104t88 -37h13q60 0 104.5 38t54.5 113l2 17q9 70 -21.5 107.5t-92.5 37.5z" />
    <glyph glyph-name="uni2077" unicode="&#x2077;" 
d="M117 1311l39 286h526l-10 -81l-391 -717h-127l385 700l-115 -2h-172l-27 -186h-108z" />
    <glyph glyph-name="uni2078" unicode="&#x2078;" 
d="M322 782q-135 0 -193.5 66t-46.5 162l2 16q7 67 49 119t96 61q-52 15 -79.5 61t-20.5 111l2 17q12 97 82 156t188 59q128 0 191.5 -61.5t52.5 -155.5l-2 -17q-7 -67 -46.5 -114t-94.5 -56q52 -13 78.5 -64.5t17.5 -119.5l-2 -16q-13 -99 -83 -161.5t-191 -62.5zM408 1507
h-13q-60 0 -101 -26.5t-48 -85.5l-2 -17q-6 -55 24.5 -88t91.5 -33h19q65 0 103 28.5t44 82.5l2 16q7 59 -26.5 91t-93.5 32zM315 885h15q60 0 101.5 29t49.5 94l2 16q7 64 -23 97.5t-91 33.5h-21q-64 0 -101.5 -32t-45.5 -91l-2 -16q-7 -63 25 -97t91 -34z" />
    <glyph glyph-name="uni2079" unicode="&#x2079;" 
d="M80 784l12 103q183 0 299 119q60 63 90 147q-64 -61 -164 -61q-98 0 -154 64t-42 183l2 17q14 117 87.5 185.5t192.5 68.5q127 0 188 -78.5t44 -218.5l-2 -17q-13 -111 -51 -195.5t-107 -160.5q-139 -156 -395 -156zM350 1194h12q45 0 87 25.5t69 66.5q8 64 8 80
q2 67 -28 104t-88 37h-13q-60 0 -104.5 -38t-54.5 -113l-2 -17q-9 -70 21.5 -107.5t92.5 -37.5z" />
    <glyph glyph-name="uni207A" unicode="&#x207a;" 
d="M346 1458h103l-27 -209h211l-17 -104h-208l-27 -207h-105l27 207h-209l17 104h208z" />
    <glyph glyph-name="uni207B" unicode="&#x207b;" 
d="M94 1145l17 104h522l-17 -104h-522z" />
    <glyph glyph-name="uni207C" unicode="&#x207c;" 
d="M113 1260l16 104h522l-16 -104h-522zM76 1030l16 105h522l-16 -105h-522z" />
    <glyph glyph-name="uni207D" unicode="&#x207d;" horiz-adv-x="346" 
d="M109 1196l2 16q30 239 172 385h123q-156 -172 -181 -385l-2 -16q-24 -209 76 -397h-115q-41 70 -64.5 178.5t-10.5 218.5z" />
    <glyph glyph-name="uni207E" unicode="&#x207e;" horiz-adv-x="346" 
d="M348 1200l-2 -16q-30 -239 -172 -385h-123q154 171 180 385l2 16q25 211 -75 397h114q41 -71 65 -179t11 -218z" />
    <glyph glyph-name="uni2080" unicode="&#x2080;" 
d="M537 571l-45 -344q-16 -118 -81 -179.5t-192 -61.5q-131 0 -192 66.5t-47 174.5l45 344q29 240 272 240q130 0 192 -66t48 -174zM160 569l-45 -342q-16 -121 104 -121h6q60 0 91 28.5t40 92.5l45 344q16 121 -104 121h-6q-62 0 -93 -28.5t-38 -94.5z" />
    <glyph glyph-name="uni2081" unicode="&#x2081;" 
d="M467 0h-502l15 100h192l74 553l-174 -108l-45 86l270 170h82l-92 -701h194z" />
    <glyph glyph-name="uni2082" unicode="&#x2082;" 
d="M477 100l-14 -100h-512l10 82l373 344q43 40 62.5 69.5t23.5 65.5l2 17q9 66 -23.5 98.5t-93.5 32.5h-12q-66 0 -107.5 -42.5t-50.5 -134.5h-115l7 46q33 233 272 233q132 0 191.5 -64t48.5 -161l-2 -17q-7 -60 -35 -102t-84 -94l-295 -273h354z" />
    <glyph glyph-name="uni2083" unicode="&#x2083;" 
d="M94 256q-27 -168 117 -168h14q136 0 152 121l2 16q7 64 -23.5 97.5t-91.5 33.5h-112l12 103h110q134 0 148 110l2 17q7 62 -26 92.5t-93 30.5h-12q-66 0 -107.5 -42.5t-50.5 -134.5h-115l7 46q33 233 272 233q128 0 190.5 -61.5t51.5 -155.5l-2 -16q-7 -67 -47 -114
t-95 -56q52 -13 79 -65t18 -120l-2 -16q-12 -97 -85.5 -159t-189.5 -62q-274 0 -242 254l2 16h117z" />
    <glyph glyph-name="uni2084" unicode="&#x2084;" 
d="M373 0h-115l27 195h-332l10 81l399 523h115l-65 -504h110l-14 -100h-111zM340 608l-242 -315l74 2h125l31 227z" />
    <glyph glyph-name="uni2085" unicode="&#x2085;" 
d="M-23 256h117q-27 -168 117 -168h12q60 0 105 38.5t55 113.5l2 16q9 76 -23 115t-94 39h-12q-111 0 -164 -86l-96 30l80 445h485l-12 -103h-385l-43 -239q22 22 65 38.5t86 16.5q120 0 182.5 -64t45.5 -192l-2 -16q-14 -117 -88 -185.5t-193 -68.5q-274 0 -242 254z" />
    <glyph glyph-name="uni2086" unicode="&#x2086;" 
d="M537 811l-13 -102q-179 0 -295 -119q-60 -62 -90 -148q66 62 164 62t154.5 -64.5t42.5 -183.5l-2 -16q-14 -117 -88 -185.5t-193 -68.5q-127 0 -187.5 78.5t-43.5 218.5l2 16q13 111 51 195.5t106 160.5q139 156 392 156zM270 401h-12q-45 0 -87 -25.5t-69 -66.5
q-8 -64 -8 -80q-2 -67 28.5 -104t88.5 -37h12q60 0 105 38.5t55 113.5l2 16q9 70 -22 107.5t-93 37.5z" />
    <glyph glyph-name="uni2087" unicode="&#x2087;" 
d="M12 512l39 287h527l-11 -82l-391 -717h-127l385 700l-115 -2h-172l-26 -186h-109z" />
    <glyph glyph-name="uni2088" unicode="&#x2088;" 
d="M217 -16q-135 0 -193.5 65.5t-46.5 161.5l3 16q8 68 49.5 120t95.5 61q-52 15 -79.5 61t-20.5 111l2 16q12 97 82 156t188 59q128 0 191.5 -61.5t52.5 -155.5l-2 -16q-7 -67 -47 -114t-95 -56q52 -13 79 -65t18 -120l-2 -16q-13 -99 -83.5 -161t-191.5 -62zM303 709h-12
q-60 0 -101.5 -27t-48.5 -86l-2 -16q-6 -55 25 -88t92 -33h18q65 0 103.5 28t44.5 82l2 17q7 59 -27 91t-94 32zM211 86h14q60 0 102 29.5t50 93.5l2 16q7 64 -23.5 97.5t-91.5 33.5h-20q-64 0 -102 -32t-46 -91l-2 -16q-7 -63 25.5 -97t91.5 -34z" />
    <glyph glyph-name="uni2089" unicode="&#x2089;" 
d="M-25 -14l13 102q183 0 299 119q60 63 90 147q-64 -61 -164 -61q-98 0 -154.5 64.5t-42.5 183.5l2 16q14 117 88 185.5t193 68.5q127 0 187.5 -78.5t43.5 -218.5l-2 -16q-25 -211 -157 -357q-138 -155 -396 -155zM246 395h12q45 0 87 25.5t69 66.5q8 64 8 80
q2 67 -28.5 104.5t-88.5 37.5h-12q-60 0 -105 -38.5t-55 -113.5l-2 -16q-9 -70 22 -108t93 -38z" />
    <glyph glyph-name="uni208A" unicode="&#x208a;" 
d="M242 659h102l-27 -208h211l-16 -105h-209l-27 -207h-104l27 207h-209l16 105h209z" />
    <glyph glyph-name="uni208B" unicode="&#x208b;" 
d="M-10 346l16 105h522l-16 -105h-522z" />
    <glyph glyph-name="uni208C" unicode="&#x208c;" 
d="M8 461l17 104h522l-17 -104h-522zM-29 231l17 105h522l-16 -105h-523z" />
    <glyph glyph-name="uni208D" unicode="&#x208d;" horiz-adv-x="346" 
d="M4 397l2 17q30 239 172 385h123q-154 -171 -180 -385l-2 -17q-24 -209 76 -397h-115q-41 71 -65 179t-11 218z" />
    <glyph glyph-name="uni208E" unicode="&#x208e;" horiz-adv-x="346" 
d="M244 401l-2 -16q-30 -239 -172 -385h-123q154 171 180 385l2 16q24 210 -76 398h115q41 -70 65 -179t11 -219z" />
    <glyph glyph-name="Euro" unicode="&#x20ac;" horiz-adv-x="1228" 
d="M201 604h-154l19 133h147l16 123h-147l16 133h152q119 627 555 627q228 0 317 -134.5t52 -402.5l-9 -59h-139q34 248 -15.5 355.5t-199.5 107.5h-14q-293 0 -394 -494h545l-82 -133h-485q-10 -62 -16 -123h469l-84 -133h-398q-15 -255 50.5 -374t209.5 -119h15
q274 0 327 401h144l-4 -29q-36 -256 -150.5 -381t-327.5 -125q-228 0 -330 155t-85 472z" />
    <glyph glyph-name="ruble" unicode="&#x20bd;" horiz-adv-x="1228" 
d="M358 649l-22 -178h426l-17 -133h-428l-43 -338h-147l43 338h-180l18 133h180l23 178h-180l18 133h180l107 815h414q73 0 138 -12t128 -44.5t105 -83t60.5 -133.5t2.5 -189l-6 -41q-16 -106 -56.5 -186.5t-92.5 -128.5t-121 -78t-134 -41t-139 -11h-277zM377 782h280
q46 0 88 6.5t90.5 27.5t85.5 54.5t66.5 93t40.5 138.5l4 31q11 79 -3.5 139.5t-44.5 96t-74 57.5t-85.5 30t-87.5 8h-272z" />
    <glyph glyph-name="numero" unicode="&#x2116;" horiz-adv-x="2205" 
d="M1307 1597l-209 -1597h-156l-577 1348l-43 -375l-127 -973h-144l209 1597h156l577 -1347l43 375l127 972h144zM1620 1210l-4 -26q-22 -140 23 -216.5t161 -76.5q105 0 163.5 72t82.5 223l4 26q22 140 -23 216.5t-161 76.5q-105 0 -163.5 -72t-82.5 -223zM1403 434l16 117
h662l-17 -117h-661zM1485 1184l4 26q30 195 127 302.5t254 107.5q190 0 265 -108.5t46 -299.5l-4 -26q-30 -195 -127 -302.5t-254 -107.5q-190 0 -265 108.5t-46 299.5z" />
    <glyph glyph-name="published" unicode="&#x2117;" horiz-adv-x="1884" 
d="M121 799q0 167 65 319t175 262t262 175t319 65t319 -65t262 -175t175 -262t65 -319t-65 -319t-175 -262.5t-262 -175.5t-319 -65t-319 65t-262 175.5t-175 262.5t-65 319zM209 799q0 -200 98 -368.5t266.5 -266.5t368.5 -98t368.5 98t266.5 266.5t98 368.5t-98 368.5
t-266.5 266.5t-368.5 98t-368.5 -98t-266.5 -266.5t-98 -368.5zM754 700v-383h-138v963h373q59 0 108.5 -12.5t95.5 -41.5t72.5 -85.5t26.5 -136.5v-25q0 -81 -26.5 -138t-72.5 -86.5t-95.5 -42t-108.5 -12.5h-235zM754 811h219q34 0 63.5 7t57.5 24.5t44.5 53.5t16.5 87v14
q0 172 -182 172h-219v-358z" />
    <glyph glyph-name="servicemark" unicode="&#x2120;" horiz-adv-x="1071" 
d="M207 1329q-90 12 -127 49t-37 105v8q0 73 47.5 115.5t132.5 42.5q97 0 138.5 -46t41.5 -141v-16h-86q0 68 -19.5 96.5t-72.5 28.5h-4q-44 0 -68 -19.5t-24 -54.5v-6q0 -39 24 -59t87 -27q90 -12 130 -50t40 -108v-8q0 -78 -48.5 -124t-138.5 -46q-93 0 -139.5 50
t-46.5 145v8h86q0 -64 23 -94.5t77 -30.5h4q95 0 95 86v4q0 41 -26 62t-89 30zM883 1503l-113 -418h-96l-113 418l4 -137v-281h-86v553h129l113 -415l113 415h131v-553h-86v281z" />
    <glyph glyph-name="trademark" unicode="&#x2122;" horiz-adv-x="1071" 
d="M268 1561v-476h-86v476h-143v77h373v-77h-144zM883 1503l-113 -418h-96l-113 418l4 -137v-281h-86v553h129l113 -415l113 415h131v-553h-86v281z" />
    <glyph glyph-name="uni2153" unicode="&#x2153;" horiz-adv-x="1638" 
d="M571 799h-501l14 100h192l74 553l-174 -109l-45 87l270 169h82l-92 -700h195zM203 0h-144l1389 1597h143zM1118 256q-27 -168 117 -168h14q136 0 152 121l2 16q7 64 -23.5 97.5t-91.5 33.5h-112l12 103h110q134 0 148 110l2 17q7 62 -26 92.5t-93 30.5h-12
q-66 0 -107.5 -42.5t-50.5 -134.5h-115l7 46q33 233 272 233q128 0 190.5 -61.5t51.5 -155.5l-2 -16q-7 -67 -47 -114t-95 -56q52 -13 79 -65t18 -120l-2 -16q-12 -97 -85.5 -159t-189.5 -62q-274 0 -242 254l2 16h117z" />
    <glyph glyph-name="uni2154" unicode="&#x2154;" horiz-adv-x="1638" 
d="M582 899l-15 -100h-512l11 82l372 344q43 40 62.5 69.5t23.5 65.5l2 16q9 66 -23.5 98.5t-92.5 32.5h-13q-141 0 -157 -176h-115l6 45q33 234 272 234q132 0 191.5 -64.5t48.5 -161.5l-2 -16q-7 -60 -35 -102.5t-84 -94.5l-295 -272h355zM203 0h-144l1389 1597h143z
M1118 256q-27 -168 117 -168h14q136 0 152 121l2 16q7 64 -23.5 97.5t-91.5 33.5h-112l12 103h110q134 0 148 110l2 17q7 62 -26 92.5t-93 30.5h-12q-66 0 -107.5 -42.5t-50.5 -134.5h-115l7 46q33 233 272 233q128 0 190.5 -61.5t51.5 -155.5l-2 -16q-7 -67 -47 -114
t-95 -56q52 -13 79 -65t18 -120l-2 -16q-12 -97 -85.5 -159t-189.5 -62q-274 0 -242 254l2 16h117z" />
    <glyph glyph-name="uni2155" unicode="&#x2155;" horiz-adv-x="1638" 
d="M571 799h-501l14 100h192l74 553l-174 -109l-45 87l270 169h82l-92 -700h195zM203 0h-144l1389 1597h143zM1001 256h117q-27 -168 117 -168h12q60 0 105 38.5t55 113.5l2 16q9 76 -23 115t-94 39h-12q-111 0 -164 -86l-96 30l80 445h485l-12 -103h-385l-43 -239
q22 22 65 38.5t86 16.5q120 0 182.5 -64t45.5 -192l-2 -16q-14 -117 -88 -185.5t-193 -68.5q-274 0 -242 254z" />
    <glyph glyph-name="uni2156" unicode="&#x2156;" horiz-adv-x="1638" 
d="M582 899l-15 -100h-512l11 82l372 344q43 40 62.5 69.5t23.5 65.5l2 16q9 66 -23.5 98.5t-92.5 32.5h-13q-141 0 -157 -176h-115l6 45q33 234 272 234q132 0 191.5 -64.5t48.5 -161.5l-2 -16q-7 -60 -35 -102.5t-84 -94.5l-295 -272h355zM203 0h-144l1389 1597h143z
M1001 256h117q-27 -168 117 -168h12q60 0 105 38.5t55 113.5l2 16q9 76 -23 115t-94 39h-12q-111 0 -164 -86l-96 30l80 445h485l-12 -103h-385l-43 -239q22 22 65 38.5t86 16.5q120 0 182.5 -64t45.5 -192l-2 -16q-14 -117 -88 -185.5t-193 -68.5q-274 0 -242 254z" />
    <glyph glyph-name="uni2157" unicode="&#x2157;" horiz-adv-x="1638" 
d="M199 1055q-27 -168 116 -168h15q135 0 151 121l2 16q7 64 -23 97.5t-91 33.5h-113l12 102h111q133 0 147 111l2 16q7 62 -25.5 92.5t-92.5 30.5h-13q-141 0 -157 -176h-115l6 45q33 234 272 234q128 0 190.5 -61.5t51.5 -155.5l-2 -17q-7 -67 -46.5 -114t-94.5 -56
q52 -13 78.5 -64.5t17.5 -119.5l-2 -16q-12 -97 -85 -159.5t-189 -62.5q-274 0 -242 254l2 17h117zM203 0h-144l1389 1597h143zM1001 256h117q-27 -168 117 -168h12q60 0 105 38.5t55 113.5l2 16q9 76 -23 115t-94 39h-12q-111 0 -164 -86l-96 30l80 445h485l-12 -103h-385
l-43 -239q22 22 65 38.5t86 16.5q120 0 182.5 -64t45.5 -192l-2 -16q-14 -117 -88 -185.5t-193 -68.5q-274 0 -242 254z" />
    <glyph glyph-name="uni2158" unicode="&#x2158;" horiz-adv-x="1638" 
d="M477 799h-115l27 194h-332l11 82l399 522h115l-66 -503h111l-15 -101h-110zM444 1407l-241 -315l73 2h125l31 227zM203 0h-144l1389 1597h143zM1001 256h117q-27 -168 117 -168h12q60 0 105 38.5t55 113.5l2 16q9 76 -23 115t-94 39h-12q-111 0 -164 -86l-96 30l80 445
h485l-12 -103h-385l-43 -239q22 22 65 38.5t86 16.5q120 0 182.5 -64t45.5 -192l-2 -16q-14 -117 -88 -185.5t-193 -68.5q-274 0 -242 254z" />
    <glyph glyph-name="uni2159" unicode="&#x2159;" horiz-adv-x="1638" 
d="M571 799h-501l14 100h192l74 553l-174 -109l-45 87l270 169h82l-92 -700h195zM203 0h-144l1389 1597h143zM1561 811l-13 -102q-179 0 -295 -119q-60 -62 -90 -148q66 62 164 62t154.5 -64.5t42.5 -183.5l-2 -16q-14 -117 -88 -185.5t-193 -68.5q-127 0 -187.5 78.5
t-43.5 218.5l2 16q13 111 51 195.5t106 160.5q139 156 392 156zM1294 401h-12q-45 0 -87 -25.5t-69 -66.5q-8 -64 -8 -80q-2 -67 28.5 -104t88.5 -37h12q60 0 105 38.5t55 113.5l2 16q9 70 -22 107.5t-93 37.5z" />
    <glyph glyph-name="uni215A" unicode="&#x215a;" horiz-adv-x="1638" 
d="M82 1055h117q-27 -168 116 -168h13q60 0 104.5 38t54.5 113l2 17q9 76 -22.5 114.5t-93.5 38.5h-13q-110 0 -163 -86l-97 31l80 444h486l-13 -102h-385l-43 -240q22 22 65.5 39t86.5 17q120 0 182 -64t45 -192l-2 -17q-14 -117 -87.5 -185.5t-192.5 -68.5
q-274 0 -242 254zM203 0h-144l1389 1597h143zM1561 811l-13 -102q-179 0 -295 -119q-60 -62 -90 -148q66 62 164 62t154.5 -64.5t42.5 -183.5l-2 -16q-14 -117 -88 -185.5t-193 -68.5q-127 0 -187.5 78.5t-43.5 218.5l2 16q13 111 51 195.5t106 160.5q139 156 392 156z
M1294 401h-12q-45 0 -87 -25.5t-69 -66.5q-8 -64 -8 -80q-2 -67 28.5 -104t88.5 -37h12q60 0 105 38.5t55 113.5l2 16q9 70 -22 107.5t-93 37.5z" />
    <glyph glyph-name="uni215B" unicode="&#x215b;" horiz-adv-x="1638" 
d="M571 799h-501l14 100h192l74 553l-174 -109l-45 87l270 169h82l-92 -700h195zM203 0h-144l1389 1597h143zM1241 -16q-135 0 -193.5 65.5t-46.5 161.5l3 16q8 68 49.5 120t95.5 61q-52 15 -79.5 61t-20.5 111l2 16q12 97 82 156t188 59q128 0 191.5 -61.5t52.5 -155.5
l-2 -16q-7 -67 -47 -114t-95 -56q52 -13 79 -65t18 -120l-2 -16q-13 -99 -83.5 -161t-191.5 -62zM1327 709h-12q-60 0 -101.5 -27t-48.5 -86l-2 -16q-6 -55 25 -88t92 -33h18q65 0 103.5 28t44.5 82l2 17q7 59 -27 91t-94 32zM1235 86h14q60 0 102 29.5t50 93.5l2 16
q7 64 -23.5 97.5t-91.5 33.5h-20q-64 0 -102 -32t-46 -91l-2 -16q-7 -63 25.5 -97t91.5 -34z" />
    <glyph glyph-name="uni215C" unicode="&#x215c;" horiz-adv-x="1638" 
d="M199 1055q-27 -168 116 -168h15q135 0 151 121l2 16q7 64 -23 97.5t-91 33.5h-113l12 102h111q133 0 147 111l2 16q7 62 -25.5 92.5t-92.5 30.5h-13q-141 0 -157 -176h-115l6 45q33 234 272 234q128 0 190.5 -61.5t51.5 -155.5l-2 -17q-7 -67 -46.5 -114t-94.5 -56
q52 -13 78.5 -64.5t17.5 -119.5l-2 -16q-12 -97 -85 -159.5t-189 -62.5q-274 0 -242 254l2 17h117zM203 0h-144l1389 1597h143zM1241 -16q-135 0 -193.5 65.5t-46.5 161.5l3 16q8 68 49.5 120t95.5 61q-52 15 -79.5 61t-20.5 111l2 16q12 97 82 156t188 59
q128 0 191.5 -61.5t52.5 -155.5l-2 -16q-7 -67 -47 -114t-95 -56q52 -13 79 -65t18 -120l-2 -16q-13 -99 -83.5 -161t-191.5 -62zM1327 709h-12q-60 0 -101.5 -27t-48.5 -86l-2 -16q-6 -55 25 -88t92 -33h18q65 0 103.5 28t44.5 82l2 17q7 59 -27 91t-94 32zM1235 86h14
q60 0 102 29.5t50 93.5l2 16q7 64 -23.5 97.5t-91.5 33.5h-20q-64 0 -102 -32t-46 -91l-2 -16q-7 -63 25.5 -97t91.5 -34z" />
    <glyph glyph-name="uni215D" unicode="&#x215d;" horiz-adv-x="1638" 
d="M82 1055h117q-27 -168 116 -168h13q60 0 104.5 38t54.5 113l2 17q9 76 -22.5 114.5t-93.5 38.5h-13q-110 0 -163 -86l-97 31l80 444h486l-13 -102h-385l-43 -240q22 22 65.5 39t86.5 17q120 0 182 -64t45 -192l-2 -17q-14 -117 -87.5 -185.5t-192.5 -68.5
q-274 0 -242 254zM203 0h-144l1389 1597h143zM1241 -16q-135 0 -193.5 65.5t-46.5 161.5l3 16q8 68 49.5 120t95.5 61q-52 15 -79.5 61t-20.5 111l2 16q12 97 82 156t188 59q128 0 191.5 -61.5t52.5 -155.5l-2 -16q-7 -67 -47 -114t-95 -56q52 -13 79 -65t18 -120l-2 -16
q-13 -99 -83.5 -161t-191.5 -62zM1327 709h-12q-60 0 -101.5 -27t-48.5 -86l-2 -16q-6 -55 25 -88t92 -33h18q65 0 103.5 28t44.5 82l2 17q7 59 -27 91t-94 32zM1235 86h14q60 0 102 29.5t50 93.5l2 16q7 64 -23.5 97.5t-91.5 33.5h-20q-64 0 -102 -32t-46 -91l-2 -16
q-7 -63 25.5 -97t91.5 -34z" />
    <glyph glyph-name="uni215E" unicode="&#x215e;" horiz-adv-x="1638" 
d="M117 1311l39 286h526l-10 -81l-391 -717h-127l385 700l-115 -2h-172l-27 -186h-108zM203 0h-144l1389 1597h143zM1241 -16q-135 0 -193.5 65.5t-46.5 161.5l3 16q8 68 49.5 120t95.5 61q-52 15 -79.5 61t-20.5 111l2 16q12 97 82 156t188 59q128 0 191.5 -61.5
t52.5 -155.5l-2 -16q-7 -67 -47 -114t-95 -56q52 -13 79 -65t18 -120l-2 -16q-13 -99 -83.5 -161t-191.5 -62zM1327 709h-12q-60 0 -101.5 -27t-48.5 -86l-2 -16q-6 -55 25 -88t92 -33h18q65 0 103.5 28t44.5 82l2 17q7 59 -27 91t-94 32zM1235 86h14q60 0 102 29.5t50 93.5
l2 16q7 64 -23.5 97.5t-91.5 33.5h-20q-64 0 -102 -32t-46 -91l-2 -16q-7 -63 25.5 -97t91.5 -34z" />
    <glyph glyph-name="uni215F" unicode="&#x215f;" horiz-adv-x="1024" 
d="M571 799h-501l14 100h192l74 553l-174 -109l-45 87l270 169h82l-92 -700h195zM203 0h-144l1389 1597h143z" />
    <glyph glyph-name="arrowleft" unicode="&#x2190;" horiz-adv-x="1884" 
d="M920 1597h190l-731 -731h1362v-135h-1362l731 -731h-190l-799 799z" />
    <glyph glyph-name="arrowup" unicode="&#x2191;" horiz-adv-x="1884" 
d="M143 631v190l799 799l799 -799v-190l-731 731v-1362h-136v1362z" />
    <glyph glyph-name="arrowright" unicode="&#x2192;" horiz-adv-x="1884" 
d="M774 1597h191l798 -798l-798 -799h-191l731 731h-1362v135h1362z" />
    <glyph glyph-name="arrowdown" unicode="&#x2193;" horiz-adv-x="1884" 
d="M143 776v191l731 -731v1361h136v-1361l731 731v-191l-799 -799z" />
    <glyph glyph-name="uni2196" unicode="&#x2196;" horiz-adv-x="1884" 
d="M279 0h-136v1597h1598v-135h-1366l1388 -1388l-96 -97l-1388 1389v-1366z" />
    <glyph glyph-name="uni2197" unicode="&#x2197;" horiz-adv-x="1884" 
d="M1741 0h-135v1366l-1389 -1389l-96 97l1388 1388h-1366v135h1598v-1597z" />
    <glyph glyph-name="uni2198" unicode="&#x2198;" horiz-adv-x="1884" 
d="M143 0v135h1366l-1388 1389l96 96l1389 -1389v1366h135v-1597h-1598z" />
    <glyph glyph-name="uni2199" unicode="&#x2199;" horiz-adv-x="1884" 
d="M1741 135v-135h-1598v1597h136v-1366l1388 1389l96 -96l-1388 -1389h1366z" />
    <glyph glyph-name="minus" unicode="&#x2212;" horiz-adv-x="1228" 
d="M90 731l19 135h1034l-19 -135h-1034z" />
    <glyph glyph-name="approxequal" unicode="&#x2248;" horiz-adv-x="1228" 
d="M340 715q73 0 144 -23t118 -50t110.5 -50t123.5 -23q126 0 217 115l77 -82q-46 -66 -120.5 -111t-173.5 -45q-73 0 -144 23t-118 50t-110.5 50t-123.5 23q-126 0 -217 -115l-78 82q46 66 121 111t174 45zM395 1133q73 0 144 -23t118 -50t110.5 -50t123.5 -23
q126 0 217 115l78 -82q-46 -66 -121 -111t-174 -45q-73 0 -144 23t-118 50t-110.5 50t-123.5 23q-126 0 -217 -115l-78 82q46 66 121 111t174 45z" />
    <glyph glyph-name="notequal" unicode="&#x2260;" horiz-adv-x="1228" 
d="M121 940l18 135h604l187 254h147l-184 -254h281l-19 -135h-360l-207 -283h524l-18 -135h-605l-186 -254h-147l184 254h-281l19 135h360l207 283h-524z" />
    <glyph glyph-name="equivalence" unicode="&#x2261;" horiz-adv-x="1228" 
d="M90 731l19 135h1034l-19 -135h-1034zM152 1149l18 135h1034l-18 -135h-1034zM29 313l18 136h1034l-18 -136h-1034z" />
    <glyph glyph-name="lessequal" unicode="&#x2264;" horiz-adv-x="1228" 
d="M1188 1210l-866 -278l792 -283l-20 -139l-985 356l18 144l1081 356zM1075 356l-16 -125l-987 357l16 125z" />
    <glyph glyph-name="greaterequal" unicode="&#x2265;" horiz-adv-x="1228" 
d="M25 231l18 136l1081 356l-18 -135zM80 659l866 279l-792 283l20 145l985 -356l-18 -144l-1082 -356z" />
    <glyph glyph-name="squaremultiply" unicode="&#x22a0;" horiz-adv-x="1884" 
d="M1741 0h-1598v1597h1598v-1597zM1610 1466h-1336v-1335h1336v1335zM524 283l-98 98l418 418l-418 418l98 98l418 -418l418 418l98 -98l-418 -418l418 -418l-98 -98l-418 417z" />
    <glyph glyph-name="house" unicode="&#x2302;" horiz-adv-x="1740" 
d="M1597 0h-1454v922l727 696l727 -696v-922z" />
    <glyph glyph-name="blacksquare" unicode="&#x25a0;" horiz-adv-x="1884" 
d="M1741 0h-1598v1597h1598v-1597z" />
    <glyph glyph-name="blacksquare" unicode="&#xe740;" horiz-adv-x="1884" 
d="M1741 0h-1598v1597h1598v-1597z" />
    <glyph glyph-name="whitesquare" unicode="&#x25a1;" horiz-adv-x="1884" 
d="M1741 0h-1598v1597h1598v-1597zM1610 1466h-1336v-1335h1336v1335z" />
    <glyph glyph-name="blacksmallsquare" unicode="&#x25aa;" horiz-adv-x="1392" 
d="M1229 0h-1086v1085h1086v-1085z" />
    <glyph glyph-name="whitesmallsquare" unicode="&#x25ab;" horiz-adv-x="1392" 
d="M143 1085h1086v-1085h-1086v1085zM1098 954h-824v-823h824v823z" />
    <glyph glyph-name="triagup" unicode="&#x25b2;" horiz-adv-x="1904" 
d="M1024 1620l750 -1620h-148l-674 1466l-673 -1466h-148l750 1620h143z" />
    <glyph glyph-name="triagrt" unicode="&#x25ba;" horiz-adv-x="1904" 
d="M1784 870v-143l-1620 -750v148l1466 674l-1466 674v147z" />
    <glyph glyph-name="triagdn" unicode="&#x25bc;" horiz-adv-x="1904" 
d="M881 -23l-750 1620h148l673 -1466l674 1466h148l-750 -1620h-143z" />
    <glyph glyph-name="triaglf" unicode="&#x25c4;" horiz-adv-x="1904" 
d="M121 870l1620 750v-147l-1467 -674l1467 -674v-148l-1620 750v143z" />
    <glyph glyph-name="whitecircle" unicode="&#x25cb;" horiz-adv-x="1884" 
d="M121 799q0 167 65 319t175 262t262 175t319 65t319 -65t262 -175t175 -262t65 -319t-65 -319t-175 -262.5t-262 -175.5t-319 -65t-319 65t-262 175.5t-175 262.5t-65 319zM254 799q0 -187 92 -345.5t250.5 -250.5t345.5 -92t345.5 92t250.5 250.5t92 345.5t-92 345.5
t-250.5 250.5t-345.5 92t-345.5 -92t-250.5 -250.5t-92 -345.5z" />
    <glyph glyph-name="whitecircle" unicode="&#x25ef;" horiz-adv-x="1884" 
d="M121 799q0 167 65 319t175 262t262 175t319 65t319 -65t262 -175t175 -262t65 -319t-65 -319t-175 -262.5t-262 -175.5t-319 -65t-319 65t-262 175.5t-175 262.5t-65 319zM254 799q0 -187 92 -345.5t250.5 -250.5t345.5 -92t345.5 92t250.5 250.5t92 345.5t-92 345.5
t-250.5 250.5t-345.5 92t-345.5 -92t-250.5 -250.5t-92 -345.5z" />
    <glyph glyph-name="blackcircle" unicode="&#x25cf;" horiz-adv-x="1884" 
d="M121 799q0 167 65 319t175 262t262 175t319 65t319 -65t262 -175t175 -262t65 -319t-65 -319t-175 -262.5t-262 -175.5t-319 -65t-319 65t-262 175.5t-175 262.5t-65 319z" />
    <glyph glyph-name="uni25E2" unicode="&#x25e2;" horiz-adv-x="1904" 
d="M1792 49l-100 -100l-1676 614l105 105l1513 -562l-561 1514l105 104z" />
    <glyph glyph-name="uni25E3" unicode="&#x25e3;" horiz-adv-x="1904" 
d="M113 49l614 1675l104 -104l-561 -1514l1514 562l104 -105l-1675 -614z" />
    <glyph glyph-name="uni25E4" unicode="&#x25e4;" horiz-adv-x="1904" 
d="M113 1548l49 51l51 50l1675 -615l-104 -104l-1514 559l561 -1512l-104 -104z" />
    <glyph glyph-name="uni25E5" unicode="&#x25e5;" horiz-adv-x="1904" 
d="M1743 1599l49 -51l-614 -1675l-105 104l559 1512l-1511 -559l-105 104l1676 615z" />
    <glyph glyph-name="uni2605" unicode="&#x2605;" horiz-adv-x="1802" 
d="M901 369l-532 -389l202 628l-532 387h659l203 627l203 -627h659l-532 -387l203 -628z" />
    <glyph glyph-name="ballotboxwithx" unicode="&#x2612;" horiz-adv-x="1392" 
d="M1229 0h-1086v1085h1086v-1085zM1098 954h-824v-823h824v823zM524 283l-98 98l162 162l-162 162l98 98l162 -162l162 162l98 -98l-162 -162l162 -162l-98 -98l-162 161z" />
    <glyph glyph-name="uni263C" unicode="&#x263c;" horiz-adv-x="1966" 
d="M1067 391l-86 -414l-86 414q0 -80 -59 -135q-17 -16 -61 -45.5t-61.5 -53.5t-17.5 -61q0 -19 6 -37t12 -26l7 -8q-45 13 -69.5 48t-24.5 79q0 61 43 104q41 41 62.5 97t21.5 98l-353 -232l232 352q-53 -53 -135 -53q-19 0 -64.5 8.5t-62.5 8.5q-31 0 -55 -10t-36 -24.5
t-19.5 -29.5t-8.5 -25l-2 -10q-17 31 -17 58q0 59 42.5 100t103.5 41q42 0 89.5 17.5t74.5 35t32 25.5l-413 86l413 86q-80 0 -135 59q-16 18 -37.5 48.5t-34 47t-35.5 30t-52 13.5q-19 0 -37 -6t-26 -12l-9 -6q13 45 48 69.5t79 24.5q61 0 104 -43q41 -41 97 -62.5
t98 -21.5l-232 352l353 -231q-54 54 -54 135q0 19 8.5 64.5t8.5 62.5q0 31 -10 55t-24.5 36t-29 19.5t-24.5 8.5l-10 2q29 16 57 16q59 0 100 -42t41 -103q0 -42 17.5 -89.5t35 -75t25.5 -32.5l86 414l86 -414q0 80 59 135q17 16 61 45.5t61.5 53.5t17.5 61q0 19 -6 37
t-12 26l-7 9q45 -13 69.5 -48t24.5 -79q0 -62 -43 -105q-41 -41 -62.5 -96.5t-21.5 -97.5l353 231l-232 -352q53 53 135 53q19 0 64.5 -8t62.5 -8q31 0 55 10t36 24.5t19.5 29t8.5 24.5l2 10q17 -31 17 -57q0 -59 -42.5 -100t-103.5 -41q-42 0 -89.5 -17.5t-74.5 -35
t-32 -25.5l413 -86l-413 -86q79 0 135 -60q16 -18 37.5 -48.5t34 -47t35.5 -30t52 -13.5q19 0 37 6t26 12l9 7q-13 -45 -48.5 -70t-78.5 -25q-61 0 -104 43q-41 41 -97 62.5t-98 21.5l232 -352l-353 232q54 -54 54 -136q0 -19 -8.5 -64.5t-8.5 -62.5q0 -31 10 -55
t24.5 -35.5t29 -19t24.5 -8.5l10 -2q-31 -17 -57 -17q-59 0 -100 42.5t-41 103.5q0 42 -17.5 89.5t-35 74.5t-25.5 32z" />
    <glyph glyph-name="uni263E" unicode="&#x263e;" horiz-adv-x="1966" 
d="M1278 1491q-181 0 -333.5 -92.5t-241.5 -252t-89 -347.5q0 -141 52.5 -269.5t141.5 -221t212 -147.5t258 -55q99 0 197 31q-218 -157 -492 -157q-167 0 -318.5 65t-261 174.5t-174.5 261t-65 318.5t65 318.5t174.5 261t261 174.5t318.5 65q268 0 492 -158
q-109 31 -197 31z" />
    <glyph glyph-name="spade" unicode="&#x2660;" horiz-adv-x="1843" 
d="M924 1618q66 -99 199 -238t278 -233q60 -39 104 -73t90.5 -79t75.5 -90t47.5 -102t18.5 -119q0 -150 -105 -253t-256 -103q-142 0 -246 93.5t-163 235.5l-6 -2q17 -210 54 -356.5t113 -298.5h-413q76 152 113.5 299t54.5 356l-6 2q-27 -67 -65.5 -124t-89 -104
t-116.5 -74t-139 -27q-151 0 -256 103t-105 253q0 62 18.5 119t47.5 102t75.5 90t90.5 79t104 73q146 95 279 233.5t199 237.5h4z" />
    <glyph glyph-name="club" unicode="&#x2663;" horiz-adv-x="1843" 
d="M715 0q76 152 113.5 299t54.5 356l-6 2q-27 -67 -65.5 -124t-89 -104t-116.5 -74t-139 -27q-151 0 -256 103t-105 253q0 161 99 265t258 104q84 0 172 -47l4 4q-78 118 -78 239q0 154 103.5 261.5t257.5 107.5t257 -107.5t103 -261.5q0 -121 -78 -239l4 -4q88 47 172 47
q159 0 258 -104t99 -265q0 -150 -105 -253t-256 -103q-142 0 -246 93.5t-163 235.5l-6 -2q17 -210 54 -356.5t113 -298.5h-413z" />
    <glyph glyph-name="heart" unicode="&#x2665;" horiz-adv-x="1843" 
d="M924 -20h-4q-59 88 -193.5 259t-284.5 341q-64 73 -114 136.5t-105 148.5t-86 170t-31 161q0 185 107 303.5t285 118.5q92 0 163.5 -25.5t120.5 -73t80.5 -100.5t55.5 -123h8q24 70 55.5 123t80.5 100.5t120.5 73t163.5 25.5q178 0 284.5 -118.5t106.5 -303.5
q0 -76 -31 -161t-86 -170t-105 -148.5t-114 -136.5q-149 -169 -283.5 -340t-193.5 -260z" />
    <glyph glyph-name="diamond" unicode="&#x2666;" horiz-adv-x="1843" 
d="M1673 799q-218 -170 -415 -386t-334 -433h-4q-137 217 -334.5 433t-415.5 386q218 170 415.5 386t334.5 433h4q137 -217 334 -433t415 -386z" />
    <glyph glyph-name="uni267B" unicode="&#x267b;" horiz-adv-x="1966" 
d="M1767 545l2 -4l-196 -342q-41 -60 -60 -77q-44 -38 -120 -38h-117v-100l-232 278l232 277v-101h297q34 0 66.5 11t54.5 27t39.5 31.5t25.5 26.5zM381 250h-4l-197 344q-23 42 -31.5 65.5t-5.5 63t29 82.5l57 100l-86 49l357 64l121 -340l-84 49q-144 -246 -148 -256
q-27 -46 -29 -101.5t10 -87.5zM827 1595v2h396q37 -1 56 -3t46 -11t47 -29t39 -53l57 -100l88 49l-124 -340l-355 64l84 49l-147 256q-27 47 -74 76t-80 35zM410 1225l137 243q21 38 69 64q63 34 131.5 30.5t126.5 -33t80 -69.5l-237 -411zM913 84h-276q-43 0 -90 27
q-45 26 -76 70.5t-42.5 91.5t-9.5 91.5t19 73.5h475v-354zM1651 1079l141 -239q20 -36 20 -90q1 -99 -78 -178.5t-151 -79.5l-237 411z" />
    <glyph glyph-name="uni267C" unicode="&#x267c;" horiz-adv-x="1966" 
d="M598 1321l-106 -188l237 -138l184 320q-17 30 -62 52.5t-98 25.5t-102 -23q-37 -21 -53 -49zM807 1421v-2q4 0 11 -1.5t26.5 -7.5t36.5 -14.5t37.5 -26.5t33.5 -40l115 -199l-66 -38l275 -50l96 265l-67 -39l-45 78q-28 49 -60 62t-86 13h-307zM659 248h215v274h-368
q-13 -22 -15 -57t7.5 -71.5t33.5 -71t58 -54.5q36 -20 69 -20zM467 377h2q-5 10 -10.5 27.5t-5 63t21.5 81.5l115 199l65 -39l-94 264l-276 -49l67 -39l-45 -78q-20 -34 -22.5 -65t4 -48.5t24.5 -50.5zM1563 834l-109 186l-237 -137l184 -320q57 0 118 61.5t60 139.5
q0 42 -16 70zM1546 602l-2 2q-2 -3 -6.5 -8.5t-19.5 -20t-31.5 -25t-42 -19.5t-51.5 -9h-230v78l-180 -215l180 -215v78h90q57 0 85 21.5t55 66.5zM131 799q0 221 108.5 407.5t295 295t407.5 108.5t407.5 -108.5t295 -295t108.5 -407.5t-108.5 -407.5t-295 -295
t-407.5 -108.5t-407.5 108.5t-295 295t-108.5 407.5z" />
    <glyph glyph-name="uni267D" unicode="&#x267d;" horiz-adv-x="1966" 
d="M492 1133l106 188q16 28 53 49q49 26 102 23t98 -25.5t62 -52.5l-184 -320zM807 1419v2h307q54 0 86 -13t60 -62l45 -78l67 39l-96 -265l-275 50l66 38l-115 199q-21 36 -57 58.5t-62 26.5zM874 248h-215q-33 0 -69 20q-34 20 -58 54.5t-33.5 71t-7.5 71.5t15 57h368
v-274zM469 377h-2l-154 266q-18 33 -24.5 50.5t-4 48.5t22.5 65l45 78l-67 39l276 49l94 -264l-65 39l-115 -199q-21 -36 -22.5 -79t7.5 -68zM1454 1020l109 -186q16 -28 16 -70q1 -78 -60 -139.5t-118 -61.5l-184 320zM1544 604l2 -2l-153 -266q-18 -30 -31 -46t-41 -29
t-68 -13h-90v-78l-180 215l180 215v-78h230q42 0 79.5 20.5t54.5 41.5zM123 799q0 167 65 318.5t174.5 261t261 174.5t318.5 65t318.5 -65t261 -174.5t174.5 -261t65 -318.5t-65 -318.5t-174.5 -261t-261 -174.5t-318.5 -65t-318.5 65t-261 174.5t-174.5 261t-65 318.5z
M201 799q0 -202 99 -372.5t269.5 -270t372.5 -99.5t372.5 99.5t269.5 270t99 372.5q0 151 -58.5 288.5t-157.5 236.5t-236.5 157.5t-288.5 58.5t-288.5 -58.5t-236.5 -157.5t-157.5 -236.5t-58.5 -288.5z" />
    <glyph glyph-name="mediumwhitecircle" unicode="&#x26aa;" horiz-adv-x="1372" 
d="M121 543q0 153 76 283t206 206t283 76t283 -76t206 -206t76 -283t-76 -283.5t-206 -206.5t-283 -76t-283 76t-206 206.5t-76 283.5zM254 543q0 -180 126 -306t306 -126t306 126t126 306t-126 306t-306 126t-306 -126t-126 -306z" />
    <glyph glyph-name="mediumblackcircle" unicode="&#x26ab;" horiz-adv-x="1372" 
d="M121 543q0 153 76 283t206 206t283 76t283 -76t206 -206t76 -283t-76 -283.5t-206 -206.5t-283 -76t-283 76t-206 206.5t-76 283.5z" />
    <glyph glyph-name="anglebracketleft" unicode="&#x3008;" horiz-adv-x="649" 
d="M705 1720l-463 -987l200 -979h-149l-203 983l461 983h154z" />
    <glyph glyph-name="anglebracketright" unicode="&#x3009;" horiz-adv-x="649" 
d="M-63 -246l462 987l-200 979h149l203 -983l-461 -983h-153z" />
    <glyph glyph-name="fi" unicode="&#xe38c;" horiz-adv-x="1220" 
d="M453 1331l-33 -246h303l-16 -129h-304l-124 -956h-144l125 956h-172l16 129h172l37 275q40 301 359 301q97 0 147 -25l-16 -123q-15 7 -52.5 13t-70.5 6q-101 0 -157 -44.5t-70 -156.5zM827 0l142 1085h143l-141 -1085h-144zM1192 1526l-25 -185h-184l25 185h184z" />
    <glyph glyph-name="fi" unicode="&#xfb01;" horiz-adv-x="1220" 
d="M453 1331l-33 -246h303l-16 -129h-304l-124 -956h-144l125 956h-172l16 129h172l37 275q40 301 359 301q97 0 147 -25l-16 -123q-15 7 -52.5 13t-70.5 6q-101 0 -157 -44.5t-70 -156.5zM827 0l142 1085h143l-141 -1085h-144zM1192 1526l-25 -185h-184l25 185h184z" />
    <glyph glyph-name="fl" unicode="&#xe38d;" horiz-adv-x="1220" 
d="M453 1331l-33 -246h303l-16 -129h-304l-124 -956h-144l125 956h-172l16 129h172l37 275q40 301 359 301q97 0 147 -25l-16 -123q-15 7 -52.5 13t-70.5 6q-101 0 -157 -44.5t-70 -156.5zM827 0l215 1638h144l-215 -1638h-144z" />
    <glyph glyph-name="fl" unicode="&#xfb02;" horiz-adv-x="1220" 
d="M453 1331l-33 -246h303l-16 -129h-304l-124 -956h-144l125 956h-172l16 129h172l37 275q40 301 359 301q97 0 147 -25l-16 -123q-15 7 -52.5 13t-70.5 6q-101 0 -157 -44.5t-70 -156.5zM827 0l215 1638h144l-215 -1638h-144z" />
    <glyph glyph-name="invertedbreve" unicode="&#xe411;" horiz-adv-x="1024" 
d="M614 1620q171 0 242.5 -98t48.5 -265h-110q30 250 -181 250q-110 0 -172.5 -66.5t-76.5 -183.5h-119q21 169 111 266t257 97z" />
    <glyph glyph-name="doublegrave" unicode="&#xe412;" horiz-adv-x="1024" 
d="M236 1597h139l139 -340h-129zM502 1597h137l127 -340h-129z" />
    <glyph glyph-name="caronSlovak" unicode="&#xe413;" horiz-adv-x="1024" 
d="M778 1638h117l-86 -381h-82z" />
    <glyph glyph-name="commaaccent" unicode="&#xe414;" horiz-adv-x="1232" 
d="M479 -115l-14 -104q-13 -105 -77 -162t-167 -57l10 73q117 0 150 111h-86l18 139h166z" />
    <glyph glyph-name="commaaccent" unicode="&#xf6c3;" horiz-adv-x="1232" 
d="M479 -115l-14 -104q-13 -105 -77 -162t-167 -57l10 73q117 0 150 111h-86l18 139h166z" />
    <glyph glyph-name="dotbelow" unicode="&#xe415;" horiz-adv-x="1232" 
d="M469 -178l-20 -168h-168l22 168h166z" />
    <glyph glyph-name="altcedilla" unicode="&#xe416;" horiz-adv-x="1232" 
d="M487 -266q0 69 -112 69q-65 0 -115 -20v74q62 24 139 24q80 0 132.5 -33.5t52.5 -107.5q0 -87 -60.5 -129.5t-161.5 -42.5q-56 0 -107 16t-81 39l41 74q62 -43 145 -43q127 0 127 80z" />
    <glyph glyph-name="grave.cap" unicode="&#xe421;" horiz-adv-x="1024" 
d="M467 1946h151l93 -226h-148z" />
    <glyph glyph-name="acute.cap" unicode="&#xe422;" horiz-adv-x="1024" 
d="M717 1946h151l-157 -226h-148z" />
    <glyph glyph-name="circumflex.cap" unicode="&#xe423;" horiz-adv-x="1024" 
d="M920 1720h-138l-116 142l-160 -142h-152l248 226h131z" />
    <glyph glyph-name="tilde.cap" unicode="&#xe424;" horiz-adv-x="1024" 
d="M874 1917h99q-10 -95 -63 -143t-128 -48q-41 0 -81 18.5t-65.5 41t-57 41t-58.5 18.5q-38 0 -63 -23.5t-29 -72.5h-98q10 95 62.5 142.5t127.5 47.5q41 0 81 -18.5t65.5 -40.5t57 -40.5t58.5 -18.5q38 0 63 23.5t29 72.5z" />
    <glyph glyph-name="macron.cap" unicode="&#xe425;" horiz-adv-x="1024" 
d="M414 1778l14 110h463l-14 -110h-463z" />
    <glyph glyph-name="breve.cap" unicode="&#xe426;" horiz-adv-x="1024" 
d="M637 1698q-148 0 -215 68.5t-51 179.5h108q-11 -70 30.5 -112t133.5 -42t144 41.5t61 112.5h117q-14 -112 -96.5 -180t-231.5 -68z" />
    <glyph glyph-name="invertedbreve.cap" unicode="&#xe427;" horiz-adv-x="1024" 
d="M668 1968q148 0 214 -68.5t52 -179.5h-109q11 70 -30 112t-133 42t-144 -41.5t-61 -112.5h-117q14 112 96.5 180t231.5 68z" />
    <glyph glyph-name="dotaccent.cap" unicode="&#xe428;" horiz-adv-x="1024" 
d="M741 1905l-18 -144h-162l19 144h161z" />
    <glyph glyph-name="dieresis.cap" unicode="&#xe429;" horiz-adv-x="1024" 
d="M582 1905l-19 -144h-162l19 144h162zM901 1905l-18 -144h-162l18 144h162z" />
    <glyph glyph-name="ring.cap" unicode="&#xe42a;" horiz-adv-x="1024" 
d="M627 1661q56 0 94.5 33t38.5 96q0 44 -26 72t-72 28q-57 0 -95.5 -33t-38.5 -96q0 -44 26.5 -72t72.5 -28zM627 1583q-83 0 -130.5 49.5t-47.5 128.5q0 88 62 147.5t151 59.5q83 0 130.5 -49.5t47.5 -128.5q0 -88 -62 -147.5t-151 -59.5z" />
    <glyph glyph-name="hungarumlaut.cap" unicode="&#xe42b;" horiz-adv-x="1024" 
d="M590 1946h143l-155 -226h-138zM850 1946h143l-159 -226h-138z" />
    <glyph glyph-name="doublegrave.cap" unicode="&#xe42c;" horiz-adv-x="1024" 
d="M602 1946h143l89 -226h-138zM342 1946h143l93 -226h-138z" />
    <glyph glyph-name="caron.cap" unicode="&#xe42d;" horiz-adv-x="1024" 
d="M385 1946h137l117 -142l160 142h151l-248 -226h-131z" />
    <glyph glyph-name="commaaccent.cap" unicode="&#xe42e;" horiz-adv-x="1024" 
d="M557 1720l10 86q9 76 62 120t147 44l-10 -65q-99 0 -115 -60h84l-16 -125h-162z" />
    <glyph glyph-name="exclamdown.cap" unicode="&#xe441;" horiz-adv-x="444" 
d="M209 0h-174l198 1210h95zM215 1413l25 184h184l-25 -184h-184z" />
    <glyph glyph-name="questiondown.cap" unicode="&#xe444;" horiz-adv-x="931" 
d="M379 111q63 0 113 21t84.5 58t60.5 95t41.5 125t26.5 155h145l-4 -28q-15 -110 -37.5 -192.5t-59 -154t-87 -117t-122.5 -71t-165 -25.5q-373 0 -373 355q0 93 22.5 169.5t59 130.5t81.5 101.5t93.5 95t91 98t77 123.5t48.5 160h96q-7 -89 -34 -166t-64 -133.5
t-80.5 -108.5t-85.5 -101t-76.5 -100.5t-55.5 -117.5t-21 -141q0 -117 53 -174t172 -57zM459 1413l24 184h185l-25 -184h-184z" />
    <glyph glyph-name="guilsinglleft.cap" unicode="&#xe451;" horiz-adv-x="622" 
d="M573 1176l-18 -150l-336 -231l275 -234l-19 -137l-377 313l17 127z" />
    <glyph glyph-name="guilsinglright.cap" unicode="&#xe452;" horiz-adv-x="622" 
d="M57 424l19 149l336 232l-275 233l19 138l376 -314l-16 -127z" />
    <glyph glyph-name="guillemotleft.cap" unicode="&#xe453;" horiz-adv-x="1058" 
d="M573 1176l-18 -150l-336 -231l275 -234l-19 -137l-377 313l17 127zM1008 1176l-19 -150l-336 -231l275 -234l-19 -137l-377 313l17 127z" />
    <glyph glyph-name="guillemotright.cap" unicode="&#xe454;" horiz-adv-x="1058" 
d="M492 424l18 149l336 232l-275 233l19 138l377 -314l-17 -127zM57 424l19 149l336 232l-275 233l19 138l376 -314l-16 -127z" />
    <glyph glyph-name="slash.cap" unicode="&#xe461;" horiz-adv-x="657" 
d="M106 0h-147l602 1597h148z" />
    <glyph glyph-name="backslash.cap" unicode="&#xe462;" horiz-adv-x="657" 
d="M172 1597h139l185 -1597h-140z" />
    <glyph glyph-name="bar.cap" unicode="&#xe463;" horiz-adv-x="411" 
d="M35 0l209 1597h143l-209 -1597h-143z" />
    <glyph glyph-name="doublebar.cap" unicode="&#xe464;" horiz-adv-x="669" 
d="M35 0l209 1597h143l-209 -1597h-143zM291 0l209 1597h143l-209 -1597h-143z" />
    <glyph glyph-name="brokenbar.cap" unicode="&#xe465;" horiz-adv-x="411" 
d="M147 872l97 725h143l-96 -725h-144zM35 0l94 725h143l-94 -725h-143z" />
    <glyph glyph-name="bullet.cap" unicode="&#xe466;" horiz-adv-x="813" 
d="M713 1067l-70 -537h-537l72 537h535z" />
    <glyph glyph-name="onethirdemdash" unicode="&#xe471;" horiz-adv-x="681" 
d="M584 651h-518l18 131h518z" />
    <glyph glyph-name="threequarteremdash" unicode="&#xe472;" horiz-adv-x="1536" 
d="M66 651l18 131h1372l-18 -131h-1372z" />
    <glyph glyph-name="periodcentered.cap" unicode="&#xe481;" horiz-adv-x="444" 
d="M330 891l-25 -184h-184l24 184h185z" />
    <glyph glyph-name="hyphen.cap" unicode="&#xe482;" horiz-adv-x="673" 
d="M584 733h-508l18 131h508z" />
    <glyph glyph-name="onethirdemdash.cap" unicode="&#xe483;" horiz-adv-x="681" 
d="M594 733h-518l18 131h518z" />
    <glyph glyph-name="endash.cap" unicode="&#xe484;" horiz-adv-x="1024" 
d="M76 733l18 131h860l-18 -131h-860z" />
    <glyph glyph-name="threequarteremdash.cap" unicode="&#xe485;" horiz-adv-x="1536" 
d="M76 733l18 131h1372l-18 -131h-1372z" />
    <glyph glyph-name="emdash.cap" unicode="&#xe486;" horiz-adv-x="2048" 
d="M76 733l18 131h1884l-18 -131h-1884z" />
    <glyph glyph-name="figuredash.cap" unicode="&#xe487;" horiz-adv-x="1228" 
d="M76 733l18 131h1065l-18 -131h-1065z" />
    <glyph glyph-name="uni2015.cap" unicode="&#xe488;" horiz-adv-x="2457" 
d="M76 733l18 131h2294l-18 -131h-2294z" />
    <glyph glyph-name="parenleft.cap" unicode="&#xe491;" horiz-adv-x="649" 
d="M123 774l6 49q49 395 354 774h154q-313 -393 -361 -774l-6 -49q-49 -386 158 -774h-152q-203 366 -153 774z" />
    <glyph glyph-name="parenright.cap" unicode="&#xe492;" horiz-adv-x="649" 
d="M532 823l-6 -49q-49 -395 -354 -774h-154q313 393 361 774l6 49q49 386 -158 774h152q203 -366 153 -774z" />
    <glyph glyph-name="bracketleft.cap" unicode="&#xe493;" horiz-adv-x="649" 
d="M246 1597h426l-17 -133h-282l-174 -1331h280l-16 -133h-426z" />
    <glyph glyph-name="bracketright.cap" unicode="&#xe494;" horiz-adv-x="649" 
d="M412 0h-426l16 133h283l174 1331h-281l17 133h426z" />
    <glyph glyph-name="braceleft.cap" unicode="&#xe495;" horiz-adv-x="649" 
d="M674 1597l-17 -133q-105 0 -155.5 -46t-67.5 -171l-31 -239q-12 -84 -49.5 -134t-105.5 -75q62 -27 86 -76t14 -135l-31 -240q-12 -89 1.5 -135.5t51 -63t111.5 -16.5l-16 -133h-37q-61 0 -110.5 15.5t-88.5 48t-56 92t-7 139.5l33 256q14 107 -21.5 143.5t-130.5 36.5
l16 135q95 0 141 37t60 144l35 268q10 81 43 138.5t81.5 87.5t100.5 43t113 13h37z" />
    <glyph glyph-name="braceright.cap" unicode="&#xe496;" horiz-adv-x="649" 
d="M-14 0l16 133q105 0 155.5 46t67.5 171l31 240q12 84 50 134t106 75q-62 27 -86.5 76t-14.5 135l31 239q12 89 -1.5 135.5t-51 63t-111.5 16.5l17 133h36q61 0 110.5 -15t89 -47.5t56.5 -92t7 -139.5l-33 -256q-14 -107 21 -144t130 -37l-16 -135q-95 0 -141 -36.5
t-60 -143.5l-35 -268q-10 -81 -43 -138.5t-81 -88t-100 -43.5t-113 -13h-37z" />
    <glyph glyph-name="anglebracketleft.cap" unicode="&#xe497;" horiz-adv-x="649" 
d="M418 0h-150l-166 799l375 798h154l-377 -802z" />
    <glyph glyph-name="anglebracketright.cap" unicode="&#xe498;" horiz-adv-x="649" 
d="M242 1597h149l166 -798l-375 -799h-153l377 803z" />
    <glyph glyph-name="lowline" unicode="&#xe511;" horiz-adv-x="655" 
d="M-2 0l18 131h459l-18 -131h-459z" />
    <glyph glyph-name="underscoremonospace" unicode="&#xe512;" horiz-adv-x="1228" 
d="M-39 -276l19 131h1032l-19 -131h-1032z" />
    <glyph glyph-name="underscoremonospace" unicode="&#xff3f;" horiz-adv-x="1228" 
d="M-39 -276l19 131h1032l-19 -131h-1032z" />
    <glyph glyph-name="at.cap" unicode="&#xe513;" horiz-adv-x="1968" 
d="M918 -115h20q185 0 369.5 59t314.5 158l64 -88q-147 -123 -353.5 -182t-404.5 -59q-221 0 -395 67t-287.5 192t-161 310.5t-18.5 415.5l10 82q38 305 185.5 529.5t374 340t507.5 115.5q147 0 273.5 -30t231 -95t174 -159t98.5 -229.5t9 -299.5l-10 -82
q-18 -145 -58.5 -252t-95.5 -173.5t-132 -106.5t-157.5 -55t-181.5 -15h-94l-2 147q-56 -76 -139 -123t-189 -47q-87 0 -154 26t-107 72t-65 107t-27.5 131.5t5.5 146.5l6 46q14 97 48 180.5t90 152t141.5 107.5t191.5 39q108 0 182 -48t109 -124l37 149h111l-52 -307
l-71 -545q69 2 121 9.5t105.5 27t93 54.5t73.5 88t57.5 131.5t36.5 181.5l10 82q18 149 -7.5 269t-85 199t-149.5 132.5t-193.5 76.5t-223.5 23h-20q-246 0 -446 -102t-330.5 -300.5t-163.5 -469.5l-11 -82q-26 -209 15.5 -375t140.5 -274.5t246.5 -166t333.5 -57.5z
M1257 1026q-21 41 -50 74.5t-85.5 61.5t-126.5 28q-136 0 -220 -96.5t-105 -255.5l-6 -45q-23 -164 33 -264.5t192 -100.5q101 0 181 49.5t130 114.5z" />
    <glyph glyph-name="zero.inf" unicode="&#xe571;" 
d="M481 162l-45 -344q-16 -119 -81 -180.5t-191 -61.5q-131 0 -192.5 67t-47.5 175l45 344q29 239 273 239q130 0 191.5 -65.5t47.5 -173.5zM104 160l-45 -342q-16 -121 105 -121h6q60 0 91 28.5t40 92.5l45 344q16 121 -104 121h-6q-62 0 -93.5 -28.5t-38.5 -94.5z" />
    <glyph glyph-name="one.inf" unicode="&#xe572;" 
d="M412 -410h-502l14 101h193l73 553l-174 -109l-45 86l271 170h82l-93 -700h195z" />
    <glyph glyph-name="two.inf" unicode="&#xe573;" 
d="M422 -309l-14 -101h-512l10 82l373 344q42 39 62 69.5t24 66.5l2 16q9 66 -24 98.5t-93 32.5h-12q-142 0 -158 -176h-115l6 45q33 233 273 233q132 0 191 -64t48 -161l-2 -16q-7 -60 -35 -102.5t-84 -94.5l-294 -272h354z" />
    <glyph glyph-name="three.inf" unicode="&#xe574;" 
d="M39 -154q-27 -168 117 -168h14q136 0 152 121l2 17q7 64 -23.5 97.5t-91.5 33.5h-113l13 102h110q134 0 148 111l2 16q7 62 -26 92.5t-93 30.5h-12q-142 0 -158 -176h-115l6 45q33 233 273 233q128 0 190 -61.5t51 -155.5l-2 -16q-7 -67 -46.5 -114t-94.5 -56
q52 -13 78.5 -64.5t17.5 -119.5l-2 -17q-12 -97 -85 -159t-189 -62q-274 0 -242 254l2 16h117z" />
    <glyph glyph-name="four.inf" unicode="&#xe575;" 
d="M317 -410h-114l26 195h-331l10 82l399 522h115l-66 -504h111l-14 -100h-111zM285 199l-242 -316l74 2h125l30 228z" />
    <glyph glyph-name="five.inf" unicode="&#xe576;" 
d="M-78 -154h117q-27 -168 117 -168h12q60 0 105 38.5t55 113.5l2 16q9 76 -23 115t-94 39h-12q-111 0 -164 -86l-96 31l79 444h486l-12 -102h-385l-43 -240q22 22 65 38.5t86 16.5q120 0 182 -64t45 -192l-2 -16q-14 -117 -87.5 -185.5t-192.5 -68.5q-274 0 -242 254z" />
    <glyph glyph-name="six.inf" unicode="&#xe577;" 
d="M481 401l-12 -102q-179 0 -295 -119q-60 -63 -90 -147q64 61 164 61q98 0 154 -64.5t42 -183.5l-2 -16q-14 -117 -87.5 -185.5t-192.5 -68.5q-127 0 -188 78.5t-44 218.5l2 16q13 111 51 196t107 161q138 155 391 155zM215 -8h-12q-45 0 -87 -25.5t-69 -66.5
q-8 -64 -8 -80q-2 -67 28.5 -104.5t88.5 -37.5h12q60 0 105 38.5t55 113.5l2 16q9 70 -22 108t-93 38z" />
    <glyph glyph-name="seven.inf" unicode="&#xe578;" 
d="M-43 102l39 287h526l-10 -82l-391 -717h-127l385 701l-115 -2h-172l-26 -187h-109z" />
    <glyph glyph-name="eight.inf" unicode="&#xe579;" 
d="M162 -426q-135 0 -193.5 65.5t-46.5 161.5l2 17q7 67 49.5 119t96.5 61q-52 15 -80 61t-21 111l2 16q12 97 82.5 156t188.5 59q128 0 191 -61.5t52 -155.5l-2 -16q-7 -67 -46.5 -114t-94.5 -56q52 -13 78.5 -64.5t17.5 -119.5l-2 -17q-13 -99 -83 -161t-191 -62zM248 299
h-12q-60 0 -101.5 -27t-48.5 -86l-2 -16q-6 -55 25 -88t92 -33h18q65 0 103.5 28.5t44.5 82.5l2 16q7 59 -27 91t-94 32zM156 -324h14q60 0 102 29.5t50 93.5l2 17q7 64 -23.5 97.5t-91.5 33.5h-21q-64 0 -101.5 -32t-45.5 -91l-2 -17q-7 -63 25.5 -97t91.5 -34z" />
    <glyph glyph-name="nine.inf" unicode="&#xe57a;" 
d="M-80 -424l12 102q183 0 299 119q61 64 91 148q-66 -62 -164 -62t-154.5 64.5t-42.5 183.5l2 16q14 117 88 185.5t193 68.5q127 0 187.5 -78.5t43.5 -218.5l-2 -16q-13 -111 -51 -195.5t-107 -160.5q-139 -156 -395 -156zM190 -14h13q45 0 86.5 25.5t68.5 66.5q9 72 9 80
q2 67 -28.5 104t-88.5 37h-12q-60 0 -105 -38.5t-55 -113.5l-2 -16q-9 -70 21.5 -107.5t92.5 -37.5z" />
    <glyph glyph-name="plus.inf" unicode="&#xe57b;" 
d="M186 250h103l-27 -209h211l-16 -104h-209l-27 -207h-104l26 207h-209l17 104h209z" />
    <glyph glyph-name="minus.inf" unicode="&#xe57c;" 
d="M-66 -63l17 104h522l-16 -104h-523z" />
    <glyph glyph-name="equal.inf" unicode="&#xe57d;" 
d="M-47 51l16 105h523l-17 -105h-522zM-84 -178l16 104h523l-17 -104h-522z" />
    <glyph glyph-name="parenleft.inf" unicode="&#xe57e;" horiz-adv-x="346" 
d="M-51 -12l2 16q30 239 172 385h123q-154 -171 -180 -385l-3 -16q-24 -210 76 -398h-114q-41 70 -65 179t-11 219z" />
    <glyph glyph-name="parenright.inf" unicode="&#xe57f;" horiz-adv-x="346" 
d="M188 -8l-2 -17q-30 -239 -172 -385h-123q156 172 181 385l2 17q24 209 -76 397h115q41 -70 64.5 -178.5t10.5 -218.5z" />
    <glyph glyph-name="Anocross" unicode="&#xe731;" horiz-adv-x="1251" 
d="M633 1614h211l248 -1614h-156l-217 1452l-598 -1452h-162z" />
    <glyph glyph-name="idotaccent" unicode="&#xe785;" horiz-adv-x="442" 
d="M49 0l141 1085h144l-141 -1085h-144zM414 1526l-25 -185h-184l24 185h185z" />
    <glyph glyph-name="interrobangdown" unicode="&#xe935;" horiz-adv-x="931" 
d="M412 698h96l-94 -983q99 30 154.5 130.5t76.5 277.5h148l-5 -29q-38 -270 -146 -398t-327 -128q-191 0 -280.5 87t-89.5 243q0 91 22 163t58 119.5t80.5 88.5t92.5 81t90 84.5t76 112t48 151.5zM94 -92q0 -175 160 -201l111 655q-30 -39 -89.5 -102t-92.5 -102.5
t-61 -107t-28 -142.5zM395 901l25 184h184l-24 -184h-185z" />
    <glyph glyph-name="interrobangdown.cap" unicode="&#xe99b;" horiz-adv-x="931" 
d="M475 1210h96l-106 -1089q106 30 160.5 140.5t79.5 303.5h145l-4 -28q-15 -110 -37.5 -192.5t-59 -154t-87 -117t-122.5 -71t-165 -25.5q-373 0 -373 355q0 93 22.5 169.5t59 130.5t81.5 101.5t93.5 95t91 98t77 123.5t48.5 160zM154 342q0 -98 35.5 -154t115.5 -71
l121 741q-27 -38 -73 -92.5t-75.5 -93.5t-61 -90.5t-47 -111t-15.5 -128.5zM459 1413l24 184h185l-25 -184h-184z" />
    <glyph glyph-name="registered.cap" unicode="&#xe99c;" horiz-adv-x="1884" 
d="M121 799q0 167 65 319t175 262t262 175t319 65t319 -65t262 -175t175 -262t65 -319t-65 -319t-175 -262.5t-262 -175.5t-319 -65t-319 65t-262 175.5t-175 262.5t-65 319zM209 799q0 -200 98 -368.5t266.5 -266.5t368.5 -98t368.5 98t266.5 266.5t98 368.5t-98 368.5
t-266.5 266.5t-368.5 98t-368.5 -98t-266.5 -266.5t-98 -368.5zM743 700v-383h-135v963h373q58 0 107.5 -12.5t95 -41.5t72 -85.5t26.5 -136.5v-25q0 -196 -160 -256l160 -406h-143l-142 383h-254zM743 811h220q27 0 51 4t49 15.5t43 30t29.5 50t11.5 72.5v14
q0 172 -184 172h-220v-358z" />
    <glyph glyph-name="period.T" unicode="&#xf182;" 
d="M324 184l-25 -184h-184l24 184h185z" />
    <glyph glyph-name="comma.T" unicode="&#xf183;" 
d="M324 184l-21 -153q-38 -275 -266 -275l12 88q64 0 102 35.5t56 120.5h-92l24 184h185z" />
    <glyph glyph-name="colon.T" unicode="&#xf184;" 
d="M324 184l-25 -184h-184l24 184h185zM416 891l-25 -184h-184l24 184h185z" />
    <glyph glyph-name="semicolon.T" unicode="&#xf185;" 
d="M324 184l-21 -153q-38 -275 -266 -275l12 88q64 0 102 35.5t56 120.5h-92l24 184h185zM416 891l-25 -184h-184l24 184h185z" />
    <glyph glyph-name="onesixteenth" unicode="&#xf215;" horiz-adv-x="2252" 
d="M571 799h-501l14 100h192l74 553l-174 -109l-45 87l270 169h82l-92 -700h195zM203 0h-144l1389 1597h143zM1491 0h-502l15 100h192l74 553l-174 -108l-45 86l270 170h82l-92 -701h194zM2175 811l-12 -102q-179 0 -295 -119q-60 -62 -90 -148q66 62 164 62t154 -64.5
t42 -183.5l-2 -16q-14 -117 -88 -185.5t-193 -68.5q-127 0 -187.5 78.5t-43.5 218.5l2 16q13 111 51 195.5t107 160.5q139 156 391 156zM1909 401h-13q-45 0 -86.5 -25.5t-68.5 -66.5q-8 -64 -8 -80q-2 -67 28 -104t88 -37h13q60 0 104.5 38.5t54.5 113.5l2 16
q9 70 -21.5 107.5t-92.5 37.5z" />
    <glyph glyph-name="threesixteenths" unicode="&#xf216;" horiz-adv-x="2252" 
d="M199 1055q-27 -168 116 -168h15q135 0 151 121l2 16q7 64 -23 97.5t-91 33.5h-113l12 102h111q133 0 147 111l2 16q7 62 -25.5 92.5t-92.5 30.5h-13q-141 0 -157 -176h-115l6 45q33 234 272 234q128 0 190.5 -61.5t51.5 -155.5l-2 -17q-7 -67 -46.5 -114t-94.5 -56
q52 -13 78.5 -64.5t17.5 -119.5l-2 -16q-12 -97 -85 -159.5t-189 -62.5q-274 0 -242 254l2 17h117zM203 0h-144l1389 1597h143zM1491 0h-502l15 100h192l74 553l-174 -108l-45 86l270 170h82l-92 -701h194zM2175 811l-12 -102q-179 0 -295 -119q-60 -62 -90 -148
q66 62 164 62t154 -64.5t42 -183.5l-2 -16q-14 -117 -88 -185.5t-193 -68.5q-127 0 -187.5 78.5t-43.5 218.5l2 16q13 111 51 195.5t107 160.5q139 156 391 156zM1909 401h-13q-45 0 -86.5 -25.5t-68.5 -66.5q-8 -64 -8 -80q-2 -67 28 -104t88 -37h13q60 0 104.5 38.5
t54.5 113.5l2 16q9 70 -21.5 107.5t-92.5 37.5z" />
    <glyph glyph-name="fivesixteenths" unicode="&#xf217;" horiz-adv-x="2252" 
d="M82 1055h117q-27 -168 116 -168h13q60 0 104.5 38t54.5 113l2 17q9 76 -22.5 114.5t-93.5 38.5h-13q-110 0 -163 -86l-97 31l80 444h486l-13 -102h-385l-43 -240q22 22 65.5 39t86.5 17q120 0 182 -64t45 -192l-2 -17q-14 -117 -87.5 -185.5t-192.5 -68.5
q-274 0 -242 254zM203 0h-144l1389 1597h143zM1491 0h-502l15 100h192l74 553l-174 -108l-45 86l270 170h82l-92 -701h194zM2175 811l-12 -102q-179 0 -295 -119q-60 -62 -90 -148q66 62 164 62t154 -64.5t42 -183.5l-2 -16q-14 -117 -88 -185.5t-193 -68.5
q-127 0 -187.5 78.5t-43.5 218.5l2 16q13 111 51 195.5t107 160.5q139 156 391 156zM1909 401h-13q-45 0 -86.5 -25.5t-68.5 -66.5q-8 -64 -8 -80q-2 -67 28 -104t88 -37h13q60 0 104.5 38.5t54.5 113.5l2 16q9 70 -21.5 107.5t-92.5 37.5z" />
    <glyph glyph-name="sevensixteenths" unicode="&#xf218;" horiz-adv-x="2252" 
d="M117 1311l39 286h526l-10 -81l-391 -717h-127l385 700l-115 -2h-172l-27 -186h-108zM203 0h-144l1389 1597h143zM1491 0h-502l15 100h192l74 553l-174 -108l-45 86l270 170h82l-92 -701h194zM2175 811l-12 -102q-179 0 -295 -119q-60 -62 -90 -148q66 62 164 62
t154 -64.5t42 -183.5l-2 -16q-14 -117 -88 -185.5t-193 -68.5q-127 0 -187.5 78.5t-43.5 218.5l2 16q13 111 51 195.5t107 160.5q139 156 391 156zM1909 401h-13q-45 0 -86.5 -25.5t-68.5 -66.5q-8 -64 -8 -80q-2 -67 28 -104t88 -37h13q60 0 104.5 38.5t54.5 113.5l2 16
q9 70 -21.5 107.5t-92.5 37.5z" />
    <glyph glyph-name="ninesixteenths" unicode="&#xf219;" horiz-adv-x="2252" 
d="M80 784l12 103q183 0 299 119q60 63 90 147q-64 -61 -164 -61q-98 0 -154 64t-42 183l2 17q14 117 87.5 185.5t192.5 68.5q127 0 188 -78.5t44 -218.5l-2 -17q-13 -111 -51 -195.5t-107 -160.5q-139 -156 -395 -156zM350 1194h12q45 0 87 25.5t69 66.5q8 64 8 80
q2 67 -28 104t-88 37h-13q-60 0 -104.5 -38t-54.5 -113l-2 -17q-9 -70 21.5 -107.5t92.5 -37.5zM203 0h-144l1389 1597h143zM1491 0h-502l15 100h192l74 553l-174 -108l-45 86l270 170h82l-92 -701h194zM2175 811l-12 -102q-179 0 -295 -119q-60 -62 -90 -148q66 62 164 62
t154 -64.5t42 -183.5l-2 -16q-14 -117 -88 -185.5t-193 -68.5q-127 0 -187.5 78.5t-43.5 218.5l2 16q13 111 51 195.5t107 160.5q139 156 391 156zM1909 401h-13q-45 0 -86.5 -25.5t-68.5 -66.5q-8 -64 -8 -80q-2 -67 28 -104t88 -37h13q60 0 104.5 38.5t54.5 113.5l2 16
q9 70 -21.5 107.5t-92.5 37.5z" />
    <glyph glyph-name="elevensixteenths" unicode="&#xf220;" horiz-adv-x="2867" 
d="M571 799h-501l14 100h192l74 553l-174 -109l-45 87l270 169h82l-92 -700h195zM1186 799h-502l14 100h193l74 553l-174 -109l-46 87l271 169h82l-92 -700h194zM817 0h-143l1388 1597h144zM2105 0h-501l14 100h192l74 553l-174 -108l-45 86l270 170h82l-92 -701h195z
M2789 811l-12 -102q-179 0 -295 -119q-60 -62 -90 -148q66 62 164 62t154.5 -64.5t42.5 -183.5l-3 -16q-14 -117 -87.5 -185.5t-192.5 -68.5q-127 0 -188 78.5t-44 218.5l3 16q13 111 51 195.5t106 160.5q139 156 391 156zM2523 401h-12q-45 0 -87 -25.5t-69 -66.5
q-8 -64 -8 -80q-2 -67 28.5 -104t88.5 -37h12q60 0 105 38.5t55 113.5l2 16q9 70 -22 107.5t-93 37.5z" />
    <glyph glyph-name="thirteensixteenths" unicode="&#xf221;" horiz-adv-x="2867" 
d="M571 799h-501l14 100h192l74 553l-174 -109l-45 87l270 169h82l-92 -700h195zM813 1055q-27 -168 117 -168h14q136 0 152 121l2 16q7 64 -23.5 97.5t-91.5 33.5h-113l13 102h110q134 0 148 111l2 16q7 62 -26 92.5t-93 30.5h-12q-142 0 -158 -176h-115l6 45
q33 234 273 234q128 0 190.5 -61.5t51.5 -155.5l-3 -17q-7 -67 -46.5 -114t-94.5 -56q52 -13 78.5 -64.5t17.5 -119.5l-2 -16q-12 -97 -85 -159.5t-189 -62.5q-274 0 -242 254l2 17h117zM817 0h-143l1388 1597h144zM2105 0h-501l14 100h192l74 553l-174 -108l-45 86l270 170
h82l-92 -701h195zM2789 811l-12 -102q-179 0 -295 -119q-60 -62 -90 -148q66 62 164 62t154.5 -64.5t42.5 -183.5l-3 -16q-14 -117 -87.5 -185.5t-192.5 -68.5q-127 0 -188 78.5t-44 218.5l3 16q13 111 51 195.5t106 160.5q139 156 391 156zM2523 401h-12q-45 0 -87 -25.5
t-69 -66.5q-8 -64 -8 -80q-2 -67 28.5 -104t88.5 -37h12q60 0 105 38.5t55 113.5l2 16q9 70 -22 107.5t-93 37.5z" />
    <glyph glyph-name="fifteensixteenths" unicode="&#xf222;" horiz-adv-x="2867" 
d="M571 799h-501l14 100h192l74 553l-174 -109l-45 87l270 169h82l-92 -700h195zM696 1055h117q-27 -168 117 -168h12q60 0 105 38t55 113l2 17q9 76 -23 114.5t-94 38.5h-12q-111 0 -164 -86l-96 31l80 444h485l-12 -102h-385l-43 -240q22 22 65 39t86 17q120 0 182.5 -64
t45.5 -192l-2 -17q-14 -117 -88 -185.5t-193 -68.5q-274 0 -242 254zM817 0h-143l1388 1597h144zM2105 0h-501l14 100h192l74 553l-174 -108l-45 86l270 170h82l-92 -701h195zM2789 811l-12 -102q-179 0 -295 -119q-60 -62 -90 -148q66 62 164 62t154.5 -64.5t42.5 -183.5
l-3 -16q-14 -117 -87.5 -185.5t-192.5 -68.5q-127 0 -188 78.5t-44 218.5l3 16q13 111 51 195.5t106 160.5q139 156 391 156zM2523 401h-12q-45 0 -87 -25.5t-69 -66.5q-8 -64 -8 -80q-2 -67 28.5 -104t88.5 -37h12q60 0 105 38.5t55 113.5l2 16q9 70 -22 107.5t-93 37.5z
" />
    </font>
</defs>
</svg>
