<?xml version="1.0" standalone="no"?>
<!DOCTYPE svg PUBLIC "-//W3C//DTD SVG 1.1//EN" "http://www.w3.org/Graphics/SVG/1.1/DTD/svg11.dtd" >
<svg xmlns="http://www.w3.org/2000/svg" xmlns:xlink="http://www.w3.org/1999/xlink" version="1.1">
<metadata>
Created by FontForge 20170731 at Thu Jan 27 16:36:05 2022
 By Aleksey,,,
Copyright (c) 2014, Cooper Hewitt Smithsonian Design Museum (cooperhewitt.org)
</metadata>
<defs>
<font id="CooperHewitt-Heavy" horiz-adv-x="614" >
  <font-face 
    font-family="Cooper Hewitt"
    font-weight="713"
    font-stretch="normal"
    units-per-em="2048"
    panose-1="0 0 0 0 0 0 0 0 0 0"
    ascent="1536"
    descent="-512"
    x-height="1085"
    cap-height="1597"
    bbox="-539 -471 2859 1987"
    underline-thickness="40"
    underline-position="-224"
    unicode-range="U+0020-F222"
  />
<missing-glyph horiz-adv-x="1966" 
d="M184 0v1597h1598v-1597h-1598zM983 707l-571 -572h1142zM412 1462l571 -571l571 571h-1142zM891 799l-563 563v-1126zM1075 799l563 -563v1126z" />
    <glyph glyph-name=".notdef" horiz-adv-x="1966" 
d="M184 0v1597h1598v-1597h-1598zM983 707l-571 -572h1142zM412 1462l571 -571l571 571h-1142zM891 799l-563 563v-1126zM1075 799l563 -563v1126z" />
    <glyph glyph-name=".null" horiz-adv-x="0" 
 />
    <glyph glyph-name="nonmarkingreturn" horiz-adv-x="682" 
 />
    <glyph glyph-name="space" unicode=" " horiz-adv-x="409" 
 />
    <glyph glyph-name="exclam" unicode="!" horiz-adv-x="573" 
d="M51 1597h471l-102 -1105h-266zM481 389v-389h-389v389h389z" />
    <glyph glyph-name="quotedbl" unicode="&#x22;" horiz-adv-x="983" 
d="M82 1597h369l-17 -696h-295zM532 1597h369l-57 -696h-295z" />
    <glyph glyph-name="numbersign" unicode="#" horiz-adv-x="1228" 
d="M123 901v328h174l63 368h328l-63 -368h123l63 368h328l-64 -368h113v-328h-168l-35 -205h121v-327h-176l-62 -369h-327l61 369h-123l-61 -369h-328l62 369h-111v327h166l35 205h-119zM569 901l-34 -205h122l35 205h-123z" />
    <glyph glyph-name="dollar" unicode="$" horiz-adv-x="1228" 
d="M616 410h11q68 0 105.5 32t37.5 72q0 69 -49 97t-205 55q-111 19 -184.5 44t-131.5 67.5t-85 109t-27 160.5v22q0 209 140 319.5t386 110.5h31l53 221h287l-65 -276q223 -106 223 -414v-26h-379q0 186 -152 186h-10q-69 0 -101 -32.5t-32 -82.5q0 -66 45 -89t199 -46
q91 -14 157 -31.5t122 -46.5t90.5 -69.5t53.5 -98.5t19 -135v-22q0 -209 -137.5 -323t-403.5 -114h-16l-53 -223h-287l64 270q-246 103 -246 422v11h383q0 -86 38 -128t119 -42z" />
    <glyph glyph-name="percent" unicode="%" horiz-adv-x="2048" 
d="M854 0h-328l523 1251q-58 -10 -117 -10q-30 0 -80 4v-41q0 -188 -110 -292.5t-291 -104.5t-291.5 104.5t-110.5 292.5v25q0 188 110.5 292.5t291.5 104.5q88 0 170 -29q88 -34 166.5 -45.5t216.5 -11.5q129 0 255 21.5t193 44.5v-172zM1196 393q0 188 110 293t291 105
t291.5 -105t110.5 -293v-24q0 -188 -110.5 -293t-291.5 -105t-291 105t-110 293v24zM1473 369q0 -53 31.5 -86t86.5 -33h13q56 0 87 33t31 86v24q0 53 -31 86t-87 33h-13q-55 0 -86.5 -33t-31.5 -86v-24zM575 1229q0 53 -31.5 86t-86.5 33h-13q-56 0 -87 -33t-31 -86v-25
q0 -53 31 -86t87 -33h13q55 0 86.5 33t31.5 86v25z" />
    <glyph glyph-name="ampersand" unicode="&#x26;" horiz-adv-x="1433" 
d="M504 -29q-226 0 -352.5 127.5t-126.5 337.5v23q0 265 217 422q-58 80 -84.5 157.5t-26.5 186.5v22q0 78 26 144.5t79 120t144 84t212 30.5t212 -30.5t144 -84t79 -120t26 -144.5v-22q0 -67 -17.5 -124.5t-44 -98.5t-69 -79t-81 -63t-91.5 -53l196 -242q49 116 49 240v4
h400v-10q0 -125 -53 -266.5t-154 -262.5l221 -270h-453l-47 57q-187 -86 -405 -86zM569 295h11q64 0 120 18l-245 301q-43 -59 -43 -131v-10q0 -86 40.5 -132t116.5 -46zM512 1233v-10q0 -81 43 -162q58 37 87.5 75t29.5 87v10q0 38 -20 61t-54 23h-12q-34 0 -54 -23
t-20 -61z" />
    <glyph glyph-name="quotesingle" unicode="'" horiz-adv-x="573" 
d="M82 1597h410l-58 -696h-295z" />
    <glyph glyph-name="parenleft" unicode="(" horiz-adv-x="778" 
d="M72 717v41q0 171 20.5 313.5t62 258t88.5 204t115 186.5h392q-67 -104 -117.5 -203t-93.5 -218t-65.5 -255.5t-22.5 -285.5v-41q0 -285 79 -515t220 -448h-392q-68 97 -115 186t-88.5 205t-62 258.5t-20.5 313.5z" />
    <glyph glyph-name="parenright" unicode=")" horiz-adv-x="778" 
d="M707 758v-41q0 -171 -20.5 -313.5t-62.5 -258.5t-89 -204.5t-115 -186.5h-391q141 218 220 448t79 515v41q0 149 -22.5 285.5t-65.5 255.5t-93.5 218t-117.5 203h391q68 -98 115 -186.5t89 -204t62.5 -258t20.5 -313.5z" />
    <glyph glyph-name="asterisk" unicode="*" horiz-adv-x="860" 
d="M328 1638h204l-10 -266h-184zM6 1255l64 195l249 -92l-57 -176zM270 827l-166 121l166 209l150 -108zM791 1450l63 -195l-256 -73l-57 176zM756 948l-166 -121l-150 222l150 108z" />
    <glyph glyph-name="plus" unicode="+" horiz-adv-x="1228" 
d="M446 1331h336v-364h365v-336h-365v-365h-336v365h-364v336h364v364z" />
    <glyph glyph-name="comma" unicode="," horiz-adv-x="573" 
d="M481 389v-307q0 -192 -98.5 -290.5t-290.5 -98.5v184q155 0 193 123h-193v389h389z" />
    <glyph glyph-name="hyphen" unicode="-" horiz-adv-x="737" 
d="M82 553v328h573v-328h-573z" />
    <glyph glyph-name="period" unicode="." horiz-adv-x="573" 
d="M481 389v-389h-389v389h389z" />
    <glyph glyph-name="slash" unicode="/" horiz-adv-x="901" 
d="M870 1720l-471 -1966h-368l471 1966h368z" />
    <glyph glyph-name="zero" unicode="0" horiz-adv-x="1228" 
d="M1147 451q0 -214 -139.5 -347t-393.5 -133t-393 133t-139 347v696q0 214 139 346.5t393 132.5t393.5 -132.5t139.5 -346.5v-696zM766 1147q0 66 -39 106.5t-109 40.5h-8q-70 0 -108.5 -40.5t-38.5 -106.5v-696q0 -66 38.5 -107t108.5 -41h8q70 0 109 41t39 107v696z" />
    <glyph glyph-name="one" unicode="1" horiz-adv-x="1228" 
d="M1157 0h-1044v332h331v798l-217 -145l-186 275l498 337h286v-1265h332v-332z" />
    <glyph glyph-name="two" unicode="2" horiz-adv-x="1228" 
d="M758 332h389v-332h-1065v240l594 661q49 52 69.5 90t20.5 94v21q0 94 -38.5 141t-102.5 47h-21q-141 0 -141 -229h-381v39q0 263 131.5 392.5t400.5 129.5q118 0 212 -28t152.5 -72.5t98 -105t55 -120t15.5 -122.5v-41q0 -71 -11 -128t-36.5 -106.5t-54 -88t-76.5 -91.5
l-355 -393z" />
    <glyph glyph-name="three" unicode="3" horiz-adv-x="1228" 
d="M453 512q0 -209 151 -209h21q65 0 108 43.5t43 130.5v21q0 151 -151 151h-215v332h208q148 0 148 152v20q0 62 -40 101.5t-101 39.5h-21q-141 0 -141 -229h-381v39q0 263 131.5 392.5t400.5 129.5q117 0 211.5 -28t153 -72t98 -102t55 -114t15.5 -112v-41
q0 -222 -172 -340q82 -52 132 -138t50 -206v-41q0 -59 -16.5 -119.5t-57.5 -123t-101 -110t-155.5 -78t-212.5 -30.5q-268 0 -405 131.5t-137 380.5v29h381z" />
    <glyph glyph-name="four" unicode="4" horiz-adv-x="1228" 
d="M1030 0h-381v326h-598v268l621 1003h358v-940h148v-331h-148v-326zM653 995l-213 -342l84 4h125v248z" />
    <glyph glyph-name="five" unicode="5" horiz-adv-x="1228" 
d="M72 512h381q0 -209 151 -209h21q66 0 108.5 47t42.5 148v20q0 195 -172 195h-10q-54 0 -105 -25.5t-77 -73.5l-328 113l37 870h1016v-331h-699l-10 -258q95 36 207 36q254 0 388 -139t134 -377v-41q0 -239 -137.5 -377.5t-405.5 -138.5t-405 131.5t-137 380.5v29z" />
    <glyph glyph-name="six" unicode="6" horiz-adv-x="1228" 
d="M1075 1626v-336q-183 -2 -296.5 -41.5t-188.5 -128.5q-62 -75 -90 -170q98 58 219 58q200 0 319 -136.5t119 -367.5v-21q0 -239 -137.5 -375.5t-405.5 -136.5q-176 0 -299.5 76t-183 208.5t-59.5 309.5v29q0 437 225 737q125 167 312.5 231t465.5 64zM618 678
q-46 0 -91 -23t-74 -69v-54q0 -111 43.5 -170t111.5 -59h13q64 0 109.5 45.5t45.5 124.5v41q0 86 -40 125t-107 39h-11z" />
    <glyph glyph-name="seven" unicode="7" horiz-adv-x="1228" 
d="M61 1024v573h1106v-235l-553 -1362h-407l536 1270l-184 -4h-166v-242h-332z" />
    <glyph glyph-name="eight" unicode="8" horiz-adv-x="1228" 
d="M614 -29q-117 0 -212.5 30.5t-155.5 78t-100.5 110t-57 123t-16.5 119.5v41q0 121 49.5 207t132.5 137q-172 118 -172 340v41q0 56 15.5 112t54.5 114t97.5 102t153 72t211.5 28t211.5 -28t153 -72t98 -102t55 -114t15.5 -112v-41q0 -222 -172 -340q82 -52 132 -138
t50 -206v-41q0 -59 -16.5 -119.5t-57.5 -123t-101 -110t-155.5 -78t-212.5 -30.5zM604 649q-151 0 -151 -151v-21q0 -87 43 -130.5t108 -43.5h21q65 0 108 43.5t43 130.5v21q0 151 -151 151h-21zM625 1294h-21q-61 0 -101 -39.5t-40 -101.5v-20q0 -152 147 -152h8
q148 0 148 152v20q0 62 -40 101.5t-101 39.5z" />
    <glyph glyph-name="nine" unicode="9" horiz-adv-x="1228" 
d="M154 -29v336q183 2 296.5 41.5t188.5 128.5q53 61 90 168q-96 -55 -219 -55q-200 0 -319 136.5t-119 367.5v20q0 239 137 375.5t405 136.5q132 0 236 -43.5t171 -122.5t101.5 -187.5t34.5 -240.5v-28q0 -438 -225 -738q-125 -167 -312.5 -231t-465.5 -64zM610 920
q45 0 91 23t75 67v55q0 111 -43.5 170t-111.5 59h-13q-64 0 -109.5 -45.5t-45.5 -124.5v-41q0 -86 40 -124.5t107 -38.5h10z" />
    <glyph glyph-name="colon" unicode=":" horiz-adv-x="573" 
d="M481 389v-389h-389v389h389zM481 993v-389h-389v389h389z" />
    <glyph glyph-name="semicolon" unicode=";" horiz-adv-x="573" 
d="M481 389v-307q0 -192 -98.5 -290.5t-290.5 -98.5v184q155 0 193 123h-193v389h389zM481 993v-389h-389v389h389z" />
    <glyph glyph-name="less" unicode="&#x3c;" horiz-adv-x="1228" 
d="M82 983l1065 401v-372l-612 -213l612 -213v-373l-1065 401v369z" />
    <glyph glyph-name="equal" unicode="=" horiz-adv-x="1228" 
d="M82 856v336h1065v-336h-1065zM82 406v335h1065v-335h-1065z" />
    <glyph glyph-name="greater" unicode="&#x3e;" horiz-adv-x="1228" 
d="M1147 983v-369l-1065 -401v373l612 213l-612 213v372z" />
    <glyph glyph-name="question" unicode="?" horiz-adv-x="1044" 
d="M532 1294q-61 0 -85.5 -50t-24.5 -179h-381v39q0 269 113.5 395.5t377.5 126.5q111 0 197 -24.5t138.5 -64t86.5 -94.5t47 -109.5t13 -114.5q0 -84 -18.5 -150t-48.5 -109.5t-67 -80.5t-75 -73t-71 -76t-57.5 -101t-31.5 -137h-266q-10 106 12.5 202.5t62 165.5t80 126.5
t70 109.5t29.5 92q0 106 -101 106zM707 389v-389h-390v389h390z" />
    <glyph glyph-name="at" unicode="@" horiz-adv-x="2048" 
d="M1059 -197h12q364 0 676 228l139 -189q-107 -85 -217.5 -143t-217 -86.5t-196.5 -39.5t-190 -11q-222 0 -407 65t-320.5 188t-211 312t-75.5 426v82q0 190 49.5 350.5t139 277.5t214.5 199.5t277 123t324 40.5q155 0 291 -27t257 -88.5t207.5 -153.5t136.5 -229t50 -307
v-61q0 -144 -28.5 -255t-78 -182.5t-122 -117t-154 -64t-180.5 -18.5h-252l-23 113q-93 -142 -274 -142q-179 0 -276 128t-97 345v74q0 217 97 345t276 128q180 0 274 -143l23 114h297l-21 -274v-446q168 10 228.5 95t60.5 300v61q0 563 -686 563h-12q-165 0 -301 -46.5
t-237.5 -137t-157.5 -235t-56 -330.5v-82q0 -187 55.5 -331t157.5 -235t240.5 -137.5t308.5 -46.5zM989 383q50 0 87 24t54 52v291q-17 28 -54 51.5t-87 23.5q-133 0 -133 -184v-74q0 -184 133 -184z" />
    <glyph glyph-name="A" unicode="A" horiz-adv-x="1331" 
d="M399 1597h533l381 -1597h-416l-66 324h-331l-64 -324h-418zM666 1147l-99 -488h197z" />
    <glyph glyph-name="B" unicode="B" horiz-adv-x="1320" 
d="M102 1597h564q83 0 149 -8.5t139 -36.5t121.5 -75.5t80.5 -132.5t32 -201v-41q0 -186 -133 -277q174 -94 174 -313v-41q0 -87 -17.5 -157t-47 -118.5t-73.5 -84.5t-90 -57t-104.5 -33.5t-109.5 -16.5t-111 -4h-574v1597zM686 647h-194v-311h194q27 0 50.5 6t47.5 20.5
t38 45.5t14 75v17q0 44 -14 75t-38 45.5t-47.5 20.5t-50.5 6zM659 1262h-167v-279h167q136 0 136 127v25q0 127 -136 127z" />
    <glyph glyph-name="C" unicode="C" horiz-adv-x="1351" 
d="M463 758q0 -91 4.5 -154t18 -123t37.5 -95.5t65 -57t98 -21.5h21q184 0 184 246h389v-18q0 -301 -146 -432.5t-448 -131.5q-323 0 -470.5 186.5t-147.5 600.5v82q0 414 147.5 600t470.5 186q302 0 448 -131t146 -432v-80h-389q0 59 -4.5 103t-16 84t-32 65.5t-53.5 40
t-78 14.5h-21q-57 0 -98 -21.5t-65 -56.5t-37.5 -95t-18 -123t-4.5 -154v-82z" />
    <glyph glyph-name="D" unicode="D" horiz-adv-x="1372" 
d="M1305 758q0 -210 -37 -352t-120.5 -234t-213 -132t-320.5 -40h-512v1597h512q191 0 320 -40t213 -131.5t121 -233.5t37 -352v-82zM492 336h102q98 0 161 26t96.5 83t45.5 129t12 184v82q0 111 -12 183.5t-45.5 129.5t-96.5 83t-161 26h-102v-926z" />
    <glyph glyph-name="E" unicode="E" horiz-adv-x="1187" 
d="M102 1597h1004v-335h-614v-279h512v-336h-512v-311h614v-336h-1004v1597z" />
    <glyph glyph-name="F" unicode="F" horiz-adv-x="1146" 
d="M102 1597h1004v-335h-614v-279h512v-336h-512v-647h-390v1597z" />
    <glyph glyph-name="G" unicode="G" horiz-adv-x="1392" 
d="M717 -29q-339 0 -494 186.5t-155 600.5v82q0 412 151.5 599t476.5 187q150 0 260 -30.5t188 -96.5t117 -174.5t39 -261.5v-80h-389q0 59 -4.5 103t-17 84t-33.5 65t-56 40t-83 15h-21q-50 0 -88 -13.5t-63.5 -42.5t-42 -65t-25 -90.5t-11.5 -109t-3 -129.5v-82
q0 -75 3 -129.5t12 -109.5t26.5 -91t44 -65t66 -42.5t92.5 -13.5h20q111 0 182 41v205h-192v336h581v-729q-112 -89 -247.5 -139t-333.5 -50z" />
    <glyph glyph-name="H" unicode="H" horiz-adv-x="1372" 
d="M881 1597h389v-1597h-389v647h-389v-647h-390v1597h390v-614h389v614z" />
    <glyph glyph-name="I" unicode="I" 
d="M502 1597v-1597h-389v1597h389z" />
    <glyph glyph-name="J" unicode="J" horiz-adv-x="1126" 
d="M645 1597h389v-1110q0 -516 -495 -516q-136 0 -232.5 34t-154 102.5t-83.5 162.5t-26 222v61h369q0 -129 24 -187.5t92 -58.5t92.5 55.5t24.5 169.5v1065z" />
    <glyph glyph-name="K" unicode="K" horiz-adv-x="1320" 
d="M492 1597v-548l327 548h471l-438 -628l438 -969h-430l-260 608l-108 -157v-451h-390v1597h390z" />
    <glyph glyph-name="L" unicode="L" horiz-adv-x="1085" 
d="M1055 0h-953v1597h390v-1261h563v-336z" />
    <glyph glyph-name="M" unicode="M" horiz-adv-x="1822" 
d="M1341 922l-229 -922h-401l-230 922l11 -308v-614h-390v1597h580l229 -921l230 921h579v-1597h-389v614z" />
    <glyph glyph-name="N" unicode="N" horiz-adv-x="1413" 
d="M1311 1597v-1597h-410l-440 881l10 -308v-573h-369v1597h410l440 -880l-10 307v573h369z" />
    <glyph glyph-name="O" unicode="O" horiz-adv-x="1392" 
d="M696 -29q-325 0 -476.5 187.5t-151.5 599.5v82q0 412 151.5 599t476.5 187t477 -187t152 -599v-82q0 -412 -152 -599.5t-477 -187.5zM686 307h21q67 0 112 30.5t69 93t33 139.5t9 188v82q0 88 -5.5 153.5t-20 123.5t-39.5 94.5t-64.5 57.5t-93.5 21h-21q-54 0 -93.5 -21
t-64.5 -57.5t-39.5 -94.5t-20 -123.5t-5.5 -153.5v-82q0 -111 9 -188t33 -139.5t69 -93t112 -30.5z" />
    <glyph glyph-name="P" unicode="P" horiz-adv-x="1269" 
d="M492 549v-549h-390v1597h551q64 0 117.5 -4.5t114.5 -18t108.5 -36t93 -61t76 -90t48.5 -126.5t18 -167v-41q0 -92 -18 -167t-48.5 -126.5t-76 -90t-93 -61.5t-108.5 -36.5t-114.5 -18t-117.5 -4.5h-161zM492 885h178q166 0 166 180v16q0 181 -166 181h-178v-377z" />
    <glyph glyph-name="Q" unicode="Q" horiz-adv-x="1392" 
d="M696 -29q-325 0 -476.5 187.5t-151.5 599.5v82q0 412 151.5 599t476.5 187t477 -187t152 -599v-82q0 -287 -73 -463t-224 -256l98 -244h-297l-69 178q-10 0 -32 -1t-32 -1zM819 559l60 -149q51 102 51 348v82q0 88 -5.5 153.5t-20 123.5t-39.5 94.5t-64.5 57.5t-93.5 21
h-21q-54 0 -93.5 -21t-64.5 -57.5t-39.5 -94.5t-20 -123.5t-5.5 -153.5v-82q0 -201 35 -310.5t129 -134.5l-95 246h287z" />
    <glyph glyph-name="R" unicode="R" horiz-adv-x="1300" 
d="M492 549v-549h-390v1597h551q64 0 117.5 -4.5t114.5 -18t108.5 -36t93 -61t76 -90t48.5 -126.5t18 -167v-41q0 -341 -246 -451l246 -602h-420l-209 549h-108zM492 885h178q166 0 166 180v16q0 181 -166 181h-178v-377z" />
    <glyph glyph-name="S" unicode="S" horiz-adv-x="1310" 
d="M596 641q-136 18 -229.5 49.5t-162 86t-100.5 137t-32 198.5v23q0 228 150 359.5t433 131.5q303 0 443.5 -134.5t140.5 -424.5v-43h-389q0 138 -45 202t-150 64h-20q-82 0 -125 -40.5t-43 -104.5v-8q0 -53 16.5 -83.5t71.5 -54.5t160 -38q136 -18 231 -49.5t165.5 -86
t104 -137.5t33.5 -199v-22q0 -237 -152 -366.5t-442 -129.5q-298 0 -446 134.5t-148 429.5v18h390q0 -131 46.5 -188.5t147.5 -57.5h21q94 0 141 43t47 107v8q0 75 -52.5 115t-205.5 61z" />
    <glyph glyph-name="T" unicode="T" horiz-adv-x="1167" 
d="M778 1262v-1262h-389v1262h-358v335h1106v-335h-359z" />
    <glyph glyph-name="U" unicode="U" horiz-adv-x="1372" 
d="M686 -29q-114 0 -204.5 16t-155.5 48.5t-110.5 77.5t-72.5 106.5t-39 131.5t-12 157v1089h389v-1079q0 -51 8.5 -87t30 -65.5t63 -44t103.5 -14.5t103.5 14.5t63 44t30 65.5t8.5 87v1079h389v-1089q0 -87 -12 -157t-39 -131.5t-72.5 -106.5t-110.5 -77.5t-155.5 -48.5
t-204.5 -16z" />
    <glyph glyph-name="V" unicode="V" horiz-adv-x="1331" 
d="M932 0h-533l-381 1597h416l232 -1146l229 1146h418z" />
    <glyph glyph-name="W" unicode="W" horiz-adv-x="1945" 
d="M1171 0l-198 1151l-201 -1151h-493l-254 1597h405l123 -1060l180 1060h479l181 -1060l123 1060h405l-254 -1597h-496z" />
    <glyph glyph-name="X" unicode="X" horiz-adv-x="1351" 
d="M31 0l368 846l-368 751h450l195 -487l194 487h451l-371 -751l371 -846h-430l-215 543l-215 -543h-430z" />
    <glyph glyph-name="Y" unicode="Y" horiz-adv-x="1310" 
d="M850 492v-492h-389v492l-453 1105h426l221 -626l222 626h426z" />
    <glyph glyph-name="Z" unicode="Z" horiz-adv-x="1249" 
d="M82 266l590 1004l-303 -8h-267v335h1045v-266l-590 -1003l303 8h307v-336h-1085v266z" />
    <glyph glyph-name="bracketleft" unicode="[" horiz-adv-x="778" 
d="M113 1720h604v-327h-228v-1311h228v-328h-604v1966z" />
    <glyph glyph-name="backslash" unicode="\" horiz-adv-x="897" 
d="M502 -246l-471 1966h368l471 -1966h-368z" />
    <glyph glyph-name="bracketright" unicode="]" horiz-adv-x="778" 
d="M666 -246h-605v328h228v1311h-228v327h605v-1966z" />
    <glyph glyph-name="asciicircum" unicode="^" horiz-adv-x="1228" 
d="M799 1597l401 -1065h-373l-213 613l-213 -613h-372l401 1065h369z" />
    <glyph glyph-name="underscore" unicode="_" horiz-adv-x="655" 
d="M82 -410v328h491v-328h-491z" />
    <glyph glyph-name="grave" unicode="`" horiz-adv-x="1024" 
d="M98 1597h414l186 -389h-372z" />
    <glyph glyph-name="a" unicode="a" horiz-adv-x="1146" 
d="M737 0l-20 102q-124 -131 -328 -131q-92 0 -160 27.5t-105.5 76t-55 106t-17.5 126.5v21q0 86 27.5 148.5t83 102.5t124 63t165.5 38l229 37q-3 60 -30 87t-87 27q-63 0 -90 -29.5t-27 -74.5h-354v18q0 78 24 141.5t77 116t149.5 82t230.5 29.5q137 0 231.5 -27
t149.5 -82t79 -130t24 -179v-389l20 -307h-340zM532 274q84 0 148 60v166l-148 -23q-61 -10 -83.5 -35.5t-22.5 -66.5v-13q0 -37 26 -62.5t80 -25.5z" />
    <glyph glyph-name="b" unicode="b" horiz-adv-x="1198" 
d="M477 1638v-634q102 110 271 110q109 0 187.5 -37.5t124 -109.5t66.5 -166t21 -217v-82q0 -98 -13 -177.5t-42 -146t-75 -112t-113.5 -70.5t-155.5 -25q-202 0 -306 154l-22 -125h-340l20 307v1331h377zM477 707v-328q20 -31 61.5 -57.5t96.5 -26.5q74 0 105.5 51.5
t31.5 155.5v82q0 104 -31.5 155.5t-105.5 51.5q-55 0 -96.5 -26.5t-61.5 -57.5z" />
    <glyph glyph-name="c" unicode="c" horiz-adv-x="1081" 
d="M426 502q0 -104 31 -155.5t104 -51.5q56 0 87.5 30.5t31.5 84.5h354v-50q0 -182 -124 -285.5t-357 -103.5q-171 0 -285 67.5t-165.5 184.5t-51.5 279v82q0 121 29.5 217t89.5 166.5t157 108.5t226 38q234 0 357.5 -107t123.5 -302v-50h-354q0 136 -119 136
q-73 0 -104 -51.5t-31 -155.5v-82z" />
    <glyph glyph-name="d" unicode="d" horiz-adv-x="1218" 
d="M469 1114q168 0 270 -110v634h377v-1331l21 -307h-340l-25 125q-104 -154 -303 -154q-88 0 -155.5 25t-113.5 70.5t-75 112t-42 146t-13 177.5v82q0 123 21 217t66.5 166t124 109.5t187.5 37.5zM739 379v328q-20 31 -61 57.5t-96 26.5q-74 0 -106 -51.5t-32 -155.5v-82
q0 -104 32 -155.5t106 -51.5q55 0 96 26.5t61 57.5z" />
    <glyph glyph-name="e" unicode="e" horiz-adv-x="1146" 
d="M1096 410h-668q9 -87 50.5 -121.5t117.5 -34.5q61 0 103 27.5t42 66.5h355v-8q0 -165 -134.5 -267t-367.5 -102q-136 0 -241 39.5t-170.5 112t-98.5 170.5t-33 219v61q0 245 137.5 393t393.5 148q254 0 384 -147t130 -394v-163zM573 831q-68 0 -103 -35.5t-42 -119.5h291
q-7 84 -42.5 119.5t-103.5 35.5z" />
    <glyph glyph-name="f" unicode="f" horiz-adv-x="860" 
d="M571 1198v-113h220v-327h-220v-758h-376v758h-164v327h164v154q0 227 113.5 327.5t320.5 100.5q130 0 182 -29v-307q-8 3 -39.5 7.5t-54.5 4.5q-73 0 -109.5 -29.5t-36.5 -115.5z" />
    <glyph glyph-name="g" unicode="g" horiz-adv-x="1198" 
d="M721 31v104q-99 -102 -270 -102q-400 0 -400 510v61q0 114 22.5 205.5t69.5 160.5t125 106.5t183 37.5q201 0 305 -147l22 118h340l-20 -307v-747q0 -237 -131 -353t-394 -116q-137 0 -236.5 29.5t-156 84t-82.5 122.5t-26 153v49h354q0 -62 30 -98.5t109 -36.5
q80 0 118 35.5t38 130.5zM721 440v267q-20 31 -61.5 57.5t-96.5 26.5q-67 0 -102 -50t-35 -137v-61q0 -98 33.5 -142.5t103.5 -44.5q55 0 96.5 26.5t61.5 57.5z" />
    <glyph glyph-name="h" unicode="h" horiz-adv-x="1218" 
d="M479 1638v-649q115 125 312 125q92 0 160 -32.5t105 -89t54.5 -122.5t17.5 -143v-727h-376v666q0 125 -115 125q-55 0 -96.5 -26.5t-61.5 -57.5v-707h-377v1638h377z" />
    <glyph glyph-name="i" unicode="i" horiz-adv-x="573" 
d="M98 0v1085h377v-1085h-377zM481 1597v-389h-389v389h389z" />
    <glyph glyph-name="j" unicode="j" horiz-adv-x="573" 
d="M98 31v1054h377v-1095q0 -227 -113.5 -327.5t-320.5 -100.5q-132 0 -182 28v308q9 -4 40 -8.5t54 -4.5q72 0 108.5 30t36.5 116zM481 1597v-389h-389v389h389z" />
    <glyph glyph-name="k" unicode="k" horiz-adv-x="1187" 
d="M92 0v1638h377v-856l238 303h450l-356 -411l356 -674h-440l-176 373l-72 -84v-289h-377z" />
    <glyph glyph-name="l" unicode="l" horiz-adv-x="573" 
d="M98 0v1638h377v-1638h-377z" />
    <glyph glyph-name="m" unicode="m" horiz-adv-x="1802" 
d="M1712 0h-377v676q0 115 -104 115q-87 0 -135 -74v-717h-377v676q0 115 -105 115q-87 0 -135 -74v-717h-377v778l-20 307h340l22 -124q113 153 324 153q202 0 285 -166q112 166 331 166q86 0 150.5 -29.5t102.5 -82.5t56.5 -119.5t18.5 -145.5v-737z" />
    <glyph glyph-name="n" unicode="n" horiz-adv-x="1218" 
d="M1128 0h-376v666q0 125 -115 125q-55 0 -96.5 -26.5t-61.5 -57.5v-707h-377v778l-20 307h340l24 -135q123 164 345 164q92 0 160 -32.5t105 -89t54.5 -122.5t17.5 -143v-727z" />
    <glyph glyph-name="o" unicode="o" horiz-adv-x="1146" 
d="M573 -29q-260 0 -391 142t-131 389v82q0 247 131 388.5t391 141.5t391.5 -142t131.5 -388v-82q0 -247 -131.5 -389t-391.5 -142zM573 295q148 0 148 207v82q0 207 -148 207q-147 0 -147 -207v-82q0 -207 147 -207z" />
    <glyph glyph-name="p" unicode="p" horiz-adv-x="1198" 
d="M748 -29q-171 0 -271 111v-492h-377v1188l-20 307h340l22 -127q103 156 306 156q109 0 187.5 -37.5t124 -109.5t66.5 -166t21 -217v-82q0 -98 -13 -177.5t-42 -146t-75 -112t-113.5 -70.5t-155.5 -25zM477 707v-328q20 -31 61.5 -57.5t96.5 -26.5q74 0 105.5 51.5
t31.5 155.5v82q0 104 -31.5 155.5t-105.5 51.5q-55 0 -96.5 -26.5t-61.5 -57.5z" />
    <glyph glyph-name="q" unicode="q" horiz-adv-x="1214" 
d="M727 -410v492q-100 -111 -270 -111q-88 0 -155.5 25t-113.5 70.5t-75.5 112t-42.5 146t-13 177.5v82q0 123 21 217.5t67 166t124.5 109t187.5 37.5q200 0 303 -156l24 127h340l-20 -307v-1188h-377zM569 295q55 0 96.5 26.5t61.5 57.5v328q-20 31 -61.5 57.5t-96.5 26.5
q-74 0 -105.5 -51.5t-31.5 -155.5v-82q0 -104 31.5 -155.5t105.5 -51.5z" />
    <glyph glyph-name="r" unicode="r" horiz-adv-x="819" 
d="M729 1114q21 0 31 -2v-385h-62q-84 0 -140 -22t-79 -50v-655h-377v778l-20 307h340l22 -120q109 149 285 149z" />
    <glyph glyph-name="s" unicode="s" horiz-adv-x="1085" 
d="M543 254q108 0 108 80q0 37 -25.5 56.5t-97.5 25.5q-122 10 -203.5 28.5t-140.5 54t-85.5 90.5t-26.5 136v20q0 78 24.5 141t67 105t102.5 70t128.5 40.5t148.5 12.5q471 0 471 -377v-10h-369q0 104 -102 104q-50 0 -76.5 -20t-26.5 -53q0 -39 25 -55.5t94 -22.5
q91 -8 154.5 -18t127 -32t102 -54t62 -83.5t23.5 -121.5v-21q0 -182 -122 -280.5t-363 -98.5q-235 0 -360.5 97.5t-125.5 269.5v10h375q0 -94 111 -94z" />
    <glyph glyph-name="t" unicode="t" horiz-adv-x="901" 
d="M571 1085h260v-327h-260v-318q0 -86 36.5 -115.5t109.5 -29.5q23 0 54.5 4.5t39.5 7.5v-307q-52 -29 -182 -29q-207 0 -320.5 100.5t-113.5 327.5v359h-164v327h164v308h376v-308z" />
    <glyph glyph-name="u" unicode="u" horiz-adv-x="1218" 
d="M90 1085h377v-665q0 -125 115 -125q55 0 96 26.5t61 57.5v706h377v-778l21 -307h-340l-27 133q-118 -162 -342 -162q-92 0 -160 32.5t-105.5 89t-55 122.5t-17.5 143v727z" />
    <glyph glyph-name="v" unicode="v" horiz-adv-x="1146" 
d="M307 0l-297 1085h389l174 -788l175 788h389l-297 -1085h-533z" />
    <glyph glyph-name="w" unicode="w" horiz-adv-x="1597" 
d="M799 696l-123 -696h-471l-174 1085h368l52 -675l122 675h451l123 -675l51 675h369l-174 -1085h-471z" />
    <glyph glyph-name="x" unicode="x" horiz-adv-x="1187" 
d="M31 1085h434l129 -344l129 344h434l-264 -522l264 -563h-422l-141 352l-141 -352h-422l262 563z" />
    <glyph glyph-name="y" unicode="y" horiz-adv-x="1167" 
d="M584 451l174 634h409l-379 -1024l-135 -471h-450l176 471l-379 1024h410z" />
    <glyph glyph-name="z" unicode="z" horiz-adv-x="1044" 
d="M41 258l446 508l-221 -8h-205v327h922v-258l-446 -508l221 9h246v-328h-963v258z" />
    <glyph glyph-name="braceleft" unicode="{" horiz-adv-x="778" 
d="M717 1720v-327q-75 0 -110.5 -39.5t-35.5 -124.5v-246q0 -175 -127 -246q127 -74 127 -245v-246q0 -85 35.5 -124.5t110.5 -39.5v-328h-62q-226 0 -343 91t-117 298v267q0 84 -35.5 123.5t-110.5 39.5v328q75 0 110.5 39.5t35.5 124.5v266q0 207 117 298t343 91h62z" />
    <glyph glyph-name="bar" unicode="|" horiz-adv-x="573" 
d="M102 -246v1966h369v-1966h-369z" />
    <glyph glyph-name="braceright" unicode="}" horiz-adv-x="778" 
d="M61 -246v328q75 0 110.5 39.5t35.5 124.5v246q0 170 125 245q-125 72 -125 246v246q0 85 -35.5 124.5t-110.5 39.5v327h62q226 0 343.5 -91t117.5 -298v-266q0 -85 35 -124.5t110 -39.5v-328q-72 0 -107 -36t-38 -111v-283q0 -207 -117.5 -298t-343.5 -91h-62z" />
    <glyph glyph-name="asciitilde" unicode="~" horiz-adv-x="1228" 
d="M381 1008q71 0 139.5 -20.5t112.5 -45t97.5 -45t98.5 -20.5q96 0 175 94l174 -174q-58 -93 -142.5 -150t-187.5 -57q-71 0 -139.5 20.5t-113 45t-98 45t-98.5 20.5q-95 0 -174 -94l-174 174q58 93 142.5 150t187.5 57z" />
    <glyph glyph-name="nbspace" unicode="&#xa0;" horiz-adv-x="409" 
 />
    <glyph glyph-name="exclamdown" unicode="&#xa1;" horiz-adv-x="573" 
d="M522 -410h-471l103 1004h266zM92 696v389h389v-389h-389z" />
    <glyph glyph-name="cent" unicode="&#xa2;" horiz-adv-x="1228" 
d="M1163 948h-372q3 221 -152 221h-16q-95 0 -134.5 -87.5t-39.5 -243.5v-78q0 -102 14.5 -172t54.5 -115t105 -45h16q70 0 108.5 50t40.5 132h375v-35q0 -475 -538 -475h-43l-54 -223h-286l69 295q-245 140 -245 586v82q0 331 135.5 495t423.5 164h4l53 221h287l-64 -266
q130 -52 194 -158t64 -284v-64z" />
    <glyph glyph-name="sterling" unicode="&#xa3;" horiz-adv-x="1228" 
d="M655 1294q-100 0 -100 -127q0 -106 45 -266h344v-328h-260q29 -152 35 -241h428v-332h-1065v332h305q-17 108 -61 241h-244v328h133q-41 144 -41 297q0 63 13 120.5t46.5 115t86 99t138.5 67.5t197 26q266 0 379 -133t113 -430v-39h-381q0 135 -26.5 202.5t-84.5 67.5z
" />
    <glyph glyph-name="yen" unicode="&#xa5;" horiz-adv-x="1228" 
d="M82 655v328h172l-246 614h426l180 -614l181 614h426l-248 -614h174v-328h-305l-33 -82h338v-327h-338v-246h-389v246h-338v327h338l-33 82h-305z" />
    <glyph glyph-name="brokenbar" unicode="&#xa6;" horiz-adv-x="573" 
d="M102 778v942h369v-942h-369zM102 -246v942h369v-942h-369z" />
    <glyph glyph-name="section" unicode="&#xa7;" horiz-adv-x="1146" 
d="M1090 807q0 -176 -136 -258q60 -75 60 -189v-20q0 -78 -24.5 -141t-67 -105t-102.5 -70t-128.5 -40.5t-148.5 -12.5q-471 0 -471 377v10h368q0 -50 26 -77t77 -27q49 0 75.5 20.5t26.5 53.5q0 88 -119 98q-88 7 -154 19.5t-128 37.5t-101 61t-62.5 93t-23.5 133v21
q0 176 133 256q-57 79 -57 190v20q0 78 24.5 141t67 105t102.5 70t128.5 40.5t148.5 12.5q471 0 471 -377v-10h-368q0 50 -26 77t-77 27q-50 0 -76 -20t-26 -53q0 -89 119 -99q88 -7 154 -19.5t128 -37.5t101 -61t62.5 -93t23.5 -133v-20zM573 909h-16q-64 -3 -93.5 -33
t-29.5 -77q0 -48 29.5 -78t93.5 -33h16q72 0 106 30.5t34 80.5t-34 80t-106 30z" />
    <glyph glyph-name="dieresis" unicode="&#xa8;" horiz-adv-x="1024" 
d="M471 1597v-389h-389v389h389zM942 1597v-389h-389v389h389z" />
    <glyph glyph-name="copyright" unicode="&#xa9;" horiz-adv-x="1884" 
d="M115 799q0 168 65.5 321.5t176 264t264 176t321.5 65.5t321.5 -65.5t264 -176t176 -264t65.5 -321.5t-65.5 -321.5t-176 -264.5t-264 -176.5t-321.5 -65.5t-321.5 65.5t-264 176.5t-176 264.5t-65.5 321.5zM238 799q0 -143 55.5 -273.5t150 -225t225 -150.5t273.5 -56
q191 0 353.5 94.5t257 257t94.5 353.5q0 143 -56 273.5t-150.5 225t-225 150t-273.5 55.5t-273.5 -55.5t-225 -150t-150 -225t-55.5 -273.5zM950 578q50 0 78.5 26.5t28.5 75.5h317v-45q0 -163 -111.5 -255.5t-320.5 -92.5q-227 0 -337.5 126t-110.5 349v74q0 223 110.5 349
t337.5 126q210 0 321 -96t111 -271v-45h-317q0 121 -107 121q-65 0 -93 -45.5t-28 -138.5v-74q0 -93 28 -138.5t93 -45.5z" />
    <glyph glyph-name="ordfeminine" unicode="&#xaa;" horiz-adv-x="901" 
d="M559 793l-14 69q-89 -92 -236 -92q-73 0 -125.5 21.5t-80 59t-40 81t-12.5 96.5v14q0 126 75.5 186t231.5 83l152 24q-6 49 -59 49q-32 0 -47 -14.5t-15 -34.5h-307v15q0 126 88 201t289 75q211 0 296 -76.5t85 -238.5v-289l16 -229h-297zM76 352v281h774v-281h-774z
M434 1030q39 0 78 27v96l-80 -12q-55 -8 -55 -56v-6q0 -49 57 -49z" />
    <glyph glyph-name="guillemotleft" unicode="&#xab;" horiz-adv-x="1187" 
d="M553 1178v-328l-199 -154l199 -153v-328l-451 297v369zM1085 1178v-328l-198 -154l198 -153v-328l-450 297v369z" />
    <glyph glyph-name="logicalnot" unicode="&#xac;" horiz-adv-x="1228" 
d="M82 856v336h1065v-807h-336v471h-729z" />
    <glyph glyph-name="uni00AD" unicode="&#xad;" horiz-adv-x="737" 
d="M82 553v328h573v-328h-573z" />
    <glyph glyph-name="registered" unicode="&#xae;" horiz-adv-x="675" 
d="M33 1362q0 126 89.5 215.5t215.5 89.5t215.5 -89.5t89.5 -215.5t-89.5 -215.5t-215.5 -89.5t-215.5 89.5t-89.5 215.5zM82 1362q0 -106 75 -181t181 -75t181 75t75 181t-75 181t-181 75t-181 -75t-75 -181zM502 1409q0 -78 -58 -106l58 -117h-131l-39 102h-33v-102h-125
v352h199q129 0 129 -121v-8zM377 1415q0 33 -33 33h-45v-70h45q33 0 33 33v4z" />
    <glyph glyph-name="macron" unicode="&#xaf;" horiz-adv-x="1024" 
d="M184 1239v328h656v-328h-656z" />
    <glyph glyph-name="degree" unicode="&#xb0;" horiz-adv-x="819" 
d="M524 1280v10q0 50 -31.5 80.5t-78.5 30.5h-8q-47 0 -79 -30.5t-32 -80.5v-10q0 -50 32 -80.5t79 -30.5h8q47 0 78.5 30.5t31.5 80.5zM748 1290v-10q0 -153 -95 -244.5t-243 -91.5t-243 91.5t-95 244.5v10q0 153 95 244.5t243 91.5t243 -91.5t95 -244.5z" />
    <glyph glyph-name="plusminus" unicode="&#xb1;" horiz-adv-x="1228" 
d="M446 1393h336v-201h365v-336h-365v-201h-336v201h-364v336h364v201zM82 262v336h1065v-336h-1065z" />
    <glyph glyph-name="twosuperior" unicode="&#xb2;" 
d="M584 1030v-231h-553v170l264 307q20 23 20 47v57q0 14 -14 14t-14 -14v-49h-256v17q0 137 68.5 201.5t207.5 64.5q67 0 118 -17t80.5 -41.5t48 -58t24.5 -61.5t6 -56v-24q0 -65 -19.5 -110t-66.5 -99l-103 -117h189z" />
    <glyph glyph-name="threesuperior" unicode="&#xb3;" 
d="M295 1055v-39q0 -14 14.5 -14t14.5 14v45q0 29 -27 29h-92v217h86q24 0 24 20v53q0 14 -14 14t-14 -14v-49h-256v17q0 137 68.5 201.5t207.5 64.5q66 0 117.5 -16t81 -39.5t48 -54t24.5 -55.5t6 -48v-23q0 -60 -23 -105t-63 -65q40 -21 65 -66.5t25 -107.5v-22
q0 -25 -6 -51.5t-24.5 -60t-47.5 -59.5t-82 -43.5t-121 -17.5q-138 0 -210 65t-72 191v19h270z" />
    <glyph glyph-name="acute" unicode="&#xb4;" horiz-adv-x="1024" 
d="M512 1597h414l-228 -389h-372z" />
    <glyph glyph-name="paragraph" unicode="&#xb6;" horiz-adv-x="1146" 
d="M655 0v549h-39q-64 0 -117.5 4.5t-114 18t-108.5 36.5t-93.5 61.5t-75.5 90t-48 126.5t-18 167v41q0 92 18 167t48 126.5t75.5 90t93.5 61t108.5 36t114 18t117.5 4.5h428v-1597h-389z" />
    <glyph glyph-name="periodcentered" unicode="&#xb7;" horiz-adv-x="573" 
d="M481 911v-389h-389v389h389z" />
    <glyph glyph-name="cedilla" unicode="&#xb8;" horiz-adv-x="1232" 
d="M289 -389l55 141q58 -35 143 -35q91 0 91 45q0 23 -20.5 34t-70.5 11q-17 0 -37.5 -2.5t-31.5 -4.5l-12 -3l-29 60l57 143h164l-31 -76q93 -8 149 -53t56 -127q0 -186 -256 -186q-74 0 -135 16t-92 37z" />
    <glyph glyph-name="onesuperior" unicode="&#xb9;" 
d="M588 799h-543v231h137v242l-55 -37l-131 190l246 168h211v-563h135v-231z" />
    <glyph glyph-name="ordmasculine" unicode="&#xba;" horiz-adv-x="921" 
d="M461 770q-202 0 -303 104.5t-101 290.5v68q0 186 101 290.5t303 104.5q200 0 301.5 -105t101.5 -290v-68q0 -185 -101.5 -290t-301.5 -105zM78 352v281h766v-281h-766zM461 1051q41 0 59.5 27.5t18.5 86.5v68q0 59 -18.5 87t-59.5 28t-59.5 -28t-18.5 -87v-68
q0 -59 18.5 -86.5t59.5 -27.5z" />
    <glyph glyph-name="guillemotright" unicode="&#xbb;" horiz-adv-x="1187" 
d="M635 850v328l450 -297v-369l-450 -297v328l199 153zM102 850v328l451 -297v-369l-451 -297v328l199 153z" />
    <glyph glyph-name="onequarter" unicode="&#xbc;" horiz-adv-x="1638" 
d="M588 799h-543v231h137v242l-55 -37l-131 190l246 168h211v-563h135v-231zM383 0h-307l1179 1597h308zM1585 0h-270v129h-271v190l285 480h256v-437h33v-233h-33v-129zM1270 358h45l4 82z" />
    <glyph glyph-name="onehalf" unicode="&#xbd;" horiz-adv-x="1638" 
d="M588 799h-543v231h137v242l-55 -37l-131 190l246 168h211v-563h135v-231zM383 0h-307l1179 1597h308zM1608 231v-231h-553v170l264 307q20 23 20 47v58q0 14 -14 14t-14 -14v-50h-256v17q0 137 68.5 201.5t207.5 64.5q67 0 118 -16.5t80.5 -41.5t48 -58t24.5 -61t6 -56
v-25q0 -65 -19.5 -110t-66.5 -99l-103 -117h189z" />
    <glyph glyph-name="threequarters" unicode="&#xbe;" horiz-adv-x="1638" 
d="M295 1055v-39q0 -14 14.5 -14t14.5 14v45q0 29 -27 29h-92v217h86q24 0 24 20v53q0 14 -14 14t-14 -14v-49h-256v17q0 137 68.5 201.5t207.5 64.5q66 0 117.5 -16t81 -39.5t48 -54t24.5 -55.5t6 -48v-23q0 -60 -23 -105t-63 -65q40 -21 65 -66.5t25 -107.5v-22
q0 -25 -6 -51.5t-24.5 -60t-47.5 -59.5t-82 -43.5t-121 -17.5q-138 0 -210 65t-72 191v19h270zM383 0h-307l1179 1597h308zM1585 0h-270v129h-271v190l285 480h256v-437h33v-233h-33v-129zM1270 358h45l4 82z" />
    <glyph glyph-name="questiondown" unicode="&#xbf;" horiz-adv-x="1044" 
d="M512 -106q61 0 86 50t25 179h381v-39q0 -269 -114 -395.5t-378 -126.5q-111 0 -197 23.5t-138.5 61t-86 89.5t-46.5 104t-13 109q0 80 18.5 143.5t49 105t67.5 76t75.5 66t71 65t56.5 81.5t30 108h267q9 -83 -14 -164.5t-62 -144t-79.5 -117.5t-69.5 -104.5t-29 -83.5
q0 -43 23 -64.5t77 -21.5zM338 696v389h389v-389h-389z" />
    <glyph glyph-name="Agrave" unicode="&#xc0;" horiz-adv-x="1331" 
d="M399 1597h533l381 -1597h-416l-66 324h-331l-64 -324h-418zM348 1946h395l109 -226h-373zM666 1147l-99 -488h197z" />
    <glyph glyph-name="Aacute" unicode="&#xc1;" horiz-adv-x="1331" 
d="M399 1597h533l381 -1597h-416l-66 324h-331l-64 -324h-418zM588 1946h395l-131 -226h-373zM666 1147l-99 -488h197z" />
    <glyph glyph-name="Acircumflex" unicode="&#xc2;" horiz-adv-x="1331" 
d="M399 1597h533l381 -1597h-416l-66 324h-331l-64 -324h-418zM543 1720h-338l266 226h389l266 -226h-338l-122 80zM666 1147l-99 -488h197z" />
    <glyph glyph-name="Atilde" unicode="&#xc3;" horiz-adv-x="1331" 
d="M399 1597h533l381 -1597h-416l-66 324h-331l-64 -324h-418zM870 1946h195q0 -136 -64 -197t-161 -61q-57 0 -119 23.5t-112.5 47t-80.5 23.5q-67 0 -67 -62h-195q0 136 64.5 197t161.5 61q57 0 118.5 -23.5t112 -47t80.5 -23.5q67 0 67 62zM666 1147l-99 -488h197z" />
    <glyph glyph-name="Adieresis" unicode="&#xc4;" horiz-adv-x="1331" 
d="M399 1597h533l381 -1597h-416l-66 324h-331l-64 -324h-418zM635 1946v-226h-307v226h307zM1004 1946v-226h-308v226h308zM666 1147l-99 -488h197z" />
    <glyph glyph-name="Aring" unicode="&#xc5;" horiz-adv-x="1331" 
d="M442 1751q0 92 66 157.5t158 65.5t157.5 -65.5t65.5 -157.5q0 -89 -62 -154h105l381 -1597h-416l-66 324h-331l-64 -324h-418l381 1597h105q-62 62 -62 154zM666 1147l-99 -488h197zM565 1751q0 -41 30 -70.5t71 -29.5t70.5 29.5t29.5 70.5t-29.5 70.5t-70.5 29.5
t-71 -29.5t-30 -70.5z" />
    <glyph glyph-name="AE" unicode="&#xc6;" horiz-adv-x="1843" 
d="M555 1597h1206v-335h-628l36 -279h490v-336h-445l43 -311h504v-336h-874l-33 324h-330l-98 -324h-418zM774 1147l-147 -488h194z" />
    <glyph glyph-name="Ccedilla" unicode="&#xc7;" horiz-adv-x="1351" 
d="M483 -389l56 141q58 -35 143 -35q90 0 90 45q0 23 -20 34t-70 11q-17 0 -37.5 -2.5t-32.5 -4.5l-12 -3l-29 60l47 116q-288 19 -419 205.5t-131 579.5v82q0 414 147.5 600t470.5 186q302 0 448 -131t146 -432v-80h-389q0 59 -4.5 103t-16 84t-32 65.5t-53.5 40t-78 14.5
h-21q-57 0 -98 -21.5t-65 -56.5t-37.5 -95t-18 -123t-4.5 -154v-82q0 -91 4.5 -154t18 -123t37.5 -95.5t65 -57t98 -21.5h21q184 0 184 246h389v-18q0 -277 -123 -409t-375 -151l-20 -51q93 -8 149 -53t56 -127q0 -186 -256 -186q-74 0 -135.5 16t-92.5 37z" />
    <glyph glyph-name="Egrave" unicode="&#xc8;" horiz-adv-x="1187" 
d="M102 1597h1004v-335h-614v-279h512v-336h-512v-311h614v-336h-1004v1597zM287 1946h395l109 -226h-373z" />
    <glyph glyph-name="Eacute" unicode="&#xc9;" horiz-adv-x="1187" 
d="M102 1597h1004v-335h-614v-279h512v-336h-512v-311h614v-336h-1004v1597zM526 1946h396l-131 -226h-373z" />
    <glyph glyph-name="Ecircumflex" unicode="&#xca;" horiz-adv-x="1187" 
d="M102 1597h1004v-335h-614v-279h512v-336h-512v-311h614v-336h-1004v1597zM481 1720h-338l267 226h389l266 -226h-338l-123 80z" />
    <glyph glyph-name="Edieresis" unicode="&#xcb;" horiz-adv-x="1187" 
d="M102 1597h1004v-335h-614v-279h512v-336h-512v-311h614v-336h-1004v1597zM942 1946v-226h-307v226h307zM573 1946v-226h-307v226h307z" />
    <glyph glyph-name="Igrave" unicode="&#xcc;" 
d="M502 1597v-1597h-389v1597h389zM-10 1946h395l109 -226h-373z" />
    <glyph glyph-name="Iacute" unicode="&#xcd;" 
d="M502 1597v-1597h-389v1597h389zM229 1946h396l-131 -226h-373z" />
    <glyph glyph-name="Icircumflex" unicode="&#xce;" 
d="M502 1597v-1597h-389v1597h389zM184 1720h-338l267 226h389l266 -226h-338l-123 80z" />
    <glyph glyph-name="Idieresis" unicode="&#xcf;" 
d="M502 1597v-1597h-389v1597h389zM645 1946v-226h-307v226h307zM276 1946v-226h-307v226h307z" />
    <glyph glyph-name="Eth" unicode="&#xd0;" horiz-adv-x="1495" 
d="M20 676v287h205v634h512q191 0 320 -40t212.5 -131.5t120.5 -233.5t37 -352v-82q0 -279 -68.5 -443.5t-218 -239.5t-403.5 -75h-512v676h-205zM614 1262v-299h308v-287h-308v-340h103q98 0 161 26t96.5 83t45.5 129t12 184v82q0 111 -12 183.5t-45.5 129.5t-96.5 83
t-161 26h-103z" />
    <glyph glyph-name="Ntilde" unicode="&#xd1;" horiz-adv-x="1413" 
d="M1311 1597v-1597h-410l-440 881l10 -308v-573h-369v1597h410l440 -880l-10 307v573h369zM911 1946h195q0 -136 -64 -197t-161 -61q-57 0 -119 23.5t-112.5 47t-80.5 23.5q-67 0 -67 -62h-195q0 136 64 197t161 61q57 0 119 -23.5t112.5 -47t80.5 -23.5q67 0 67 62z" />
    <glyph glyph-name="Ograve" unicode="&#xd2;" horiz-adv-x="1392" 
d="M696 -29q-325 0 -476.5 187.5t-151.5 599.5v82q0 412 151.5 599t476.5 187t477 -187t152 -599v-82q0 -412 -152 -599.5t-477 -187.5zM686 307h21q67 0 112 30.5t69 93t33 139.5t9 188v82q0 88 -5.5 153.5t-20 123.5t-39.5 94.5t-64.5 57.5t-93.5 21h-21q-54 0 -93.5 -21
t-64.5 -57.5t-39.5 -94.5t-20 -123.5t-5.5 -153.5v-82q0 -111 9 -188t33 -139.5t69 -93t112 -30.5zM379 1946h395l109 -226h-373z" />
    <glyph glyph-name="Oacute" unicode="&#xd3;" horiz-adv-x="1392" 
d="M696 -29q-325 0 -476.5 187.5t-151.5 599.5v82q0 412 151.5 599t476.5 187t477 -187t152 -599v-82q0 -412 -152 -599.5t-477 -187.5zM686 307h21q67 0 112 30.5t69 93t33 139.5t9 188v82q0 88 -5.5 153.5t-20 123.5t-39.5 94.5t-64.5 57.5t-93.5 21h-21q-54 0 -93.5 -21
t-64.5 -57.5t-39.5 -94.5t-20 -123.5t-5.5 -153.5v-82q0 -111 9 -188t33 -139.5t69 -93t112 -30.5zM618 1946h396l-131 -226h-373z" />
    <glyph glyph-name="Ocircumflex" unicode="&#xd4;" horiz-adv-x="1392" 
d="M696 -29q-325 0 -476.5 187.5t-151.5 599.5v82q0 412 151.5 599t476.5 187t477 -187t152 -599v-82q0 -412 -152 -599.5t-477 -187.5zM686 307h21q67 0 112 30.5t69 93t33 139.5t9 188v82q0 88 -5.5 153.5t-20 123.5t-39.5 94.5t-64.5 57.5t-93.5 21h-21q-54 0 -93.5 -21
t-64.5 -57.5t-39.5 -94.5t-20 -123.5t-5.5 -153.5v-82q0 -111 9 -188t33 -139.5t69 -93t112 -30.5zM573 1720h-337l266 226h389l266 -226h-338l-123 80z" />
    <glyph glyph-name="Otilde" unicode="&#xd5;" horiz-adv-x="1392" 
d="M696 -29q-325 0 -476.5 187.5t-151.5 599.5v82q0 412 151.5 599t476.5 187t477 -187t152 -599v-82q0 -412 -152 -599.5t-477 -187.5zM686 307h21q67 0 112 30.5t69 93t33 139.5t9 188v82q0 88 -5.5 153.5t-20 123.5t-39.5 94.5t-64.5 57.5t-93.5 21h-21q-54 0 -93.5 -21
t-64.5 -57.5t-39.5 -94.5t-20 -123.5t-5.5 -153.5v-82q0 -111 9 -188t33 -139.5t69 -93t112 -30.5zM901 1946h195q0 -136 -64.5 -197t-161.5 -61q-57 0 -118.5 23.5t-112 47t-80.5 23.5q-67 0 -67 -62h-195q0 136 64 197t161 61q57 0 119 -23.5t112.5 -47t80.5 -23.5
q67 0 67 62z" />
    <glyph glyph-name="Odieresis" unicode="&#xd6;" horiz-adv-x="1392" 
d="M696 -29q-325 0 -476.5 187.5t-151.5 599.5v82q0 412 151.5 599t476.5 187t477 -187t152 -599v-82q0 -412 -152 -599.5t-477 -187.5zM686 307h21q67 0 112 30.5t69 93t33 139.5t9 188v82q0 88 -5.5 153.5t-20 123.5t-39.5 94.5t-64.5 57.5t-93.5 21h-21q-54 0 -93.5 -21
t-64.5 -57.5t-39.5 -94.5t-20 -123.5t-5.5 -153.5v-82q0 -111 9 -188t33 -139.5t69 -93t112 -30.5zM666 1946v-226h-308v226h308zM1034 1946v-226h-307v226h307z" />
    <glyph glyph-name="multiply" unicode="&#xd7;" horiz-adv-x="1228" 
d="M293 240l-238 237l322 322l-322 321l238 238l321 -322l322 322l238 -238l-322 -321l322 -322l-238 -237l-322 321z" />
    <glyph glyph-name="Oslash" unicode="&#xd8;" horiz-adv-x="1392" 
d="M68 840q0 412 151.5 599t476.5 187q225 0 365 -88l39 59h225l-127 -194q127 -188 127 -563v-82q0 -412 -152 -599.5t-477 -187.5q-223 0 -366 88l-37 -59h-225l125 195q-125 189 -125 563v82zM930 840q0 53 -4 139l-391 -604q55 -68 151 -68h21q67 0 112 30.5t69 93
t33 139.5t9 188v82zM463 758q0 -97 4 -140l389 603q-51 69 -149 69h-21q-54 0 -93.5 -21t-64.5 -57.5t-39.5 -94.5t-20 -123.5t-5.5 -153.5v-82z" />
    <glyph glyph-name="Ugrave" unicode="&#xd9;" horiz-adv-x="1372" 
d="M686 -29q-114 0 -204.5 16t-155.5 48.5t-110.5 77.5t-72.5 106.5t-39 131.5t-12 157v1089h389v-1079q0 -51 8.5 -87t30 -65.5t63 -44t103.5 -14.5t103.5 14.5t63 44t30 65.5t8.5 87v1079h389v-1089q0 -87 -12 -157t-39 -131.5t-72.5 -106.5t-110.5 -77.5t-155.5 -48.5
t-204.5 -16zM369 1946h395l108 -226h-372z" />
    <glyph glyph-name="Uacute" unicode="&#xda;" horiz-adv-x="1372" 
d="M686 -29q-114 0 -204.5 16t-155.5 48.5t-110.5 77.5t-72.5 106.5t-39 131.5t-12 157v1089h389v-1079q0 -51 8.5 -87t30 -65.5t63 -44t103.5 -14.5t103.5 14.5t63 44t30 65.5t8.5 87v1079h389v-1089q0 -87 -12 -157t-39 -131.5t-72.5 -106.5t-110.5 -77.5t-155.5 -48.5
t-204.5 -16zM608 1946h396l-132 -226h-372z" />
    <glyph glyph-name="Ucircumflex" unicode="&#xdb;" horiz-adv-x="1372" 
d="M686 -29q-114 0 -204.5 16t-155.5 48.5t-110.5 77.5t-72.5 106.5t-39 131.5t-12 157v1089h389v-1079q0 -51 8.5 -87t30 -65.5t63 -44t103.5 -14.5t103.5 14.5t63 44t30 65.5t8.5 87v1079h389v-1089q0 -87 -12 -157t-39 -131.5t-72.5 -106.5t-110.5 -77.5t-155.5 -48.5
t-204.5 -16zM563 1720h-338l267 226h389l266 -226h-338l-123 80z" />
    <glyph glyph-name="Udieresis" unicode="&#xdc;" horiz-adv-x="1372" 
d="M686 -29q-114 0 -204.5 16t-155.5 48.5t-110.5 77.5t-72.5 106.5t-39 131.5t-12 157v1089h389v-1079q0 -51 8.5 -87t30 -65.5t63 -44t103.5 -14.5t103.5 14.5t63 44t30 65.5t8.5 87v1079h389v-1089q0 -87 -12 -157t-39 -131.5t-72.5 -106.5t-110.5 -77.5t-155.5 -48.5
t-204.5 -16zM1024 1946v-226h-307v226h307zM655 1946v-226h-307v226h307z" />
    <glyph glyph-name="Yacute" unicode="&#xdd;" horiz-adv-x="1310" 
d="M850 492v-492h-389v492l-453 1105h426l221 -626l222 626h426zM578 1946h395l-131 -226h-373z" />
    <glyph glyph-name="Thorn" unicode="&#xde;" horiz-adv-x="1269" 
d="M492 1597v-274h161q64 0 117.5 -4.5t114.5 -18t108.5 -36.5t93 -61.5t76 -90t48.5 -126.5t18 -167v-41q0 -92 -18 -167t-48.5 -126.5t-76 -90t-93 -61.5t-108.5 -36.5t-114.5 -18t-117.5 -4.5h-161v-274h-390v1597h390zM492 610h178q166 0 166 181v16q0 180 -166 180
h-178v-377z" />
    <glyph glyph-name="germandbls" unicode="&#xdf;" horiz-adv-x="1331" 
d="M596 664v235q85 46 138.5 116t53.5 152q0 176 -159 176q-81 0 -121.5 -46.5t-40.5 -108.5v-1188h-377v1206q0 79 17.5 146t58 126t102 100t153.5 65t208 24q134 0 239.5 -38t168.5 -103.5t95.5 -146t32.5 -171.5v-22q0 -125 -47 -213t-139 -158l33 -22q282 -191 282 -433
v-20q0 -78 -19 -141.5t-62.5 -116.5t-122.5 -82t-189 -29q-89 0 -155.5 19t-107.5 50.5t-66 78.5t-34.5 97.5t-9.5 113.5v18h293q0 -94 49 -94q48 0 48 80q0 42 -28 93.5t-93 96.5z" />
    <glyph glyph-name="agrave" unicode="&#xe0;" horiz-adv-x="1146" 
d="M737 0l-20 102q-124 -131 -328 -131q-92 0 -160 27.5t-105.5 76t-55 106t-17.5 126.5v21q0 86 27.5 148.5t83 102.5t124 63t165.5 38l229 37q-3 60 -30 87t-87 27q-63 0 -90 -29.5t-27 -74.5h-354v18q0 78 24 141.5t77 116t149.5 82t230.5 29.5q137 0 231.5 -27
t149.5 -82t79 -130t24 -179v-389l20 -307h-340zM160 1597h413l187 -389h-373zM532 274q84 0 148 60v166l-148 -23q-61 -10 -83.5 -35.5t-22.5 -66.5v-13q0 -37 26 -62.5t80 -25.5z" />
    <glyph glyph-name="aacute" unicode="&#xe1;" horiz-adv-x="1146" 
d="M737 0l-20 102q-124 -131 -328 -131q-92 0 -160 27.5t-105.5 76t-55 106t-17.5 126.5v21q0 86 27.5 148.5t83 102.5t124 63t165.5 38l229 37q-3 60 -30 87t-87 27q-63 0 -90 -29.5t-27 -74.5h-354v18q0 78 24 141.5t77 116t149.5 82t230.5 29.5q137 0 231.5 -27
t149.5 -82t79 -130t24 -179v-389l20 -307h-340zM573 1597h414l-227 -389h-373zM532 274q84 0 148 60v166l-148 -23q-61 -10 -83.5 -35.5t-22.5 -66.5v-13q0 -37 26 -62.5t80 -25.5z" />
    <glyph glyph-name="acircumflex" unicode="&#xe2;" horiz-adv-x="1146" 
d="M737 0l-20 102q-124 -131 -328 -131q-92 0 -160 27.5t-105.5 76t-55 106t-17.5 126.5v21q0 86 27.5 148.5t83 102.5t124 63t165.5 38l229 37q-3 60 -30 87t-87 27q-63 0 -90 -29.5t-27 -74.5h-354v18q0 78 24 141.5t77 116t149.5 82t230.5 29.5q137 0 231.5 -27
t149.5 -82t79 -130t24 -179v-389l20 -307h-340zM440 1208h-327l276 389h369l276 -389h-327l-134 150zM532 274q84 0 148 60v166l-148 -23q-61 -10 -83.5 -35.5t-22.5 -66.5v-13q0 -37 26 -62.5t80 -25.5z" />
    <glyph glyph-name="atilde" unicode="&#xe3;" horiz-adv-x="1146" 
d="M737 0l-20 102q-124 -131 -328 -131q-92 0 -160 27.5t-105.5 76t-55 106t-17.5 126.5v21q0 86 27.5 148.5t83 102.5t124 63t165.5 38l229 37q-3 60 -30 87t-87 27q-63 0 -90 -29.5t-27 -74.5h-354v18q0 78 24 141.5t77 116t149.5 82t230.5 29.5q137 0 231.5 -27
t149.5 -82t79 -130t24 -179v-389l20 -307h-340zM768 1597h246q0 -182 -68.5 -271t-177.5 -89q-57 0 -121.5 26t-119 52t-87.5 26q-61 0 -61 -71h-246q0 182 68.5 271t177.5 89q57 0 121.5 -26t119 -52t87.5 -26q61 0 61 71zM532 274q84 0 148 60v166l-148 -23
q-61 -10 -83.5 -35.5t-22.5 -66.5v-13q0 -37 26 -62.5t80 -25.5z" />
    <glyph glyph-name="adieresis" unicode="&#xe4;" horiz-adv-x="1146" 
d="M737 0l-20 102q-124 -131 -328 -131q-92 0 -160 27.5t-105.5 76t-55 106t-17.5 126.5v21q0 86 27.5 148.5t83 102.5t124 63t165.5 38l229 37q-3 60 -30 87t-87 27q-63 0 -90 -29.5t-27 -74.5h-354v18q0 78 24 141.5t77 116t149.5 82t230.5 29.5q137 0 231.5 -27
t149.5 -82t79 -130t24 -179v-389l20 -307h-340zM532 1597v-389h-389v389h389zM1004 1597v-389h-390v389h390zM532 274q84 0 148 60v166l-148 -23q-61 -10 -83.5 -35.5t-22.5 -66.5v-13q0 -37 26 -62.5t80 -25.5z" />
    <glyph glyph-name="aring" unicode="&#xe5;" horiz-adv-x="1146" 
d="M737 0l-20 102q-124 -131 -328 -131q-92 0 -160 27.5t-105.5 76t-55 106t-17.5 126.5v21q0 86 27.5 148.5t83 102.5t124 63t165.5 38l229 37q-3 60 -30 87t-87 27q-63 0 -90 -29.5t-27 -74.5h-354v18q0 78 24 141.5t77 116t149.5 82t230.5 29.5q137 0 231.5 -27
t149.5 -82t79 -130t24 -179v-389l20 -307h-340zM350 1403q0 92 65.5 157.5t157.5 65.5t158 -65.5t66 -157.5t-66 -157.5t-158 -65.5t-157.5 65.5t-65.5 157.5zM532 274q84 0 148 60v166l-148 -23q-61 -10 -83.5 -35.5t-22.5 -66.5v-13q0 -37 26 -62.5t80 -25.5zM473 1403
q0 -41 29.5 -70.5t70.5 -29.5t71 29.5t30 70.5t-30 70.5t-71 29.5t-70.5 -29.5t-29.5 -70.5z" />
    <glyph glyph-name="ae" unicode="&#xe6;" horiz-adv-x="1753" 
d="M1724 410h-667q9 -87 50.5 -121.5t117.5 -34.5q61 0 103 27.5t42 66.5h354v-8q0 -165 -134 -267t-367 -102q-260 0 -402 142q-83 -66 -187 -104t-214 -38q-100 0 -173.5 27.5t-115 76t-61 106t-19.5 126.5v21q0 86 28 148.5t84 102.5t125.5 63t166.5 38l225 35
q-3 61 -30 88.5t-87 27.5q-63 0 -90 -29.5t-27 -74.5h-354v18q0 78 24 141.5t77 116t149.5 82t230.5 29.5q231 0 330 -104q113 104 307 104q254 0 384 -147t130 -394v-163zM698 344q-18 68 -18 145l-145 -22q-62 -10 -85.5 -35.5t-23.5 -66.5v-13q0 -37 26 -62.5t80 -25.5
q53 0 99 25.5t67 54.5zM1202 831q-68 0 -103 -35.5t-42 -119.5h291q-7 84 -42.5 119.5t-103.5 35.5z" />
    <glyph glyph-name="ccedilla" unicode="&#xe7;" horiz-adv-x="1081" 
d="M330 -389l55 141q58 -35 143 -35q90 0 90 45q0 23 -20 34t-70 11q-17 0 -37.5 -2.5t-32.5 -4.5l-12 -3l-28 60l47 118q-210 24 -312 162t-102 365v82q0 121 29.5 217t89.5 166.5t157 108.5t226 38q234 0 357.5 -107t123.5 -302v-50h-354q0 136 -119 136q-73 0 -104 -51.5
t-31 -155.5v-82q0 -104 31 -155.5t104 -51.5q56 0 87.5 30.5t31.5 84.5h354v-50q0 -166 -104 -267t-301 -118l-21 -51q93 -8 149 -53t56 -127q0 -186 -256 -186q-74 0 -135 16t-92 37z" />
    <glyph glyph-name="egrave" unicode="&#xe8;" horiz-adv-x="1146" 
d="M1096 410h-668q9 -87 50.5 -121.5t117.5 -34.5q61 0 103 27.5t42 66.5h355v-8q0 -165 -134.5 -267t-367.5 -102q-136 0 -241 39.5t-170.5 112t-98.5 170.5t-33 219v61q0 245 137.5 393t393.5 148q254 0 384 -147t130 -394v-163zM168 1597h414l186 -389h-373zM573 831
q-68 0 -103 -35.5t-42 -119.5h291q-7 84 -42.5 119.5t-103.5 35.5z" />
    <glyph glyph-name="eacute" unicode="&#xe9;" horiz-adv-x="1146" 
d="M1096 410h-668q9 -87 50.5 -121.5t117.5 -34.5q61 0 103 27.5t42 66.5h355v-8q0 -165 -134.5 -267t-367.5 -102q-136 0 -241 39.5t-170.5 112t-98.5 170.5t-33 219v61q0 245 137.5 393t393.5 148q254 0 384 -147t130 -394v-163zM582 1597h413l-227 -389h-373zM573 831
q-68 0 -103 -35.5t-42 -119.5h291q-7 84 -42.5 119.5t-103.5 35.5z" />
    <glyph glyph-name="ecircumflex" unicode="&#xea;" horiz-adv-x="1146" 
d="M1096 410h-668q9 -87 50.5 -121.5t117.5 -34.5q61 0 103 27.5t42 66.5h355v-8q0 -165 -134.5 -267t-367.5 -102q-136 0 -241 39.5t-170.5 112t-98.5 170.5t-33 219v61q0 245 137.5 393t393.5 148q254 0 384 -147t130 -394v-163zM449 1208h-328l276 389h369l276 -389h-327
l-133 150zM573 831q-68 0 -103 -35.5t-42 -119.5h291q-7 84 -42.5 119.5t-103.5 35.5z" />
    <glyph glyph-name="edieresis" unicode="&#xeb;" horiz-adv-x="1146" 
d="M1096 410h-668q9 -87 50.5 -121.5t117.5 -34.5q61 0 103 27.5t42 66.5h355v-8q0 -165 -134.5 -267t-367.5 -102q-136 0 -241 39.5t-170.5 112t-98.5 170.5t-33 219v61q0 245 137.5 393t393.5 148q254 0 384 -147t130 -394v-163zM541 1597v-389h-389v389h389zM1012 1597
v-389h-389v389h389zM573 831q-68 0 -103 -35.5t-42 -119.5h291q-7 84 -42.5 119.5t-103.5 35.5z" />
    <glyph glyph-name="igrave" unicode="&#xec;" horiz-adv-x="573" 
d="M98 0v1085h377v-1085h-377zM-127 1597h414l186 -389h-373z" />
    <glyph glyph-name="iacute" unicode="&#xed;" horiz-adv-x="573" 
d="M98 0v1085h377v-1085h-377zM287 1597h413l-227 -389h-373z" />
    <glyph glyph-name="icircumflex" unicode="&#xee;" horiz-adv-x="573" 
d="M98 0v1085h377v-1085h-377zM154 1208h-328l276 389h369l277 -389h-328l-133 150z" />
    <glyph glyph-name="idieresis" unicode="&#xef;" horiz-adv-x="573" 
d="M98 0v1085h377v-1085h-377zM717 1597v-389h-389v389h389zM246 1597v-389h-389v389h389z" />
    <glyph glyph-name="eth" unicode="&#xf0;" horiz-adv-x="1146" 
d="M51 1331v336q385 -24 600 -137l250 137v-205l-86 -47q39 -39 70 -78q211 -282 211 -753v-82q0 -247 -131.5 -389t-391.5 -142t-391 142t-131 389v82q0 242 121 386t340 144q44 0 96 -10l-16 22q-47 53 -125 99l-365 -201v205l136 74q-92 19 -187 28zM573 295
q148 0 148 207v82q0 207 -148 207q-147 0 -147 -207v-82q0 -207 147 -207z" />
    <glyph glyph-name="ntilde" unicode="&#xf1;" horiz-adv-x="1218" 
d="M1128 0h-376v666q0 125 -115 125q-55 0 -96.5 -26.5t-61.5 -57.5v-707h-377v778l-20 307h340l24 -135q123 164 345 164q92 0 160 -32.5t105 -89t54.5 -122.5t17.5 -143v-727zM811 1597h246q0 -182 -68.5 -271t-177.5 -89q-57 0 -121.5 26t-119 52t-87.5 26q-61 0 -61 -71
h-246q0 182 68.5 271t177.5 89q57 0 121.5 -26t119 -52t87.5 -26q61 0 61 71z" />
    <glyph glyph-name="ograve" unicode="&#xf2;" horiz-adv-x="1146" 
d="M573 -29q-260 0 -391 142t-131 389v82q0 247 131 388.5t391 141.5t391.5 -142t131.5 -388v-82q0 -247 -131.5 -389t-391.5 -142zM160 1597h413l187 -389h-373zM573 295q148 0 148 207v82q0 207 -148 207q-147 0 -147 -207v-82q0 -207 147 -207z" />
    <glyph glyph-name="oacute" unicode="&#xf3;" horiz-adv-x="1146" 
d="M573 -29q-260 0 -391 142t-131 389v82q0 247 131 388.5t391 141.5t391.5 -142t131.5 -388v-82q0 -247 -131.5 -389t-391.5 -142zM573 1597h414l-227 -389h-373zM573 295q148 0 148 207v82q0 207 -148 207q-147 0 -147 -207v-82q0 -207 147 -207z" />
    <glyph glyph-name="ocircumflex" unicode="&#xf4;" horiz-adv-x="1146" 
d="M573 -29q-260 0 -391 142t-131 389v82q0 247 131 388.5t391 141.5t391.5 -142t131.5 -388v-82q0 -247 -131.5 -389t-391.5 -142zM440 1208h-327l276 389h369l276 -389h-327l-134 150zM573 295q148 0 148 207v82q0 207 -148 207q-147 0 -147 -207v-82q0 -207 147 -207z
" />
    <glyph glyph-name="otilde" unicode="&#xf5;" horiz-adv-x="1146" 
d="M573 -29q-260 0 -391 142t-131 389v82q0 247 131 388.5t391 141.5t391.5 -142t131.5 -388v-82q0 -247 -131.5 -389t-391.5 -142zM768 1597h246q0 -182 -68.5 -271t-177.5 -89q-57 0 -121.5 26t-119 52t-87.5 26q-61 0 -61 -71h-246q0 182 68.5 271t177.5 89
q57 0 121.5 -26t119 -52t87.5 -26q61 0 61 71zM573 295q148 0 148 207v82q0 207 -148 207q-147 0 -147 -207v-82q0 -207 147 -207z" />
    <glyph glyph-name="odieresis" unicode="&#xf6;" horiz-adv-x="1146" 
d="M573 -29q-260 0 -391 142t-131 389v82q0 247 131 388.5t391 141.5t391.5 -142t131.5 -388v-82q0 -247 -131.5 -389t-391.5 -142zM1004 1597v-389h-390v389h390zM532 1597v-389h-389v389h389zM573 295q148 0 148 207v82q0 207 -148 207q-147 0 -147 -207v-82
q0 -207 147 -207z" />
    <glyph glyph-name="divide" unicode="&#xf7;" horiz-adv-x="1228" 
d="M82 631v336h1065v-336h-1065zM809 573v-389h-389v389h389zM809 1413v-389h-389v389h389z" />
    <glyph glyph-name="oslash" unicode="&#xf8;" horiz-adv-x="1146" 
d="M1096 1085l-111 -139q111 -135 111 -362v-82q0 -247 -131.5 -389t-391.5 -142q-180 0 -305 72l-35 -43h-184l111 139q-109 133 -109 363v82q0 247 131 388.5t391 141.5q176 0 304 -72l34 43h185zM721 584q0 20 -2 28l-232 -293q35 -24 86 -24q148 0 148 207v82zM426 475
l231 291q-36 25 -84 25q-147 0 -147 -207v-109z" />
    <glyph glyph-name="ugrave" unicode="&#xf9;" horiz-adv-x="1218" 
d="M90 1085h377v-665q0 -125 115 -125q55 0 96 26.5t61 57.5v706h377v-778l21 -307h-340l-27 133q-118 -162 -342 -162q-92 0 -160 32.5t-105.5 89t-55 122.5t-17.5 143v727zM188 1597h414l186 -389h-372z" />
    <glyph glyph-name="uacute" unicode="&#xfa;" horiz-adv-x="1218" 
d="M90 1085h377v-665q0 -125 115 -125q55 0 96 26.5t61 57.5v706h377v-778l21 -307h-340l-27 133q-118 -162 -342 -162q-92 0 -160 32.5t-105.5 89t-55 122.5t-17.5 143v727zM602 1597h414l-228 -389h-372z" />
    <glyph glyph-name="ucircumflex" unicode="&#xfb;" horiz-adv-x="1218" 
d="M90 1085h377v-665q0 -125 115 -125q55 0 96 26.5t61 57.5v706h377v-778l21 -307h-340l-27 133q-118 -162 -342 -162q-92 0 -160 32.5t-105.5 89t-55 122.5t-17.5 143v727zM469 1208h-328l277 389h368l277 -389h-328l-133 150z" />
    <glyph glyph-name="udieresis" unicode="&#xfc;" horiz-adv-x="1218" 
d="M90 1085h377v-665q0 -125 115 -125q55 0 96 26.5t61 57.5v706h377v-778l21 -307h-340l-27 133q-118 -162 -342 -162q-92 0 -160 32.5t-105.5 89t-55 122.5t-17.5 143v727zM1032 1597v-389h-389v389h389zM561 1597v-389h-389v389h389z" />
    <glyph glyph-name="yacute" unicode="&#xfd;" horiz-adv-x="1167" 
d="M584 451l174 634h409l-379 -1024l-135 -471h-450l176 471l-379 1024h410zM584 1597h413l-227 -389h-373z" />
    <glyph glyph-name="thorn" unicode="&#xfe;" horiz-adv-x="1198" 
d="M98 1638h377v-637q101 113 273 113q109 0 187.5 -37.5t124 -109.5t66.5 -166t21 -217v-82q0 -98 -13 -177.5t-42 -146t-75 -112t-113.5 -70.5t-155.5 -25q-175 0 -273 113v-494h-377v2048zM477 379q20 -31 61.5 -57.5t96.5 -26.5q74 0 105.5 51.5t31.5 155.5v82
q0 104 -31.5 155.5t-105.5 51.5q-55 0 -96.5 -26.5t-61.5 -57.5v-328z" />
    <glyph glyph-name="ydieresis" unicode="&#xff;" horiz-adv-x="1167" 
d="M584 451l174 634h409l-379 -1024l-135 -471h-450l176 471l-379 1024h410zM1014 1597v-389h-389v389h389zM543 1597v-389h-389v389h389z" />
    <glyph glyph-name="Amacron" unicode="&#x100;" horiz-adv-x="1331" 
d="M399 1597h533l381 -1597h-416l-66 324h-331l-64 -324h-418zM338 1720v226h655v-226h-655zM666 1147l-99 -488h197z" />
    <glyph glyph-name="amacron" unicode="&#x101;" horiz-adv-x="1146" 
d="M737 0l-20 102q-124 -131 -328 -131q-92 0 -160 27.5t-105.5 76t-55 106t-17.5 126.5v21q0 86 27.5 148.5t83 102.5t124 63t165.5 38l229 37q-3 60 -30 87t-87 27q-63 0 -90 -29.5t-27 -74.5h-354v18q0 78 24 141.5t77 116t149.5 82t230.5 29.5q137 0 231.5 -27
t149.5 -82t79 -130t24 -179v-389l20 -307h-340zM246 1239v328h655v-328h-655zM532 274q84 0 148 60v166l-148 -23q-61 -10 -83.5 -35.5t-22.5 -66.5v-13q0 -37 26 -62.5t80 -25.5z" />
    <glyph glyph-name="Abreve" unicode="&#x102;" horiz-adv-x="1331" 
d="M399 1597h533l381 -1597h-416l-66 324h-331l-64 -324h-418zM666 1688q-118 0 -200 20.5t-124 58t-59 80.5t-17 99h256q0 -62 144 -62q143 0 143 62h256q0 -56 -17 -99t-58.5 -80.5t-123.5 -58t-200 -20.5zM666 1147l-99 -488h197z" />
    <glyph glyph-name="abreve" unicode="&#x103;" horiz-adv-x="1146" 
d="M737 0l-20 102q-124 -131 -328 -131q-92 0 -160 27.5t-105.5 76t-55 106t-17.5 126.5v21q0 86 27.5 148.5t83 102.5t124 63t165.5 38l229 37q-3 60 -30 87t-87 27q-63 0 -90 -29.5t-27 -74.5h-354v18q0 78 24 141.5t77 116t149.5 82t230.5 29.5q137 0 231.5 -27
t149.5 -82t79 -130t24 -179v-389l20 -307h-340zM573 1180q-111 0 -190.5 31t-125 88t-65.5 131t-18 167h266q0 -77 36.5 -106t96.5 -29t97 29t37 106h266q2 -93 -18 -167t-65.5 -131t-125.5 -88t-191 -31zM532 274q84 0 148 60v166l-148 -23q-61 -10 -83.5 -35.5
t-22.5 -66.5v-13q0 -37 26 -62.5t80 -25.5z" />
    <glyph glyph-name="Aogonek" unicode="&#x104;" horiz-adv-x="1331" 
d="M1200 -119q0 -29 21.5 -47t56.5 -18q44 0 74 20l84 -225q-35 -22 -96 -37.5t-126 -15.5q-135 0 -212.5 57.5t-77.5 169.5q0 121 84 215h-111l-66 324h-331l-64 -324h-418l381 1597h533l381 -1597q-113 -51 -113 -119zM666 1147l-99 -488h197z" />
    <glyph glyph-name="aogonek" unicode="&#x105;" horiz-adv-x="1146" 
d="M532 274q84 0 148 60v166l-148 -23q-61 -10 -83.5 -35.5t-22.5 -66.5v-13q0 -37 26 -62.5t80 -25.5zM688 -215q0 100 55 180l-26 137q-124 -131 -328 -131q-92 0 -160 27.5t-105.5 76t-55 106t-17.5 126.5v21q0 86 27.5 148.5t83 102.5t124 63t165.5 38l229 37
q-3 60 -30 87t-87 27q-63 0 -90 -29.5t-27 -74.5h-354v18q0 78 24 141.5t77 116t149.5 82t230.5 29.5q137 0 231.5 -27t149.5 -82t79 -130t24 -179v-389l20 -307q-112 -50 -112 -119q0 -29 21 -47t56 -18q44 0 74 20l84 -225q-35 -22 -95.5 -37.5t-125.5 -15.5
q-135 0 -213 57.5t-78 169.5z" />
    <glyph glyph-name="Cacute" unicode="&#x106;" horiz-adv-x="1351" 
d="M463 758q0 -91 4.5 -154t18 -123t37.5 -95.5t65 -57t98 -21.5h21q184 0 184 246h389v-18q0 -301 -146 -432.5t-448 -131.5q-323 0 -470.5 186.5t-147.5 600.5v82q0 414 147.5 600t470.5 186q302 0 448 -131t146 -432v-80h-389q0 59 -4.5 103t-16 84t-32 65.5t-53.5 40
t-78 14.5h-21q-57 0 -98 -21.5t-65 -56.5t-37.5 -95t-18 -123t-4.5 -154v-82zM608 1946h396l-132 -226h-372z" />
    <glyph glyph-name="cacute" unicode="&#x107;" horiz-adv-x="1081" 
d="M426 502q0 -104 31 -155.5t104 -51.5q56 0 87.5 30.5t31.5 84.5h354v-50q0 -182 -124 -285.5t-357 -103.5q-171 0 -285 67.5t-165.5 184.5t-51.5 279v82q0 121 29.5 217t89.5 166.5t157 108.5t226 38q234 0 357.5 -107t123.5 -302v-50h-354q0 136 -119 136
q-73 0 -104 -51.5t-31 -155.5v-82zM553 1597h414l-228 -389h-372z" />
    <glyph glyph-name="Ccircumflex" unicode="&#x108;" horiz-adv-x="1351" 
d="M463 758q0 -91 4.5 -154t18 -123t37.5 -95.5t65 -57t98 -21.5h21q184 0 184 246h389v-18q0 -301 -146 -432.5t-448 -131.5q-323 0 -470.5 186.5t-147.5 600.5v82q0 414 147.5 600t470.5 186q302 0 448 -131t146 -432v-80h-389q0 59 -4.5 103t-16 84t-32 65.5t-53.5 40
t-78 14.5h-21q-57 0 -98 -21.5t-65 -56.5t-37.5 -95t-18 -123t-4.5 -154v-82zM563 1720h-338l267 226h389l266 -226h-338l-123 80z" />
    <glyph glyph-name="ccircumflex" unicode="&#x109;" horiz-adv-x="1081" 
d="M426 502q0 -104 31 -155.5t104 -51.5q56 0 87.5 30.5t31.5 84.5h354v-50q0 -182 -124 -285.5t-357 -103.5q-171 0 -285 67.5t-165.5 184.5t-51.5 279v82q0 121 29.5 217t89.5 166.5t157 108.5t226 38q234 0 357.5 -107t123.5 -302v-50h-354q0 136 -119 136
q-73 0 -104 -51.5t-31 -155.5v-82zM420 1208h-328l277 389h368l277 -389h-328l-133 150z" />
    <glyph glyph-name="Cdotaccent" unicode="&#x10a;" horiz-adv-x="1351" 
d="M463 758q0 -91 4.5 -154t18 -123t37.5 -95.5t65 -57t98 -21.5h21q184 0 184 246h389v-18q0 -301 -146 -432.5t-448 -131.5q-323 0 -470.5 186.5t-147.5 600.5v82q0 414 147.5 600t470.5 186q302 0 448 -131t146 -432v-80h-389q0 59 -4.5 103t-16 84t-32 65.5t-53.5 40
t-78 14.5h-21q-57 0 -98 -21.5t-65 -56.5t-37.5 -95t-18 -123t-4.5 -154v-82zM840 1946v-226h-308v226h308z" />
    <glyph glyph-name="cdotaccent" unicode="&#x10b;" horiz-adv-x="1081" 
d="M426 502q0 -104 31 -155.5t104 -51.5q56 0 87.5 30.5t31.5 84.5h354v-50q0 -182 -124 -285.5t-357 -103.5q-171 0 -285 67.5t-165.5 184.5t-51.5 279v82q0 121 29.5 217t89.5 166.5t157 108.5t226 38q234 0 357.5 -107t123.5 -302v-50h-354q0 136 -119 136
q-73 0 -104 -51.5t-31 -155.5v-82zM748 1597v-389h-390v389h390z" />
    <glyph glyph-name="Ccaron" unicode="&#x10c;" horiz-adv-x="1351" 
d="M463 758q0 -91 4.5 -154t18 -123t37.5 -95.5t65 -57t98 -21.5h21q184 0 184 246h389v-18q0 -301 -146 -432.5t-448 -131.5q-323 0 -470.5 186.5t-147.5 600.5v82q0 414 147.5 600t470.5 186q302 0 448 -131t146 -432v-80h-389q0 59 -4.5 103t-16 84t-32 65.5t-53.5 40
t-78 14.5h-21q-57 0 -98 -21.5t-65 -56.5t-37.5 -95t-18 -123t-4.5 -154v-82zM225 1946h338l123 -82l123 82h338l-266 -226h-389z" />
    <glyph glyph-name="ccaron" unicode="&#x10d;" horiz-adv-x="1081" 
d="M426 502q0 -104 31 -155.5t104 -51.5q56 0 87.5 30.5t31.5 84.5h354v-50q0 -182 -124 -285.5t-357 -103.5q-171 0 -285 67.5t-165.5 184.5t-51.5 279v82q0 121 29.5 217t89.5 166.5t157 108.5t226 38q234 0 357.5 -107t123.5 -302v-50h-354q0 136 -119 136
q-73 0 -104 -51.5t-31 -155.5v-82zM92 1597h328l133 -151l133 151h328l-277 -389h-368z" />
    <glyph glyph-name="Dcaron" unicode="&#x10e;" horiz-adv-x="1372" 
d="M1305 758q0 -210 -37 -352t-120.5 -234t-213 -132t-320.5 -40h-512v1597h512q191 0 320 -40t213 -131.5t121 -233.5t37 -352v-82zM492 336h102q98 0 161 26t96.5 83t45.5 129t12 184v82q0 111 -12 183.5t-45.5 129.5t-96.5 83t-161 26h-102v-926zM195 1946h337l123 -82
l123 82h338l-266 -226h-389z" />
    <glyph glyph-name="dcaron" unicode="&#x10f;" horiz-adv-x="1218" 
d="M469 1114q168 0 270 -110v634h377v-1331l21 -307h-340l-25 125q-104 -154 -303 -154q-88 0 -155.5 25t-113.5 70.5t-75 112t-42 146t-13 177.5v82q0 123 21 217t66.5 166t124 109.5t187.5 37.5zM739 379v328q-20 31 -61 57.5t-96 26.5q-74 0 -106 -51.5t-32 -155.5v-82
q0 -104 32 -155.5t106 -51.5q55 0 96 26.5t61 57.5zM1219 1638h215l-52 -430h-163v430z" />
    <glyph glyph-name="Dcroat" unicode="&#x110;" horiz-adv-x="1495" 
d="M20 676v287h205v634h512q191 0 320 -40t212.5 -131.5t120.5 -233.5t37 -352v-82q0 -279 -68.5 -443.5t-218 -239.5t-403.5 -75h-512v676h-205zM614 1262v-299h308v-287h-308v-340h103q98 0 161 26t96.5 83t45.5 129t12 184v82q0 111 -12 183.5t-45.5 129.5t-96.5 83
t-161 26h-103z" />
    <glyph glyph-name="dcroat" unicode="&#x111;" horiz-adv-x="1218" 
d="M1239 1229h-123v-922l21 -307h-340l-25 125q-104 -154 -303 -154q-88 0 -155.5 25t-113.5 70.5t-75 112t-42 146t-13 177.5v82q0 123 21 217t66.5 166t124 109.5t187.5 37.5q168 0 270 -110v225h-219v266h219v143h377v-143h123v-266zM739 379v328q-20 31 -61 57.5
t-96 26.5q-74 0 -106 -51.5t-32 -155.5v-82q0 -104 32 -155.5t106 -51.5q55 0 96 26.5t61 57.5z" />
    <glyph glyph-name="Emacron" unicode="&#x112;" horiz-adv-x="1187" 
d="M102 1597h1004v-335h-614v-279h512v-336h-512v-311h614v-336h-1004v1597zM276 1720v226h656v-226h-656z" />
    <glyph glyph-name="emacron" unicode="&#x113;" horiz-adv-x="1146" 
d="M1096 410h-668q9 -87 50.5 -121.5t117.5 -34.5q61 0 103 27.5t42 66.5h355v-8q0 -165 -134.5 -267t-367.5 -102q-136 0 -241 39.5t-170.5 112t-98.5 170.5t-33 219v61q0 245 137.5 393t393.5 148q254 0 384 -147t130 -394v-163zM254 1239v328h655v-328h-655zM573 831
q-68 0 -103 -35.5t-42 -119.5h291q-7 84 -42.5 119.5t-103.5 35.5z" />
    <glyph glyph-name="Ebreve" unicode="&#x114;" horiz-adv-x="1187" 
d="M102 1597h1004v-335h-614v-279h512v-336h-512v-311h614v-336h-1004v1597zM604 1688q-118 0 -200 20.5t-123.5 58t-58.5 80.5t-17 99h256q0 -62 143 -62q144 0 144 62h256q0 -56 -17 -99t-59 -80.5t-124 -58t-200 -20.5z" />
    <glyph glyph-name="ebreve" unicode="&#x115;" horiz-adv-x="1146" 
d="M1096 410h-668q9 -87 50.5 -121.5t117.5 -34.5q61 0 103 27.5t42 66.5h355v-8q0 -165 -134.5 -267t-367.5 -102q-136 0 -241 39.5t-170.5 112t-98.5 170.5t-33 219v61q0 245 137.5 393t393.5 148q254 0 384 -147t130 -394v-163zM582 1180q-111 0 -191 31t-125.5 88
t-65.5 131t-18 167h267q0 -77 36.5 -106t96.5 -29t96.5 29t36.5 106h266q2 -93 -18 -167t-65.5 -131t-125 -88t-190.5 -31zM573 831q-68 0 -103 -35.5t-42 -119.5h291q-7 84 -42.5 119.5t-103.5 35.5z" />
    <glyph glyph-name="Edotaccent" unicode="&#x116;" horiz-adv-x="1187" 
d="M102 1597h1004v-335h-614v-279h512v-336h-512v-311h614v-336h-1004v1597zM758 1946v-226h-307v226h307z" />
    <glyph glyph-name="edotaccent" unicode="&#x117;" horiz-adv-x="1146" 
d="M1096 410h-668q9 -87 50.5 -121.5t117.5 -34.5q61 0 103 27.5t42 66.5h355v-8q0 -165 -134.5 -267t-367.5 -102q-136 0 -241 39.5t-170.5 112t-98.5 170.5t-33 219v61q0 245 137.5 393t393.5 148q254 0 384 -147t130 -394v-163zM776 1597v-389h-389v389h389zM573 831
q-68 0 -103 -35.5t-42 -119.5h291q-7 84 -42.5 119.5t-103.5 35.5z" />
    <glyph glyph-name="Eogonek" unicode="&#x118;" horiz-adv-x="1187" 
d="M993 -119q0 -29 21.5 -47t56.5 -18q44 0 74 20l84 -225q-35 -22 -95.5 -37.5t-125.5 -15.5q-135 0 -213 57.5t-78 169.5q0 121 84 215h-699v1597h1004v-335h-614v-279h512v-336h-512v-311h614v-336q-113 -51 -113 -119z" />
    <glyph glyph-name="eogonek" unicode="&#x119;" horiz-adv-x="1146" 
d="M698 -119q0 -29 21.5 -47t56.5 -18q44 0 74 20l84 -225q-35 -22 -95.5 -37.5t-125.5 -15.5q-135 0 -213 57.5t-78 169.5q0 108 65 192q-216 28 -326 170t-110 365v61q0 245 137.5 393t393.5 148q254 0 384 -147t130 -394v-163h-668q9 -87 50.5 -121.5t117.5 -34.5
q61 0 103 27.5t42 66.5h355v-8q0 -122 -73.5 -209.5t-211.5 -130.5q-57 -18 -85 -49.5t-28 -69.5zM573 831q-68 0 -103 -35.5t-42 -119.5h291q-7 84 -42.5 119.5t-103.5 35.5z" />
    <glyph glyph-name="Ecaron" unicode="&#x11a;" horiz-adv-x="1187" 
d="M102 1597h1004v-335h-614v-279h512v-336h-512v-311h614v-336h-1004v1597zM143 1946h338l123 -82l123 82h338l-266 -226h-389z" />
    <glyph glyph-name="ecaron" unicode="&#x11b;" horiz-adv-x="1146" 
d="M1096 410h-668q9 -87 50.5 -121.5t117.5 -34.5q61 0 103 27.5t42 66.5h355v-8q0 -165 -134.5 -267t-367.5 -102q-136 0 -241 39.5t-170.5 112t-98.5 170.5t-33 219v61q0 245 137.5 393t393.5 148q254 0 384 -147t130 -394v-163zM121 1597h328l133 -151l133 151h327
l-276 -389h-369zM573 831q-68 0 -103 -35.5t-42 -119.5h291q-7 84 -42.5 119.5t-103.5 35.5z" />
    <glyph glyph-name="Gcircumflex" unicode="&#x11c;" horiz-adv-x="1392" 
d="M717 -29q-339 0 -494 186.5t-155 600.5v82q0 412 151.5 599t476.5 187q150 0 260 -30.5t188 -96.5t117 -174.5t39 -261.5v-80h-389q0 59 -4.5 103t-17 84t-33.5 65t-56 40t-83 15h-21q-50 0 -88 -13.5t-63.5 -42.5t-42 -65t-25 -90.5t-11.5 -109t-3 -129.5v-82
q0 -75 3 -129.5t12 -109.5t26.5 -91t44 -65t66 -42.5t92.5 -13.5h20q111 0 182 41v205h-192v336h581v-729q-112 -89 -247.5 -139t-333.5 -50zM573 1720h-337l266 226h389l266 -226h-338l-123 80z" />
    <glyph glyph-name="gcircumflex" unicode="&#x11d;" horiz-adv-x="1198" 
d="M721 31v104q-99 -102 -270 -102q-400 0 -400 510v61q0 114 22.5 205.5t69.5 160.5t125 106.5t183 37.5q201 0 305 -147l22 118h340l-20 -307v-747q0 -237 -131 -353t-394 -116q-137 0 -236.5 29.5t-156 84t-82.5 122.5t-26 153v49h354q0 -62 30 -98.5t109 -36.5
q80 0 118 35.5t38 130.5zM451 1208h-328l276 389h369l276 -389h-327l-133 150zM721 440v267q-20 31 -61.5 57.5t-96.5 26.5q-67 0 -102 -50t-35 -137v-61q0 -98 33.5 -142.5t103.5 -44.5q55 0 96.5 26.5t61.5 57.5z" />
    <glyph glyph-name="Gbreve" unicode="&#x11e;" horiz-adv-x="1392" 
d="M717 -29q-339 0 -494 186.5t-155 600.5v82q0 412 151.5 599t476.5 187q150 0 260 -30.5t188 -96.5t117 -174.5t39 -261.5v-80h-389q0 59 -4.5 103t-17 84t-33.5 65t-56 40t-83 15h-21q-50 0 -88 -13.5t-63.5 -42.5t-42 -65t-25 -90.5t-11.5 -109t-3 -129.5v-82
q0 -75 3 -129.5t12 -109.5t26.5 -91t44 -65t66 -42.5t92.5 -13.5h20q111 0 182 41v205h-192v336h581v-729q-112 -89 -247.5 -139t-333.5 -50zM696 1688q-118 0 -200 20.5t-123.5 58t-58.5 80.5t-17 99h256q0 -62 143 -62q144 0 144 62h256q0 -56 -17 -99t-59 -80.5t-124 -58
t-200 -20.5z" />
    <glyph glyph-name="gbreve" unicode="&#x11f;" horiz-adv-x="1198" 
d="M721 31v104q-99 -102 -270 -102q-400 0 -400 510v61q0 114 22.5 205.5t69.5 160.5t125 106.5t183 37.5q201 0 305 -147l22 118h340l-20 -307v-747q0 -237 -131 -353t-394 -116q-137 0 -236.5 29.5t-156 84t-82.5 122.5t-26 153v49h354q0 -62 30 -98.5t109 -36.5
q80 0 118 35.5t38 130.5zM584 1180q-111 0 -191 31t-125.5 88t-65.5 131t-18 167h267q0 -77 36.5 -106t96.5 -29t96.5 29t36.5 106h266q2 -93 -18 -167t-65.5 -131t-125 -88t-190.5 -31zM721 707q-20 31 -61.5 57.5t-96.5 26.5q-67 0 -102 -50t-35 -137v-61
q0 -98 33.5 -142.5t103.5 -44.5q55 0 96.5 26.5t61.5 57.5v267z" />
    <glyph glyph-name="Gdotaccent" unicode="&#x120;" horiz-adv-x="1392" 
d="M717 -29q-339 0 -494 186.5t-155 600.5v82q0 412 151.5 599t476.5 187q150 0 260 -30.5t188 -96.5t117 -174.5t39 -261.5v-80h-389q0 59 -4.5 103t-17 84t-33.5 65t-56 40t-83 15h-21q-50 0 -88 -13.5t-63.5 -42.5t-42 -65t-25 -90.5t-11.5 -109t-3 -129.5v-82
q0 -75 3 -129.5t12 -109.5t26.5 -91t44 -65t66 -42.5t92.5 -13.5h20q111 0 182 41v205h-192v336h581v-729q-112 -89 -247.5 -139t-333.5 -50zM850 1946v-226h-307v226h307z" />
    <glyph glyph-name="gdotaccent" unicode="&#x121;" horiz-adv-x="1198" 
d="M721 31v104q-99 -102 -270 -102q-400 0 -400 510v61q0 114 22.5 205.5t69.5 160.5t125 106.5t183 37.5q201 0 305 -147l22 118h340l-20 -307v-747q0 -237 -131 -353t-394 -116q-137 0 -236.5 29.5t-156 84t-82.5 122.5t-26 153v49h354q0 -62 30 -98.5t109 -36.5
q80 0 118 35.5t38 130.5zM768 1597v-389h-389v389h389zM721 440v267q-20 31 -61.5 57.5t-96.5 26.5q-67 0 -102 -50t-35 -137v-61q0 -98 33.5 -142.5t103.5 -44.5q55 0 96.5 26.5t61.5 57.5z" />
    <glyph glyph-name="Gcommaaccent" unicode="&#x122;" horiz-adv-x="1392" 
d="M717 -29q-339 0 -494 186.5t-155 600.5v82q0 412 151.5 599t476.5 187q150 0 260 -30.5t188 -96.5t117 -174.5t39 -261.5v-80h-389q0 59 -4.5 103t-17 84t-33.5 65t-56 40t-83 15h-21q-50 0 -88 -13.5t-63.5 -42.5t-42 -65t-25 -90.5t-11.5 -109t-3 -129.5v-82
q0 -75 3 -129.5t12 -109.5t26.5 -91t44 -65t66 -42.5t92.5 -13.5h20q111 0 182 41v205h-192v336h581v-729q-112 -89 -247.5 -139t-333.5 -50zM881 -82v-123q0 -144 -78 -205t-250 -61v123q140 0 180 61h-180v205h328z" />
    <glyph glyph-name="gcommaaccent" unicode="&#x123;" horiz-adv-x="1198" 
d="M721 31v104q-99 -102 -270 -102q-400 0 -400 510v61q0 114 22.5 205.5t69.5 160.5t125 106.5t183 37.5q201 0 305 -147l22 118h340l-20 -307v-747q0 -237 -131 -353t-394 -116q-137 0 -236.5 29.5t-156 84t-82.5 122.5t-26 153v49h354q0 -62 30 -98.5t109 -36.5
q80 0 118 35.5t38 130.5zM410 1208v144q0 145 78.5 209.5t248.5 64.5v-123q-140 0 -182 -69h182v-226h-327zM721 707q-20 31 -61.5 57.5t-96.5 26.5q-67 0 -102 -50t-35 -137v-61q0 -98 33.5 -142.5t103.5 -44.5q55 0 96.5 26.5t61.5 57.5v267z" />
    <glyph glyph-name="Hcircumflex" unicode="&#x124;" horiz-adv-x="1372" 
d="M881 1597h389v-1597h-389v647h-389v-647h-390v1597h390v-614h389v614zM563 1720h-338l267 226h389l266 -226h-338l-123 80z" />
    <glyph glyph-name="hcircumflex" unicode="&#x125;" horiz-adv-x="1218" 
d="M479 1638v-649q115 125 312 125q92 0 160 -32.5t105 -89t54.5 -122.5t17.5 -143v-727h-376v666q0 125 -115 125q-55 0 -96.5 -26.5t-61.5 -57.5v-707h-377v1638h377zM168 1720h-338l266 226h389l267 -226h-338l-123 80z" />
    <glyph glyph-name="Hbar" unicode="&#x126;" horiz-adv-x="1372" 
d="M881 1597h389v-1597h-389v647h-389v-647h-390v1597h390v-163h389v163zM492 983h389v164h-389v-164z" />
    <glyph glyph-name="hbar" unicode="&#x127;" horiz-adv-x="1218" 
d="M479 1638v-143h219v-266h-219v-240q115 125 312 125q92 0 160 -32.5t105 -89t54.5 -122.5t17.5 -143v-727h-374v666q0 125 -117 125q-55 0 -96.5 -26.5t-61.5 -57.5v-707h-377v1229h-122v266h122v143h377z" />
    <glyph glyph-name="Itilde" unicode="&#x128;" 
d="M502 1597v-1597h-389v1597h389zM512 1946h195q0 -136 -64.5 -197t-161.5 -61q-57 0 -118.5 23.5t-112 47t-80.5 23.5q-68 0 -68 -62h-194q0 136 64 197t161 61q57 0 118.5 -23.5t112 -47t80.5 -23.5q68 0 68 62z" />
    <glyph glyph-name="itilde" unicode="&#x129;" horiz-adv-x="573" 
d="M98 0v1085h377v-1085h-377zM481 1597h246q0 -182 -68.5 -271t-177.5 -89q-57 0 -121 26t-118.5 52t-87.5 26q-62 0 -62 -71h-246q0 182 68.5 271t177.5 89q57 0 121.5 -26t119 -52t87.5 -26q61 0 61 71z" />
    <glyph glyph-name="Imacron" unicode="&#x12a;" 
d="M502 1597v-1597h-389v1597h389zM-20 1720v226h655v-226h-655z" />
    <glyph glyph-name="imacron" unicode="&#x12b;" horiz-adv-x="573" 
d="M98 0v1085h377v-1085h-377zM-41 1239v328h655v-328h-655z" />
    <glyph glyph-name="Ibreve" unicode="&#x12c;" 
d="M502 1597v-1597h-389v1597h389zM307 1688q-118 0 -200 20.5t-123.5 58t-58.5 80.5t-17 99h256q0 -62 143 -62q144 0 144 62h256q0 -56 -17 -99t-59 -80.5t-124 -58t-200 -20.5z" />
    <glyph glyph-name="ibreve" unicode="&#x12d;" horiz-adv-x="573" 
d="M98 0v1085h377v-1085h-377zM287 1180q-111 0 -191 31t-125.5 88t-65.5 131t-18 167h267q0 -77 36.5 -106t96.5 -29t96.5 29t36.5 106h266q2 -93 -18 -167t-65.5 -131t-125 -88t-190.5 -31z" />
    <glyph glyph-name="Iogonek" unicode="&#x12e;" 
d="M389 -119q0 -29 21.5 -47t56.5 -18q44 0 74 20l84 -225q-35 -22 -96 -37.5t-126 -15.5q-135 0 -212.5 57.5t-77.5 169.5q0 121 84 215h-84v1597h389v-1597q-113 -51 -113 -119z" />
    <glyph glyph-name="iogonek" unicode="&#x12f;" horiz-adv-x="573" 
d="M98 0v1085h377v-1085q-113 -51 -113 -119q0 -29 21.5 -47t56.5 -18q44 0 74 20l84 -225q-35 -22 -95.5 -37.5t-125.5 -15.5q-135 0 -213 57.5t-78 169.5q0 121 84 215h-72zM481 1597v-389h-389v389h389z" />
    <glyph glyph-name="Idotaccent" unicode="&#x130;" 
d="M502 1597v-1597h-389v1597h389zM461 1946v-226h-307v226h307z" />
    <glyph glyph-name="dotlessi" unicode="&#x131;" horiz-adv-x="573" 
d="M98 0v1085h377v-1085h-377z" />
    <glyph glyph-name="IJ" unicode="&#x132;" horiz-adv-x="1312" 
d="M831 457v1140h390v-1183q0 -443 -433 -443q-146 0 -204 35v318q12 -5 45 -11t57 -6q74 0 109.5 30.5t35.5 119.5zM502 1597v-1597h-389v1597h389z" />
    <glyph glyph-name="ij" unicode="&#x133;" horiz-adv-x="1044" 
d="M569 31v1054h377v-1095q0 -227 -113.5 -327.5t-320.5 -100.5q-132 0 -182 28v308q9 -4 40 -8.5t54 -4.5q72 0 108.5 30t36.5 116zM98 0v1085h377v-1085h-377zM481 1597v-389h-389v389h389zM952 1597v-389h-389v389h389z" />
    <glyph glyph-name="Jcircumflex" unicode="&#x134;" horiz-adv-x="1126" 
d="M645 1597h389v-1110q0 -516 -495 -516q-136 0 -232.5 34t-154 102.5t-83.5 162.5t-26 222v61h369q0 -129 24 -187.5t92 -58.5t92.5 55.5t24.5 169.5v1065zM717 1720h-338l266 226h389l266 -226h-337l-123 80z" />
    <glyph glyph-name="jcircumflex" unicode="&#x135;" horiz-adv-x="573" 
d="M98 31v1054h377v-1095q0 -227 -113.5 -327.5t-320.5 -100.5q-132 0 -182 28v308q9 -4 40 -8.5t54 -4.5q72 0 108.5 30t36.5 116zM154 1208h-328l276 389h369l277 -389h-328l-133 150z" />
    <glyph glyph-name="Kcommaaccent" unicode="&#x136;" horiz-adv-x="1320" 
d="M492 1597v-548l327 548h471l-438 -628l438 -969h-430l-260 608l-108 -157v-451h-390v1597h390zM829 -82v-123q0 -144 -77.5 -205t-249.5 -61v123q140 0 180 61h-180v205h327z" />
    <glyph glyph-name="kcommaaccent" unicode="&#x137;" horiz-adv-x="1187" 
d="M92 0v1638h377v-856l238 303h450l-356 -411l356 -674h-440l-176 373l-72 -84v-289h-377zM752 -82v-123q0 -144 -78 -205t-250 -61v123q140 0 180 61h-180v205h328z" />
    <glyph glyph-name="kgreenlandic" unicode="&#x138;" horiz-adv-x="1187" 
d="M92 0v1085h377v-303l238 303h450l-356 -411l356 -674h-440l-176 373l-72 -84v-289h-377z" />
    <glyph glyph-name="Lacute" unicode="&#x139;" horiz-adv-x="1085" 
d="M1055 0h-953v1597h390v-1261h563v-336zM219 1946h395l-131 -226h-372z" />
    <glyph glyph-name="lacute" unicode="&#x13a;" horiz-adv-x="573" 
d="M98 0v1638h377v-1638h-377zM209 1946h395l-131 -226h-373z" />
    <glyph glyph-name="Lcommaaccent" unicode="&#x13b;" horiz-adv-x="1085" 
d="M1055 0h-953v1597h390v-1261h563v-336zM741 -82v-123q0 -144 -77.5 -205t-249.5 -61v123q140 0 180 61h-180v205h327z" />
    <glyph glyph-name="lcommaaccent" unicode="&#x13c;" horiz-adv-x="573" 
d="M98 0v1638h377v-1638h-377zM451 -82v-123q0 -144 -78 -205t-250 -61v123q140 0 180 61h-180v205h328z" />
    <glyph glyph-name="Lcaron" unicode="&#x13d;" horiz-adv-x="1085" 
d="M1055 0h-953v1597h390v-1261h563v-336zM702 1638h216l-52 -430h-164v430z" />
    <glyph glyph-name="lcaron" unicode="&#x13e;" horiz-adv-x="573" 
d="M98 0v1638h377v-1638h-377zM578 1638h215l-52 -430h-163v430z" />
    <glyph glyph-name="Ldot" unicode="&#x13f;" horiz-adv-x="1085" 
d="M1055 0h-953v1597h390v-1261h563v-336zM1034 1010v-389h-389v389h389z" />
    <glyph glyph-name="ldot" unicode="&#x140;" horiz-adv-x="962" 
d="M98 0v1638h377v-1638h-377zM963 911v-389h-390v389h390z" />
    <glyph glyph-name="Lslash" unicode="&#x141;" horiz-adv-x="1208" 
d="M20 336v319l205 99v843h389v-653l349 170v-319l-349 -170v-289h564v-336h-953v434z" />
    <glyph glyph-name="lslash" unicode="&#x142;" horiz-adv-x="819" 
d="M41 346v309l180 109v874h377v-647l201 123v-309l-201 -123v-682h-377v455z" />
    <glyph glyph-name="Nacute" unicode="&#x143;" horiz-adv-x="1413" 
d="M1311 1597v-1597h-410l-440 881l10 -308v-573h-369v1597h410l440 -880l-10 307v573h369zM629 1946h395l-131 -226h-373z" />
    <glyph glyph-name="nacute" unicode="&#x144;" horiz-adv-x="1218" 
d="M1128 0h-376v666q0 125 -115 125q-55 0 -96.5 -26.5t-61.5 -57.5v-707h-377v778l-20 307h340l24 -135q123 164 345 164q92 0 160 -32.5t105 -89t54.5 -122.5t17.5 -143v-727zM616 1597h414l-227 -389h-373z" />
    <glyph glyph-name="Ncommaaccent" unicode="&#x145;" horiz-adv-x="1413" 
d="M1311 1597v-1597h-410l-440 881l10 -308v-573h-369v1597h410l440 -880l-10 307v573h369zM870 -82v-123q0 -144 -77.5 -205t-249.5 -61v123q140 0 180 61h-180v205h327z" />
    <glyph glyph-name="ncommaaccent" unicode="&#x146;" horiz-adv-x="1218" 
d="M1128 0h-376v666q0 125 -115 125q-55 0 -96.5 -26.5t-61.5 -57.5v-707h-377v778l-20 307h340l24 -135q123 164 345 164q92 0 160 -32.5t105 -89t54.5 -122.5t17.5 -143v-727zM780 -82v-123q0 -144 -77.5 -205t-249.5 -61v123q140 0 180 61h-180v205h327z" />
    <glyph glyph-name="Ncaron" unicode="&#x147;" horiz-adv-x="1413" 
d="M1311 1597v-1597h-410l-440 881l10 -308v-573h-369v1597h410l440 -880l-10 307v573h369zM246 1946h338l123 -82l122 82h338l-266 -226h-389z" />
    <glyph glyph-name="ncaron" unicode="&#x148;" horiz-adv-x="1218" 
d="M1128 0h-376v666q0 125 -115 125q-55 0 -96.5 -26.5t-61.5 -57.5v-707h-377v778l-20 307h340l24 -135q123 164 345 164q92 0 160 -32.5t105 -89t54.5 -122.5t17.5 -143v-727zM156 1597h327l133 -151l134 151h327l-276 -389h-369z" />
    <glyph glyph-name="Eng" unicode="&#x14a;" horiz-adv-x="1413" 
d="M1311 1597v-1607q0 -227 -113.5 -327.5t-320.5 -100.5q-133 0 -183 28v308q9 -4 40 -8.5t54 -4.5q111 0 136 70l-463 926l10 -308v-573h-369v1597h410l440 -880l-10 307v573h369z" />
    <glyph glyph-name="eng" unicode="&#x14b;" horiz-adv-x="1218" 
d="M752 31v635q0 125 -115 125q-55 0 -96.5 -26.5t-61.5 -57.5v-707h-377v778l-20 307h340l24 -135q123 164 345 164q92 0 160 -32.5t105 -89t54.5 -122.5t17.5 -143v-737q0 -227 -113.5 -327.5t-320.5 -100.5q-132 0 -182 28v308q9 -4 40 -8.5t54 -4.5q72 0 109 30t37 116z
" />
    <glyph glyph-name="Omacron" unicode="&#x14c;" horiz-adv-x="1392" 
d="M696 -29q-325 0 -476.5 187.5t-151.5 599.5v82q0 412 151.5 599t476.5 187t477 -187t152 -599v-82q0 -412 -152 -599.5t-477 -187.5zM686 307h21q67 0 112 30.5t69 93t33 139.5t9 188v82q0 88 -5.5 153.5t-20 123.5t-39.5 94.5t-64.5 57.5t-93.5 21h-21q-54 0 -93.5 -21
t-64.5 -57.5t-39.5 -94.5t-20 -123.5t-5.5 -153.5v-82q0 -111 9 -188t33 -139.5t69 -93t112 -30.5zM369 1720v226h655v-226h-655z" />
    <glyph glyph-name="omacron" unicode="&#x14d;" horiz-adv-x="1146" 
d="M573 -29q-260 0 -391 142t-131 389v82q0 247 131 388.5t391 141.5t391.5 -142t131.5 -388v-82q0 -247 -131.5 -389t-391.5 -142zM246 1239v328h655v-328h-655zM573 295q148 0 148 207v82q0 207 -148 207q-147 0 -147 -207v-82q0 -207 147 -207z" />
    <glyph glyph-name="Obreve" unicode="&#x14e;" horiz-adv-x="1392" 
d="M696 -29q-325 0 -476.5 187.5t-151.5 599.5v82q0 412 151.5 599t476.5 187t477 -187t152 -599v-82q0 -412 -152 -599.5t-477 -187.5zM686 307h21q67 0 112 30.5t69 93t33 139.5t9 188v82q0 88 -5.5 153.5t-20 123.5t-39.5 94.5t-64.5 57.5t-93.5 21h-21q-54 0 -93.5 -21
t-64.5 -57.5t-39.5 -94.5t-20 -123.5t-5.5 -153.5v-82q0 -111 9 -188t33 -139.5t69 -93t112 -30.5zM696 1688q-118 0 -200 20.5t-123.5 58t-58.5 80.5t-17 99h256q0 -62 143 -62q144 0 144 62h256q0 -56 -17 -99t-59 -80.5t-124 -58t-200 -20.5z" />
    <glyph glyph-name="obreve" unicode="&#x14f;" horiz-adv-x="1146" 
d="M573 -29q-260 0 -391 142t-131 389v82q0 247 131 388.5t391 141.5t391.5 -142t131.5 -388v-82q0 -247 -131.5 -389t-391.5 -142zM573 1180q-111 0 -190.5 31t-125 88t-65.5 131t-18 167h266q0 -77 36.5 -106t96.5 -29t97 29t37 106h266q2 -93 -18 -167t-65.5 -131
t-125.5 -88t-191 -31zM573 295q148 0 148 207v82q0 207 -148 207q-147 0 -147 -207v-82q0 -207 147 -207z" />
    <glyph glyph-name="Ohungarumlaut" unicode="&#x150;" horiz-adv-x="1392" 
d="M696 -29q-325 0 -476.5 187.5t-151.5 599.5v82q0 412 151.5 599t476.5 187t477 -187t152 -599v-82q0 -412 -152 -599.5t-477 -187.5zM686 307h21q67 0 112 30.5t69 93t33 139.5t9 188v82q0 88 -5.5 153.5t-20 123.5t-39.5 94.5t-64.5 57.5t-93.5 21h-21q-54 0 -93.5 -21
t-64.5 -57.5t-39.5 -94.5t-20 -123.5t-5.5 -153.5v-82q0 -111 9 -188t33 -139.5t69 -93t112 -30.5zM434 1946h354l-110 -226h-332zM823 1946h355l-131 -226h-332z" />
    <glyph glyph-name="ohungarumlaut" unicode="&#x151;" horiz-adv-x="1146" 
d="M573 -29q-260 0 -391 142t-131 389v82q0 247 131 388.5t391 141.5t391.5 -142t131.5 -388v-82q0 -247 -131.5 -389t-391.5 -142zM573 295q148 0 148 207v82q0 207 -148 207q-147 0 -147 -207v-82q0 -207 147 -207zM788 1597h332l-227 -389h-291zM379 1597h332l-168 -389
h-291z" />
    <glyph glyph-name="OE" unicode="&#x152;" horiz-adv-x="1925" 
d="M68 840q0 210 37 352t120.5 233.5t212.5 131.5t320 40h1085v-335h-614v-279h512v-336h-512v-311h614v-336h-1085q-254 0 -403.5 75t-218 239.5t-68.5 443.5v82zM840 336v926h-62q-98 0 -161 -26t-96.5 -83t-45.5 -129.5t-12 -183.5v-82q0 -112 12 -184t45.5 -129
t96.5 -83t161 -26h62z" />
    <glyph glyph-name="oe" unicode="&#x153;" horiz-adv-x="1816" 
d="M1765 410h-667q9 -87 50.5 -121.5t117.5 -34.5q61 0 103 27.5t42 66.5h354v-8q0 -165 -134 -267t-367 -102q-222 0 -351 129q-126 -129 -340 -129q-260 0 -391 142t-131 389v82q0 247 131 388.5t391 141.5q214 0 340 -129q129 129 338 129q254 0 384 -147t130 -394v-163z
M426 502q0 -207 147 -207q148 0 148 207v82q0 207 -148 207q-147 0 -147 -207v-82zM1243 831q-68 0 -103 -35.5t-42 -119.5h291q-7 84 -42.5 119.5t-103.5 35.5z" />
    <glyph glyph-name="Racute" unicode="&#x154;" horiz-adv-x="1300" 
d="M492 549v-549h-390v1597h551q64 0 117.5 -4.5t114.5 -18t108.5 -36t93 -61t76 -90t48.5 -126.5t18 -167v-41q0 -341 -246 -451l246 -602h-420l-209 549h-108zM492 885h178q166 0 166 180v16q0 181 -166 181h-178v-377zM547 1946h395l-131 -226h-373z" />
    <glyph glyph-name="racute" unicode="&#x155;" horiz-adv-x="819" 
d="M729 1114q21 0 31 -2v-385h-62q-84 0 -140 -22t-79 -50v-655h-377v778l-20 307h340l22 -120q109 149 285 149zM430 1597h414l-228 -389h-372z" />
    <glyph glyph-name="Rcommaaccent" unicode="&#x156;" horiz-adv-x="1300" 
d="M492 549v-549h-390v1597h551q64 0 117.5 -4.5t114.5 -18t108.5 -36t93 -61t76 -90t48.5 -126.5t18 -167v-41q0 -341 -246 -451l246 -602h-420l-209 549h-108zM492 885h178q166 0 166 180v16q0 181 -166 181h-178v-377zM809 -82v-123q0 -144 -78 -205t-250 -61v123
q141 0 181 61h-181v205h328z" />
    <glyph glyph-name="rcommaaccent" unicode="&#x157;" horiz-adv-x="819" 
d="M729 1114q21 0 31 -2v-385h-62q-84 0 -140 -22t-79 -50v-655h-377v778l-20 307h340l22 -120q109 149 285 149zM455 -82v-123q0 -144 -78 -205t-250 -61v123q140 0 180 61h-180v205h328z" />
    <glyph glyph-name="Rcaron" unicode="&#x158;" horiz-adv-x="1300" 
d="M492 549v-549h-390v1597h551q64 0 117.5 -4.5t114.5 -18t108.5 -36t93 -61t76 -90t48.5 -126.5t18 -167v-41q0 -341 -246 -451l246 -602h-420l-209 549h-108zM164 1946h338l123 -82l123 82h337l-266 -226h-389zM492 885h178q166 0 166 180v16q0 181 -166 181h-178v-377z
" />
    <glyph glyph-name="rcaron" unicode="&#x159;" horiz-adv-x="819" 
d="M729 1114q21 0 31 -2v-385h-62q-84 0 -140 -22t-79 -50v-655h-377v778l-20 307h340l22 -120q109 149 285 149zM-31 1597h328l133 -151l133 151h328l-277 -389h-368z" />
    <glyph glyph-name="Sacute" unicode="&#x15a;" horiz-adv-x="1310" 
d="M596 641q-136 18 -229.5 49.5t-162 86t-100.5 137t-32 198.5v23q0 228 150 359.5t433 131.5q303 0 443.5 -134.5t140.5 -424.5v-43h-389q0 138 -45 202t-150 64h-20q-82 0 -125 -40.5t-43 -104.5v-8q0 -53 16.5 -83.5t71.5 -54.5t160 -38q136 -18 231 -49.5t165.5 -86
t104 -137.5t33.5 -199v-22q0 -237 -152 -366.5t-442 -129.5q-298 0 -446 134.5t-148 429.5v18h390q0 -131 46.5 -188.5t147.5 -57.5h21q94 0 141 43t47 107v8q0 75 -52.5 115t-205.5 61zM578 1946h395l-131 -226h-373z" />
    <glyph glyph-name="sacute" unicode="&#x15b;" horiz-adv-x="1085" 
d="M543 254q108 0 108 80q0 37 -25.5 56.5t-97.5 25.5q-122 10 -203.5 28.5t-140.5 54t-85.5 90.5t-26.5 136v20q0 78 24.5 141t67 105t102.5 70t128.5 40.5t148.5 12.5q471 0 471 -377v-10h-369q0 104 -102 104q-50 0 -76.5 -20t-26.5 -53q0 -39 25 -55.5t94 -22.5
q91 -8 154.5 -18t127 -32t102 -54t62 -83.5t23.5 -121.5v-21q0 -182 -122 -280.5t-363 -98.5q-235 0 -360.5 97.5t-125.5 269.5v10h375q0 -94 111 -94zM543 1597h413l-227 -389h-373z" />
    <glyph glyph-name="Scircumflex" unicode="&#x15c;" horiz-adv-x="1310" 
d="M596 641q-136 18 -229.5 49.5t-162 86t-100.5 137t-32 198.5v23q0 228 150 359.5t433 131.5q303 0 443.5 -134.5t140.5 -424.5v-43h-389q0 138 -45 202t-150 64h-20q-82 0 -125 -40.5t-43 -104.5v-8q0 -53 16.5 -83.5t71.5 -54.5t160 -38q136 -18 231 -49.5t165.5 -86
t104 -137.5t33.5 -199v-22q0 -237 -152 -366.5t-442 -129.5q-298 0 -446 134.5t-148 429.5v18h390q0 -131 46.5 -188.5t147.5 -57.5h21q94 0 141 43t47 107v8q0 75 -52.5 115t-205.5 61zM532 1720h-337l266 226h389l266 -226h-338l-123 80z" />
    <glyph glyph-name="scircumflex" unicode="&#x15d;" horiz-adv-x="1085" 
d="M543 254q108 0 108 80q0 37 -25.5 56.5t-97.5 25.5q-122 10 -203.5 28.5t-140.5 54t-85.5 90.5t-26.5 136v20q0 78 24.5 141t67 105t102.5 70t128.5 40.5t148.5 12.5q471 0 471 -377v-10h-369q0 104 -102 104q-50 0 -76.5 -20t-26.5 -53q0 -39 25 -55.5t94 -22.5
q91 -8 154.5 -18t127 -32t102 -54t62 -83.5t23.5 -121.5v-21q0 -182 -122 -280.5t-363 -98.5q-235 0 -360.5 97.5t-125.5 269.5v10h375q0 -94 111 -94zM410 1208h-328l276 389h369l277 -389h-328l-133 150z" />
    <glyph glyph-name="Scedilla" unicode="&#x15e;" horiz-adv-x="1310" 
d="M432 -389l55 141q58 -35 144 -35q90 0 90 45q0 23 -20 34t-70 11q-17 0 -37.5 -2.5t-32.5 -4.5l-12 -3l-29 60l47 118q-254 18 -380 152.5t-126 407.5v18h390q0 -131 46.5 -188.5t147.5 -57.5h21q94 0 141 43t47 107v8q0 75 -52.5 115t-205.5 61q-136 18 -229.5 49.5
t-162 86t-100.5 137t-32 198.5v23q0 228 150 359.5t433 131.5q303 0 443.5 -134.5t140.5 -424.5v-43h-389q0 138 -45 202t-150 64h-20q-82 0 -125 -40.5t-43 -104.5v-8q0 -53 16.5 -83.5t71.5 -54.5t160 -38q136 -18 231 -49.5t165.5 -86t104 -137.5t33.5 -199v-22
q0 -222 -132 -349.5t-386 -144.5l-20 -49q93 -8 148.5 -53t55.5 -127q0 -186 -256 -186q-74 0 -135 16t-92 37z" />
    <glyph glyph-name="scedilla" unicode="&#x15f;" horiz-adv-x="1085" 
d="M319 -389l56 141q58 -35 143 -35q90 0 90 45q0 23 -20 34t-70 11q-17 0 -37.5 -2.5t-32.5 -4.5l-12 -3l-28 60l47 118q-194 19 -296 113.5t-102 249.5v10h375q0 -94 111 -94q108 0 108 80q0 37 -25.5 56.5t-97.5 25.5q-122 10 -203.5 28.5t-140.5 54t-85.5 90.5
t-26.5 136v20q0 78 24.5 141t67 105t102.5 70t128.5 40.5t148.5 12.5q471 0 471 -377v-10h-369q0 104 -102 104q-50 0 -76.5 -20t-26.5 -53q0 -39 25 -55.5t94 -22.5q91 -8 154.5 -18t127 -32t102 -54t62 -83.5t23.5 -121.5v-21q0 -167 -103.5 -264.5t-306.5 -112.5l-20 -49
q93 -8 149 -53t56 -127q0 -186 -256 -186q-74 0 -135.5 16t-92.5 37z" />
    <glyph glyph-name="Scaron" unicode="&#x160;" horiz-adv-x="1310" 
d="M596 641q-136 18 -229.5 49.5t-162 86t-100.5 137t-32 198.5v23q0 228 150 359.5t433 131.5q303 0 443.5 -134.5t140.5 -424.5v-43h-389q0 138 -45 202t-150 64h-20q-82 0 -125 -40.5t-43 -104.5v-8q0 -53 16.5 -83.5t71.5 -54.5t160 -38q136 -18 231 -49.5t165.5 -86
t104 -137.5t33.5 -199v-22q0 -237 -152 -366.5t-442 -129.5q-298 0 -446 134.5t-148 429.5v18h390q0 -131 46.5 -188.5t147.5 -57.5h21q94 0 141 43t47 107v8q0 75 -52.5 115t-205.5 61zM195 1946h337l123 -82l123 82h338l-266 -226h-389z" />
    <glyph glyph-name="scaron" unicode="&#x161;" horiz-adv-x="1085" 
d="M543 254q108 0 108 80q0 37 -25.5 56.5t-97.5 25.5q-122 10 -203.5 28.5t-140.5 54t-85.5 90.5t-26.5 136v20q0 78 24.5 141t67 105t102.5 70t128.5 40.5t148.5 12.5q471 0 471 -377v-10h-369q0 104 -102 104q-50 0 -76.5 -20t-26.5 -53q0 -39 25 -55.5t94 -22.5
q91 -8 154.5 -18t127 -32t102 -54t62 -83.5t23.5 -121.5v-21q0 -182 -122 -280.5t-363 -98.5q-235 0 -360.5 97.5t-125.5 269.5v10h375q0 -94 111 -94zM82 1597h328l133 -151l133 151h328l-277 -389h-369z" />
    <glyph glyph-name="Tcommaaccent" unicode="&#x162;" horiz-adv-x="1167" 
d="M778 1262v-1262h-389v1262h-358v335h1106v-335h-359zM748 -82v-123q0 -144 -78 -205t-250 -61v123q140 0 180 61h-180v205h328z" />
    <glyph glyph-name="tcommaaccent" unicode="&#x163;" horiz-adv-x="901" 
d="M571 1085h260v-327h-260v-318q0 -86 36.5 -115.5t109.5 -29.5q23 0 54.5 4.5t39.5 7.5v-307q-52 -29 -182 -29q-207 0 -320.5 100.5t-113.5 327.5v359h-164v327h164v308h376v-308zM655 -82v-123q0 -144 -77.5 -205t-249.5 -61v123q140 0 180 61h-180v205h327z" />
    <glyph glyph-name="Tcaron" unicode="&#x164;" horiz-adv-x="1167" 
d="M778 1262v-1262h-389v1262h-358v335h1106v-335h-359zM123 1946h338l123 -82l123 82h337l-266 -226h-389z" />
    <glyph glyph-name="tcaron" unicode="&#x165;" horiz-adv-x="901" 
d="M571 1085h260v-327h-260v-318q0 -86 36.5 -115.5t109.5 -29.5q23 0 54.5 4.5t39.5 7.5v-307q-52 -29 -182 -29q-207 0 -320.5 100.5t-113.5 327.5v359h-164v327h164v308h376v-308zM674 1638h215l-51 -430h-164v430z" />
    <glyph glyph-name="Tbar" unicode="&#x166;" horiz-adv-x="1167" 
d="M778 1262v-293h226v-307h-226v-662h-389v662h-225v307h225v293h-358v335h1106v-335h-359z" />
    <glyph glyph-name="tbar" unicode="&#x167;" horiz-adv-x="901" 
d="M571 1085h260v-327h-260v-82h179v-266h-177q6 -67 42 -91t102 -24q23 0 54.5 4.5t39.5 7.5v-307q-52 -29 -182 -29q-207 0 -320.5 100.5t-113.5 327.5v11h-123v266h123v82h-164v327h164v308h376v-308z" />
    <glyph glyph-name="Utilde" unicode="&#x168;" horiz-adv-x="1372" 
d="M686 -29q-114 0 -204.5 16t-155.5 48.5t-110.5 77.5t-72.5 106.5t-39 131.5t-12 157v1089h389v-1079q0 -51 8.5 -87t30 -65.5t63 -44t103.5 -14.5t103.5 14.5t63 44t30 65.5t8.5 87v1079h389v-1089q0 -87 -12 -157t-39 -131.5t-72.5 -106.5t-110.5 -77.5t-155.5 -48.5
t-204.5 -16zM891 1946h194q0 -136 -64 -197t-161 -61q-57 0 -118.5 23.5t-112 47t-80.5 23.5q-68 0 -68 -62h-194q0 136 64 197t161 61q57 0 118.5 -23.5t112 -47t80.5 -23.5q68 0 68 62z" />
    <glyph glyph-name="utilde" unicode="&#x169;" horiz-adv-x="1218" 
d="M90 1085h377v-665q0 -125 115 -125q55 0 96 26.5t61 57.5v706h377v-778l21 -307h-340l-27 133q-118 -162 -342 -162q-92 0 -160 32.5t-105.5 89t-55 122.5t-17.5 143v727zM797 1597h245q0 -182 -68 -271t-177 -89q-57 0 -121.5 26t-119 52t-87.5 26q-61 0 -61 -71h-246
q0 182 68.5 271t177.5 89q57 0 121 -26t118.5 -52t87.5 -26q62 0 62 71z" />
    <glyph glyph-name="Umacron" unicode="&#x16a;" horiz-adv-x="1372" 
d="M686 -29q-114 0 -204.5 16t-155.5 48.5t-110.5 77.5t-72.5 106.5t-39 131.5t-12 157v1089h389v-1079q0 -51 8.5 -87t30 -65.5t63 -44t103.5 -14.5t103.5 14.5t63 44t30 65.5t8.5 87v1079h389v-1089q0 -87 -12 -157t-39 -131.5t-72.5 -106.5t-110.5 -77.5t-155.5 -48.5
t-204.5 -16zM358 1720v226h656v-226h-656z" />
    <glyph glyph-name="umacron" unicode="&#x16b;" horiz-adv-x="1218" 
d="M90 1085h377v-665q0 -125 115 -125q55 0 96 26.5t61 57.5v706h377v-778l21 -307h-340l-27 133q-118 -162 -342 -162q-92 0 -160 32.5t-105.5 89t-55 122.5t-17.5 143v727zM274 1239v328h656v-328h-656z" />
    <glyph glyph-name="Ubreve" unicode="&#x16c;" horiz-adv-x="1372" 
d="M686 -29q-114 0 -204.5 16t-155.5 48.5t-110.5 77.5t-72.5 106.5t-39 131.5t-12 157v1089h389v-1079q0 -51 8.5 -87t30 -65.5t63 -44t103.5 -14.5t103.5 14.5t63 44t30 65.5t8.5 87v1079h389v-1089q0 -87 -12 -157t-39 -131.5t-72.5 -106.5t-110.5 -77.5t-155.5 -48.5
t-204.5 -16zM686 1688q-118 0 -200 20.5t-123.5 58t-58.5 80.5t-17 99h256q0 -62 143 -62t143 62h256q0 -56 -17 -99t-58.5 -80.5t-123.5 -58t-200 -20.5z" />
    <glyph glyph-name="ubreve" unicode="&#x16d;" horiz-adv-x="1218" 
d="M90 1085h377v-665q0 -125 115 -125q55 0 96 26.5t61 57.5v706h377v-778l21 -307h-340l-27 133q-118 -162 -342 -162q-92 0 -160 32.5t-105.5 89t-55 122.5t-17.5 143v727zM602 1180q-111 0 -190.5 31t-125 88t-65.5 131t-18 167h266q0 -77 36.5 -106t96.5 -29t96.5 29
t36.5 106h266q2 -93 -18 -167t-65.5 -131t-125 -88t-190.5 -31z" />
    <glyph glyph-name="Uring" unicode="&#x16e;" horiz-adv-x="1372" 
d="M686 -29q-114 0 -204.5 16t-155.5 48.5t-110.5 77.5t-72.5 106.5t-39 131.5t-12 157v1089h389v-1079q0 -51 8.5 -87t30 -65.5t63 -44t103.5 -14.5t103.5 14.5t63 44t30 65.5t8.5 87v1079h389v-1089q0 -87 -12 -157t-39 -131.5t-72.5 -106.5t-110.5 -77.5t-155.5 -48.5
t-204.5 -16zM463 1751q0 92 65.5 157.5t157.5 65.5t157.5 -65.5t65.5 -157.5t-65.5 -157.5t-157.5 -65.5t-157.5 65.5t-65.5 157.5zM586 1751q0 -41 29.5 -70.5t70.5 -29.5t70.5 29.5t29.5 70.5t-29.5 70.5t-70.5 29.5t-70.5 -29.5t-29.5 -70.5z" />
    <glyph glyph-name="uring" unicode="&#x16f;" horiz-adv-x="1218" 
d="M90 1085h377v-665q0 -125 115 -125q55 0 96 26.5t61 57.5v706h377v-778l21 -307h-340l-27 133q-118 -162 -342 -162q-92 0 -160 32.5t-105.5 89t-55 122.5t-17.5 143v727zM379 1403q0 92 65.5 157.5t157.5 65.5t157.5 -65.5t65.5 -157.5t-65.5 -157.5t-157.5 -65.5
t-157.5 65.5t-65.5 157.5zM502 1403q0 -41 29.5 -70.5t70.5 -29.5t70.5 29.5t29.5 70.5t-29.5 70.5t-70.5 29.5t-70.5 -29.5t-29.5 -70.5z" />
    <glyph glyph-name="Uhungarumlaut" unicode="&#x170;" horiz-adv-x="1372" 
d="M686 -29q-114 0 -204.5 16t-155.5 48.5t-110.5 77.5t-72.5 106.5t-39 131.5t-12 157v1089h389v-1079q0 -51 8.5 -87t30 -65.5t63 -44t103.5 -14.5t103.5 14.5t63 44t30 65.5t8.5 87v1079h389v-1089q0 -87 -12 -157t-39 -131.5t-72.5 -106.5t-110.5 -77.5t-155.5 -48.5
t-204.5 -16zM813 1946h354l-131 -226h-331zM424 1946h354l-110 -226h-332z" />
    <glyph glyph-name="uhungarumlaut" unicode="&#x171;" horiz-adv-x="1218" 
d="M90 1085h377v-665q0 -125 115 -125q55 0 96 26.5t61 57.5v706h377v-778l21 -307h-340l-27 133q-118 -162 -342 -162q-92 0 -160 32.5t-105.5 89t-55 122.5t-17.5 143v727zM408 1597h331l-168 -389h-290zM817 1597h332l-227 -389h-291z" />
    <glyph glyph-name="Uogonek" unicode="&#x172;" horiz-adv-x="1372" 
d="M834 -119q0 -29 21 -47t56 -18q44 0 74 20l84 -225q-35 -22 -95.5 -37.5t-125.5 -15.5q-135 0 -213 57.5t-78 169.5q0 105 61 188q-150 7 -254 45.5t-162.5 110t-84 163t-25.5 216.5v1089h389v-1079q0 -51 8.5 -87t30 -65.5t63 -44t103.5 -14.5t103.5 14.5t63 44t30 65.5
t8.5 87v1079h389v-1089q0 -207 -78 -335.5t-256 -172.5q-57 -14 -84.5 -47t-27.5 -72z" />
    <glyph glyph-name="uogonek" unicode="&#x173;" horiz-adv-x="1218" 
d="M1024 -119q0 -29 21.5 -47t56.5 -18q44 0 74 20l84 -225q-35 -22 -96 -37.5t-126 -15.5q-135 0 -212.5 57.5t-77.5 169.5q0 100 55 180l-33 168q-118 -162 -342 -162q-92 0 -160 32.5t-105.5 89t-55 122.5t-17.5 143v727h377v-665q0 -125 115 -125q55 0 96 26.5t61 57.5
v706h377v-778l21 -307q-113 -51 -113 -119z" />
    <glyph glyph-name="Wcircumflex" unicode="&#x174;" horiz-adv-x="1945" 
d="M1171 0l-198 1151l-201 -1151h-493l-254 1597h405l123 -1060l180 1060h479l181 -1060l123 1060h405l-254 -1597h-496zM850 1720h-338l266 226h389l267 -226h-338l-123 80z" />
    <glyph glyph-name="wcircumflex" unicode="&#x175;" horiz-adv-x="1597" 
d="M799 696l-123 -696h-471l-174 1085h368l52 -675l122 675h451l123 -675l51 675h369l-174 -1085h-471zM666 1208h-328l276 389h369l277 -389h-328l-133 150z" />
    <glyph glyph-name="Ycircumflex" unicode="&#x176;" horiz-adv-x="1310" 
d="M850 492v-492h-389v492l-453 1105h426l221 -626l222 626h426zM532 1720h-337l266 226h389l266 -226h-338l-123 80z" />
    <glyph glyph-name="ycircumflex" unicode="&#x177;" horiz-adv-x="1167" 
d="M584 451l174 634h409l-379 -1024l-135 -471h-450l176 471l-379 1024h410zM451 1208h-328l276 389h369l276 -389h-327l-133 150z" />
    <glyph glyph-name="Ydieresis" unicode="&#x178;" horiz-adv-x="1310" 
d="M850 492v-492h-389v492l-453 1105h426l221 -626l222 626h426zM993 1946v-226h-307v226h307zM625 1946v-226h-308v226h308z" />
    <glyph glyph-name="Zacute" unicode="&#x179;" horiz-adv-x="1249" 
d="M547 1946h395l-131 -226h-373zM82 266l590 1004l-303 -8h-267v335h1045v-266l-590 -1003l303 8h307v-336h-1085v266z" />
    <glyph glyph-name="zacute" unicode="&#x17a;" horiz-adv-x="1044" 
d="M522 1597h414l-227 -389h-373zM41 258l446 508l-221 -8h-205v327h922v-258l-446 -508l221 9h246v-328h-963v258z" />
    <glyph glyph-name="Zdotaccent" unicode="&#x17b;" horiz-adv-x="1249" 
d="M82 266l590 1004l-303 -8h-267v335h1045v-266l-590 -1003l303 8h307v-336h-1085v266zM778 1946v-226h-307v226h307z" />
    <glyph glyph-name="zdotaccent" unicode="&#x17c;" horiz-adv-x="1044" 
d="M717 1597v-389h-389v389h389zM41 258l446 508l-221 -8h-205v327h922v-258l-446 -508l221 9h246v-328h-963v258z" />
    <glyph glyph-name="Zcaron" unicode="&#x17d;" horiz-adv-x="1249" 
d="M164 1946h338l123 -82l123 82h337l-266 -226h-389zM82 266l590 1004l-303 -8h-267v335h1045v-266l-590 -1003l303 8h307v-336h-1085v266z" />
    <glyph glyph-name="zcaron" unicode="&#x17e;" horiz-adv-x="1044" 
d="M61 1597h328l133 -151l133 151h328l-276 -389h-369zM41 258l446 508l-221 -8h-205v327h922v-258l-446 -508l221 9h246v-328h-963v258z" />
    <glyph glyph-name="Scommaaccent" unicode="&#x218;" horiz-adv-x="1310" 
d="M596 641q-136 18 -229.5 49.5t-162 86t-100.5 137t-32 198.5v23q0 228 150 359.5t433 131.5q303 0 443.5 -134.5t140.5 -424.5v-43h-389q0 138 -45 202t-150 64h-20q-82 0 -125 -40.5t-43 -104.5v-8q0 -53 16.5 -83.5t71.5 -54.5t160 -38q136 -18 231 -49.5t165.5 -86
t104 -137.5t33.5 -199v-22q0 -237 -152 -366.5t-442 -129.5q-298 0 -446 134.5t-148 429.5v18h390q0 -131 46.5 -188.5t147.5 -57.5h21q94 0 141 43t47 107v8q0 75 -52.5 115t-205.5 61zM819 -82v-123q0 -144 -77.5 -205t-249.5 -61v123q140 0 180 61h-180v205h327z" />
    <glyph glyph-name="scommaaccent" unicode="&#x219;" horiz-adv-x="1085" 
d="M543 254q108 0 108 80q0 37 -25.5 56.5t-97.5 25.5q-122 10 -203.5 28.5t-140.5 54t-85.5 90.5t-26.5 136v20q0 78 24.5 141t67 105t102.5 70t128.5 40.5t148.5 12.5q471 0 471 -377v-10h-369q0 104 -102 104q-50 0 -76.5 -20t-26.5 -53q0 -39 25 -55.5t94 -22.5
q91 -8 154.5 -18t127 -32t102 -54t62 -83.5t23.5 -121.5v-21q0 -182 -122 -280.5t-363 -98.5q-235 0 -360.5 97.5t-125.5 269.5v10h375q0 -94 111 -94zM707 -82v-123q0 -144 -78 -205t-250 -61v123q140 0 180 61h-180v205h328z" />
    <glyph glyph-name="Ymacron" unicode="&#x232;" horiz-adv-x="1310" 
d="M850 492v-492h-389v492l-453 1105h426l221 -626l222 626h426zM328 1720v226h655v-226h-655z" />
    <glyph glyph-name="ymacron" unicode="&#x233;" horiz-adv-x="1167" 
d="M584 451l174 634h409l-379 -1024l-135 -471h-450l176 471l-379 1024h410zM256 1239v328h655v-328h-655z" />
    <glyph glyph-name="dotlessj" unicode="&#x237;" horiz-adv-x="573" 
d="M98 31v1054h377v-1095q0 -227 -113.5 -327.5t-320.5 -100.5q-132 0 -182 28v308q9 -4 40 -8.5t54 -4.5q72 0 108.5 30t36.5 116z" />
    <glyph glyph-name="circumflex" unicode="&#x2c6;" horiz-adv-x="1024" 
d="M379 1208h-328l277 389h368l277 -389h-328l-133 150z" />
    <glyph glyph-name="caron" unicode="&#x2c7;" horiz-adv-x="1024" 
d="M51 1597h328l133 -151l133 151h328l-277 -389h-368z" />
    <glyph glyph-name="breve" unicode="&#x2d8;" horiz-adv-x="1024" 
d="M512 1180q-111 0 -190.5 31t-125 88t-65.5 131t-18 167h266q0 -77 36.5 -106t96.5 -29t96.5 29t36.5 106h266q2 -93 -18 -167t-65.5 -131t-125 -88t-190.5 -31z" />
    <glyph glyph-name="dotaccent" unicode="&#x2d9;" horiz-adv-x="1024" 
d="M707 1597v-389h-390v389h390z" />
    <glyph glyph-name="ring" unicode="&#x2da;" horiz-adv-x="1024" 
d="M289 1403q0 92 65.5 157.5t157.5 65.5t157.5 -65.5t65.5 -157.5t-65.5 -157.5t-157.5 -65.5t-157.5 65.5t-65.5 157.5zM412 1403q0 -41 29.5 -70.5t70.5 -29.5t70.5 29.5t29.5 70.5t-29.5 70.5t-70.5 29.5t-70.5 -29.5t-29.5 -70.5z" />
    <glyph glyph-name="ogonek" unicode="&#x2db;" horiz-adv-x="1232" 
d="M492 -119q0 -29 21 -47t56 -18q44 0 74 20l84 -225q-35 -22 -95.5 -37.5t-125.5 -15.5q-135 0 -213 57.5t-78 169.5q0 68 28.5 130t76 107.5t104.5 78.5t119 51l61 -152q-112 -50 -112 -119z" />
    <glyph glyph-name="tilde" unicode="&#x2dc;" horiz-adv-x="1024" 
d="M707 1597h245q0 -182 -68 -271t-177 -89q-57 0 -121.5 26t-119 52t-87.5 26q-62 0 -62 -71h-245q0 182 68 271t177 89q57 0 121.5 -26t119 -52t87.5 -26q62 0 62 71z" />
    <glyph glyph-name="hungarumlaut" unicode="&#x2dd;" horiz-adv-x="1024" 
d="M727 1597h332l-228 -389h-290zM317 1597h332l-168 -389h-291z" />
    <glyph glyph-name="Bdotaccent" unicode="&#x1e02;" horiz-adv-x="1320" 
d="M102 1597h564q83 0 149 -8.5t139 -36.5t121.5 -75.5t80.5 -132.5t32 -201v-41q0 -186 -133 -277q174 -94 174 -313v-41q0 -87 -17.5 -157t-47 -118.5t-73.5 -84.5t-90 -57t-104.5 -33.5t-109.5 -16.5t-111 -4h-574v1597zM686 647h-194v-311h194q27 0 50.5 6t47.5 20.5
t38 45.5t14 75v17q0 44 -14 75t-38 45.5t-47.5 20.5t-50.5 6zM659 1262h-167v-279h167q136 0 136 127v25q0 127 -136 127zM778 1946v-226h-307v226h307z" />
    <glyph glyph-name="bdotaccent" unicode="&#x1e03;" horiz-adv-x="1198" 
d="M477 1638v-634q102 110 271 110q109 0 187.5 -37.5t124 -109.5t66.5 -166t21 -217v-82q0 -98 -13 -177.5t-42 -146t-75 -112t-113.5 -70.5t-155.5 -25q-202 0 -306 154l-22 -125h-340l20 307v1331h377zM477 707v-328q20 -31 61.5 -57.5t96.5 -26.5q74 0 105.5 51.5
t31.5 155.5v82q0 104 -31.5 155.5t-105.5 51.5q-55 0 -96.5 -26.5t-61.5 -57.5zM442 1946v-226h-307v226h307z" />
    <glyph glyph-name="Ddotaccent" unicode="&#x1e0a;" horiz-adv-x="1372" 
d="M1305 758q0 -210 -37 -352t-120.5 -234t-213 -132t-320.5 -40h-512v1597h512q191 0 320 -40t213 -131.5t121 -233.5t37 -352v-82zM492 336h102q98 0 161 26t96.5 83t45.5 129t12 184v82q0 111 -12 183.5t-45.5 129.5t-96.5 83t-161 26h-102v-926zM809 1946v-226h-307v226
h307z" />
    <glyph glyph-name="ddotaccent" unicode="&#x1e0b;" horiz-adv-x="1218" 
d="M469 1114q168 0 270 -110v634h377v-1331l21 -307h-340l-25 125q-104 -154 -303 -154q-88 0 -155.5 25t-113.5 70.5t-75 112t-42 146t-13 177.5v82q0 123 21 217t66.5 166t124 109.5t187.5 37.5zM739 379v328q-20 31 -61 57.5t-96 26.5q-74 0 -106 -51.5t-32 -155.5v-82
q0 -104 32 -155.5t106 -51.5q55 0 96 26.5t61 57.5zM1081 1946v-226h-307v226h307z" />
    <glyph glyph-name="Fdotaccent" unicode="&#x1e1e;" horiz-adv-x="1146" 
d="M102 1597h1004v-335h-614v-279h512v-336h-512v-647h-390v1597zM758 1946v-226h-307v226h307z" />
    <glyph glyph-name="fdotaccent" unicode="&#x1e1f;" horiz-adv-x="860" 
d="M571 1198v-113h220v-327h-220v-758h-376v758h-164v327h164v154q0 227 113.5 327.5t320.5 100.5q130 0 182 -29v-307q-8 3 -39.5 7.5t-54.5 4.5q-73 0 -109.5 -29.5t-36.5 -115.5zM655 1946v-226h-307v226h307z" />
    <glyph glyph-name="Mdotaccent" unicode="&#x1e40;" horiz-adv-x="1822" 
d="M1341 922l-229 -922h-401l-230 922l11 -308v-614h-390v1597h580l229 -921l230 921h579v-1597h-389v614zM1065 1946v-226h-307v226h307z" />
    <glyph glyph-name="mdotaccent" unicode="&#x1e41;" horiz-adv-x="1802" 
d="M1712 0h-377v676q0 115 -104 115q-87 0 -135 -74v-717h-377v676q0 115 -105 115q-87 0 -135 -74v-717h-377v778l-20 307h340l22 -124q113 153 324 153q202 0 285 -166q112 166 331 166q86 0 150.5 -29.5t102.5 -82.5t56.5 -119.5t18.5 -145.5v-737zM1104 1597v-389h-389
v389h389z" />
    <glyph glyph-name="Pdotaccent" unicode="&#x1e56;" horiz-adv-x="1269" 
d="M492 549v-549h-390v1597h551q64 0 117.5 -4.5t114.5 -18t108.5 -36t93 -61t76 -90t48.5 -126.5t18 -167v-41q0 -92 -18 -167t-48.5 -126.5t-76 -90t-93 -61.5t-108.5 -36.5t-114.5 -18t-117.5 -4.5h-161zM492 885h178q166 0 166 180v16q0 181 -166 181h-178v-377z
M758 1946v-226h-307v226h307z" />
    <glyph glyph-name="pdotaccent" unicode="&#x1e57;" horiz-adv-x="1198" 
d="M748 -29q-171 0 -271 111v-492h-377v1188l-20 307h340l22 -127q103 156 306 156q109 0 187.5 -37.5t124 -109.5t66.5 -166t21 -217v-82q0 -98 -13 -177.5t-42 -146t-75 -112t-113.5 -70.5t-155.5 -25zM819 1597v-389h-389v389h389zM635 791q-55 0 -96.5 -26.5
t-61.5 -57.5v-328q20 -31 61.5 -57.5t96.5 -26.5q74 0 105.5 51.5t31.5 155.5v82q0 104 -31.5 155.5t-105.5 51.5z" />
    <glyph glyph-name="Tdotaccent" unicode="&#x1e6a;" horiz-adv-x="1167" 
d="M778 1262v-1262h-389v1262h-358v335h1106v-335h-359zM737 1946v-226h-307v226h307z" />
    <glyph glyph-name="tdotaccent" unicode="&#x1e6b;" horiz-adv-x="901" 
d="M571 1085h260v-327h-260v-318q0 -86 36.5 -115.5t109.5 -29.5q23 0 54.5 4.5t39.5 7.5v-307q-52 -29 -182 -29q-207 0 -320.5 100.5t-113.5 327.5v359h-164v327h164v308h376v-308zM537 1700v-225h-308v225h308z" />
    <glyph glyph-name="Wgrave" unicode="&#x1e80;" horiz-adv-x="1945" 
d="M1171 0l-198 1151l-201 -1151h-493l-254 1597h405l123 -1060l180 1060h479l181 -1060l123 1060h405l-254 -1597h-496zM655 1946h396l108 -226h-373z" />
    <glyph glyph-name="wgrave" unicode="&#x1e81;" horiz-adv-x="1597" 
d="M799 696l-123 -696h-471l-174 1085h368l52 -675l122 675h451l123 -675l51 675h369l-174 -1085h-471zM385 1597h414l186 -389h-373z" />
    <glyph glyph-name="Wacute" unicode="&#x1e82;" horiz-adv-x="1945" 
d="M1171 0l-198 1151l-201 -1151h-493l-254 1597h405l123 -1060l180 1060h479l181 -1060l123 1060h405l-254 -1597h-496zM895 1946h395l-131 -226h-373z" />
    <glyph glyph-name="wacute" unicode="&#x1e83;" horiz-adv-x="1597" 
d="M799 696l-123 -696h-471l-174 1085h368l52 -675l122 675h451l123 -675l51 675h369l-174 -1085h-471zM799 1597h413l-227 -389h-373z" />
    <glyph glyph-name="Wdieresis" unicode="&#x1e84;" horiz-adv-x="1945" 
d="M1171 0l-198 1151l-201 -1151h-493l-254 1597h405l123 -1060l180 1060h479l181 -1060l123 1060h405l-254 -1597h-496zM1311 1946v-226h-307v226h307zM942 1946v-226h-307v226h307z" />
    <glyph glyph-name="wdieresis" unicode="&#x1e85;" horiz-adv-x="1597" 
d="M799 696l-123 -696h-471l-174 1085h368l52 -675l122 675h451l123 -675l51 675h369l-174 -1085h-471zM1229 1597v-389h-389v389h389zM758 1597v-389h-389v389h389z" />
    <glyph glyph-name="Eszett" unicode="&#x1e9e;" horiz-adv-x="1679" 
d="M621 950l219 340h-31q-164 0 -246 -56t-82 -155v-1079h-389v1090q0 261 172 398.5t545 137.5q268 0 477 -76v-266l-207 -321l25 -2q136 -18 231 -49.5t165.5 -86t104 -137.5t33.5 -199v-22q0 -237 -136 -366.5t-396 -129.5q-139 0 -235 27.5t-165 92.5t-101 174t-32 270
v18h390q0 -246 139 -246h20q55 0 88 39t33 111v8q0 73 -46 116t-155 54l-421 49v266z" />
    <glyph glyph-name="Ygrave" unicode="&#x1ef2;" horiz-adv-x="1310" 
d="M850 492v-492h-389v492l-453 1105h426l221 -626l222 626h426zM338 1946h395l109 -226h-373z" />
    <glyph glyph-name="ygrave" unicode="&#x1ef3;" horiz-adv-x="1167" 
d="M584 451l174 634h409l-379 -1024l-135 -471h-450l176 471l-379 1024h410zM170 1597h414l186 -389h-373z" />
    <glyph glyph-name="enspace" unicode="&#x2002;" horiz-adv-x="1024" 
 />
    <glyph glyph-name="emspace" unicode="&#x2003;" horiz-adv-x="2048" 
 />
    <glyph glyph-name="threeperemspace" unicode="&#x2004;" horiz-adv-x="681" 
 />
    <glyph glyph-name="fourperemspace" unicode="&#x2005;" horiz-adv-x="512" 
 />
    <glyph glyph-name="sixperemspace" unicode="&#x2006;" horiz-adv-x="342" 
 />
    <glyph glyph-name="figurespace" unicode="&#x2007;" horiz-adv-x="1228" 
 />
    <glyph glyph-name="punctuationspace" unicode="&#x2008;" horiz-adv-x="368" 
 />
    <glyph glyph-name="thinspace" unicode="&#x2009;" horiz-adv-x="307" 
 />
    <glyph glyph-name="hairspace" unicode="&#x200a;" horiz-adv-x="102" 
 />
    <glyph glyph-name="zerowidthspace" unicode="&#x200b;" horiz-adv-x="0" 
 />
    <glyph glyph-name="figuredash" unicode="&#x2012;" horiz-adv-x="1228" 
d="M82 553v328h1065v-328h-1065z" />
    <glyph glyph-name="endash" unicode="&#x2013;" horiz-adv-x="1024" 
d="M82 553v328h860v-328h-860z" />
    <glyph glyph-name="emdash" unicode="&#x2014;" horiz-adv-x="2048" 
d="M82 553v328h1884v-328h-1884z" />
    <glyph glyph-name="uni2015" unicode="&#x2015;" horiz-adv-x="2457" 
d="M82 553v328h2294v-328h-2294z" />
    <glyph glyph-name="doublebar" unicode="&#x2016;" horiz-adv-x="1024" 
d="M102 -246v1966h369v-1966h-369zM553 -246v1966h369v-1966h-369z" />
    <glyph glyph-name="quoteleft" unicode="&#x2018;" horiz-adv-x="573" 
d="M92 963v307q0 192 98.5 290.5t290.5 98.5v-184q-156 0 -194 -123h194v-389h-389z" />
    <glyph glyph-name="quoteright" unicode="&#x2019;" horiz-adv-x="573" 
d="M481 1597v-307q0 -192 -98.5 -290.5t-290.5 -98.5v184q155 0 193 123h-193v389h389z" />
    <glyph glyph-name="quotesinglbase" unicode="&#x201a;" horiz-adv-x="573" 
d="M481 389v-307q0 -192 -98.5 -290.5t-290.5 -98.5v184q155 0 193 123h-193v389h389z" />
    <glyph glyph-name="reversequoteleft" unicode="&#x201b;" horiz-adv-x="573" 
d="M92 1597h389v-389h-194q38 -123 194 -123v-184q-192 0 -290.5 98.5t-98.5 290.5v307z" />
    <glyph glyph-name="quotedblleft" unicode="&#x201c;" horiz-adv-x="1064" 
d="M92 963v307q0 192 98.5 290.5t290.5 98.5v-184q-156 0 -194 -123h194v-389h-389zM584 963v307q0 192 98.5 290.5t290.5 98.5v-184q-157 0 -195 -123h195v-389h-389z" />
    <glyph glyph-name="quotedblright" unicode="&#x201d;" horiz-adv-x="1064" 
d="M973 1597v-307q0 -192 -98.5 -290.5t-290.5 -98.5v184q154 0 192 123h-192v389h389zM481 1597v-307q0 -192 -98.5 -290.5t-290.5 -98.5v184q155 0 193 123h-193v389h389z" />
    <glyph glyph-name="quotedblbase" unicode="&#x201e;" horiz-adv-x="1064" 
d="M973 389v-307q0 -192 -98.5 -290.5t-290.5 -98.5v184q154 0 192 123h-192v389h389zM481 389v-307q0 -192 -98.5 -290.5t-290.5 -98.5v184q155 0 193 123h-193v389h389z" />
    <glyph glyph-name="reversequotedblleft" unicode="&#x201f;" horiz-adv-x="1064" 
d="M584 1597h389v-389h-195q38 -123 195 -123v-184q-192 0 -290.5 98.5t-98.5 290.5v307zM92 1597h389v-389h-194q38 -123 194 -123v-184q-192 0 -290.5 98.5t-98.5 290.5v307z" />
    <glyph glyph-name="dagger" unicode="&#x2020;" horiz-adv-x="860" 
d="M328 881l10 266h184l10 -266l-10 -267h-184zM809 1362v-205l-266 10v185zM328 1638h204l-10 -266h-184zM51 1157v205l266 -10v-185z" />
    <glyph glyph-name="daggerdbl" unicode="&#x2021;" horiz-adv-x="860" 
d="M328 389l10 266h184l10 -266l-10 -266h-184zM809 870v-204l-266 10v184zM809 1362v-205l-266 10v185zM51 1157v205l266 -10v-185zM328 1638h204l-10 -266h-184zM51 666v204l266 -10v-184zM328 1014h204l-10 -133h-184zM532 1014h-204l10 133h184z" />
    <glyph glyph-name="bullet" unicode="&#x2022;" horiz-adv-x="942" 
d="M819 1065v-696h-696v696h696z" />
    <glyph glyph-name="ellipsis" unicode="&#x2026;" horiz-adv-x="2048" 
d="M563 389v-389h-389v389h389zM1874 389v-389h-389v389h389zM1219 389v-389h-390v389h390z" />
    <glyph glyph-name="perthousand" unicode="&#x2030;" horiz-adv-x="2908" 
d="M852 1245v-41q0 -188 -110 -292.5t-291 -104.5t-291.5 104.5t-110.5 292.5v25q0 188 110.5 292.5t291.5 104.5q88 0 170 -29q88 -34 166.5 -45.5t216.5 -11.5q129 0 255 21.5t193 44.5v-172l-598 -1434h-328l523 1251q-58 -10 -117 -10q-30 0 -80 4zM2056 369v24
q0 188 110.5 293t291.5 105t291 -105t110 -293v-24q0 -188 -110 -293t-291 -105t-291.5 105t-110.5 293zM1196 369v24q0 188 110 293t291 105t291.5 -105t110.5 -293v-24q0 -188 -110.5 -293t-291.5 -105t-291 105t-110 293zM575 1204v25q0 53 -31.5 86t-86.5 33h-13
q-56 0 -87 -33t-31 -86v-25q0 -53 31 -86t87 -33h13q55 0 86.5 33t31.5 86zM1473 393v-24q0 -53 31.5 -86t86.5 -33h13q56 0 87 33t31 86v24q0 53 -31 86t-87 33h-13q-55 0 -86.5 -33t-31.5 -86zM2333 393v-24q0 -53 31.5 -86t86.5 -33h13q56 0 87.5 33.5t31.5 85.5v24
q0 52 -31.5 85.5t-87.5 33.5h-13q-55 0 -86.5 -33t-31.5 -86z" />
    <glyph glyph-name="tripleprime" unicode="&#x2034;" horiz-adv-x="1392" 
d="M82 1597h369l-17 -696h-295zM942 1597h369l-58 -696h-295zM532 1597h328l-16 -696h-295z" />
    <glyph glyph-name="guilsinglleft" unicode="&#x2039;" horiz-adv-x="655" 
d="M553 1178v-328l-199 -154l199 -153v-328l-451 297v369z" />
    <glyph glyph-name="guilsinglright" unicode="&#x203a;" horiz-adv-x="655" 
d="M102 850v328l451 -297v-369l-451 -297v328l199 153z" />
    <glyph glyph-name="interrobang" unicode="&#x203d;" horiz-adv-x="1044" 
d="M645 492h-178l-16 788q-37 -20 -53.5 -71t-16.5 -144h-340v39q0 269 113.5 395.5t377.5 126.5q111 0 197 -24.5t138.5 -64t86.5 -94.5t47 -109.5t13 -114.5q0 -84 -18.5 -150t-48.5 -109.5t-67 -80.5t-75 -73t-71 -76t-57.5 -101t-31.5 -137zM707 389v-389h-390v389h390z
M653 1178q0 73 -59 102l-6 -289q23 46 33.5 69.5t21 57t10.5 60.5z" />
    <glyph glyph-name="fraction" unicode="&#x2044;" horiz-adv-x="409" 
d="M-231 0h-308l1180 1597h307z" />
    <glyph glyph-name="uni2070" unicode="&#x2070;" 
d="M590 1020q0 -105 -77.5 -172.5t-205.5 -67.5t-205 67.5t-77 172.5v354q0 106 76.5 173t205.5 67t206 -67t77 -173v-354zM328 1028v338q0 15 -10 21t-20.5 0t-10.5 -21v-338q0 -15 10.5 -21t20.5 0t10 21z" />
    <glyph glyph-name="uni2074" unicode="&#x2074;" 
d="M561 799h-270v129h-271v190l285 479h256v-436h33v-233h-33v-129zM246 1157h45l4 82z" />
    <glyph glyph-name="uni2075" unicode="&#x2075;" 
d="M25 1055h270v-39q0 -14 14.5 -14t14.5 14v55q0 27 -31 27h-2q-14 0 -27 -8l-233 81l16 426h531v-233h-308l-4 -55q29 22 103 22q110 0 164.5 -70t54.5 -192v-27q0 -57 -15 -102.5t-47 -82.5t-87.5 -57t-131.5 -20q-138 0 -210 65t-72 191v19z" />
    <glyph glyph-name="uni2076" unicode="&#x2076;" 
d="M543 1614v-238q-149 0 -201 -41q-32 -25 -43 -59q35 27 98 27q91 0 141 -65.5t50 -176.5v-21q0 -117 -69 -188.5t-216 -71.5q-144 0 -212 86t-68 224v16q0 243 114 373q71 82 167.5 108.5t238.5 26.5zM319 1016v51q0 13 -14 13t-14 -13v-51q0 -14 14 -14t14 14z" />
    <glyph glyph-name="uni2077" unicode="&#x2077;" 
d="M14 1311v286h584v-167l-246 -631h-295l285 567l-94 -2v-53h-234z" />
    <glyph glyph-name="uni2078" unicode="&#x2078;" 
d="M322 1016v59q0 13 -14.5 13t-14.5 -13v-59q0 -14 14.5 -14t14.5 14zM322 1321v59q0 14 -14.5 14t-14.5 -14v-59q0 -13 14.5 -13t14.5 13zM307 780q-68 0 -121 18t-82 43.5t-47.5 59t-24 60t-5.5 51.5v22q0 62 25 107.5t65 66.5q-40 20 -63 65t-23 105v23q0 23 6 48
t24.5 55.5t47.5 54t80.5 39.5t117.5 16t117.5 -16t81 -39.5t48 -54t24.5 -55.5t6 -48v-23q0 -60 -23 -105t-63 -65q40 -21 65 -66.5t25 -107.5v-22q0 -25 -6 -51.5t-24.5 -60t-47.5 -59.5t-82 -43.5t-121 -17.5z" />
    <glyph glyph-name="uni2079" unicode="&#x2079;" 
d="M68 780v238q152 0 204 41q32 25 43 59q-33 -26 -98 -26q-91 0 -140.5 65t-49.5 176v21q0 118 68.5 189t215.5 71q144 0 212.5 -85.5t68.5 -223.5v-17q0 -242 -115 -373q-49 -56 -118.5 -87.5t-133.5 -39.5t-157 -8zM295 1378v-51q0 -13 14.5 -13t14.5 13v51
q0 14 -14.5 14t-14.5 -14z" />
    <glyph glyph-name="uni207A" unicode="&#x207a;" 
d="M190 1470h234v-155h156v-234h-156v-155h-234v155h-155v234h155v155z" />
    <glyph glyph-name="uni207B" unicode="&#x207b;" 
d="M35 1081v234h545v-234h-545z" />
    <glyph glyph-name="uni207C" unicode="&#x207c;" 
d="M35 1237v233h545v-233h-545zM35 926v233h545v-233h-545z" />
    <glyph glyph-name="uni207D" unicode="&#x207d;" horiz-adv-x="409" 
d="M10 1188v20q0 128 39.5 232.5t91.5 156.5h267q-52 -66 -90.5 -165.5t-38.5 -223.5v-20q0 -124 38.5 -223.5t90.5 -165.5h-267q-52 52 -91.5 156.5t-39.5 232.5z" />
    <glyph glyph-name="uni207E" unicode="&#x207e;" horiz-adv-x="409" 
d="M399 1208v-20q0 -128 -39.5 -232.5t-91.5 -156.5h-266q52 66 90.5 165.5t38.5 223.5v20q0 124 -38.5 223.5t-90.5 165.5h266q52 -52 91.5 -156.5t39.5 -232.5z" />
    <glyph glyph-name="uni2080" unicode="&#x2080;" 
d="M590 221q0 -105 -77.5 -172t-205.5 -67t-205 67t-77 172v354q0 106 76.5 173t205.5 67t206 -67t77 -173v-354zM328 229v338q0 15 -10 21t-20.5 0t-10.5 -21v-338q0 -15 10.5 -21t20.5 0t10 21z" />
    <glyph glyph-name="uni2081" unicode="&#x2081;" 
d="M588 0h-543v231h137v242l-55 -37l-131 191l246 168h211v-564h135v-231z" />
    <glyph glyph-name="uni2082" unicode="&#x2082;" 
d="M584 231v-231h-553v170l264 307q20 23 20 47v58q0 14 -14 14t-14 -14v-50h-256v17q0 137 68.5 201.5t207.5 64.5q67 0 118 -16.5t80.5 -41.5t48 -58t24.5 -61t6 -56v-25q0 -65 -19.5 -110t-66.5 -99l-103 -117h189z" />
    <glyph glyph-name="uni2083" unicode="&#x2083;" 
d="M295 256v-39q0 -13 14.5 -13t14.5 13v45q0 29 -27 29h-92v217h86q24 0 24 20v54q0 14 -14 14t-14 -14v-50h-256v17q0 137 68.5 201.5t207.5 64.5q66 0 117.5 -16t81 -39.5t48 -54t24.5 -55.5t6 -48v-22q0 -60 -23 -105t-63 -65q40 -21 65 -66.5t25 -107.5v-23
q0 -25 -6 -51.5t-24.5 -60t-47.5 -59t-82 -43t-121 -17.5q-138 0 -210 65t-72 191v18h270z" />
    <glyph glyph-name="uni2084" unicode="&#x2084;" 
d="M561 0h-270v129h-271v190l285 480h256v-437h33v-233h-33v-129zM246 358h45l4 82z" />
    <glyph glyph-name="uni2085" unicode="&#x2085;" 
d="M25 256h270v-39q0 -13 14.5 -13t14.5 13v55q0 27 -31 27h-2q-14 0 -27 -8l-233 82l16 426h531v-234h-308l-4 -55q29 22 103 22q110 0 164.5 -70t54.5 -192v-26q0 -57 -15 -102.5t-47 -82.5t-87.5 -57t-131.5 -20q-138 0 -210 65t-72 191v18z" />
    <glyph glyph-name="uni2086" unicode="&#x2086;" 
d="M543 815v-237q-149 0 -201 -41q-32 -25 -43 -60q35 27 98 27q91 0 141 -65.5t50 -176.5v-20q0 -117 -69 -188.5t-216 -71.5q-144 0 -212 85.5t-68 223.5v16q0 243 114 373q71 82 167.5 108.5t238.5 26.5zM319 217v51q0 14 -14 14t-14 -14v-51q0 -13 14 -13t14 13z" />
    <glyph glyph-name="uni2087" unicode="&#x2087;" 
d="M14 512v287h584v-168l-246 -631h-295l285 567l-94 -2v-53h-234z" />
    <glyph glyph-name="uni2088" unicode="&#x2088;" 
d="M322 217v59q0 14 -14.5 14t-14.5 -14v-59q0 -13 14.5 -13t14.5 13zM322 522v60q0 14 -14.5 14t-14.5 -14v-60q0 -14 14.5 -14t14.5 14zM307 -18q-68 0 -121 17.5t-82 43t-47.5 59t-24 60t-5.5 51.5v23q0 62 25 107.5t65 66.5q-40 20 -63 65t-23 105v22q0 23 6 48
t24.5 55.5t47.5 54t80.5 39.5t117.5 16t117.5 -16t81 -39.5t48 -54t24.5 -55.5t6 -48v-22q0 -60 -23 -105t-63 -65q40 -21 65 -66.5t25 -107.5v-23q0 -25 -6 -51.5t-24.5 -60t-47.5 -59t-82 -43t-121 -17.5z" />
    <glyph glyph-name="uni2089" unicode="&#x2089;" 
d="M68 -18v237q152 0 204 41q32 25 43 59q-33 -26 -98 -26q-91 0 -140.5 65.5t-49.5 176.5v20q0 118 68.5 189t215.5 71q144 0 212.5 -85.5t68.5 -223.5v-17q0 -241 -115 -372q-49 -56 -118.5 -87.5t-133.5 -39.5t-157 -8zM295 580v-52q0 -14 14.5 -14t14.5 14v52
q0 14 -14.5 14t-14.5 -14z" />
    <glyph glyph-name="uni208A" unicode="&#x208a;" 
d="M190 672h234v-156h156v-233h-156v-156h-234v156h-155v233h155v156z" />
    <glyph glyph-name="uni208B" unicode="&#x208b;" 
d="M35 283v233h545v-233h-545z" />
    <glyph glyph-name="uni208C" unicode="&#x208c;" 
d="M35 438v234h545v-234h-545zM35 127v233h545v-233h-545z" />
    <glyph glyph-name="uni208D" unicode="&#x208d;" horiz-adv-x="409" 
d="M10 389v21q0 128 39.5 232.5t91.5 156.5h267q-52 -66 -90.5 -165.5t-38.5 -223.5v-21q0 -124 38.5 -223.5t90.5 -165.5h-267q-52 52 -91.5 156.5t-39.5 232.5z" />
    <glyph glyph-name="uni208E" unicode="&#x208e;" horiz-adv-x="409" 
d="M399 410v-21q0 -128 -39.5 -232.5t-91.5 -156.5h-266q52 66 90.5 165.5t38.5 223.5v21q0 124 -38.5 223.5t-90.5 165.5h266q52 -52 91.5 -156.5t39.5 -232.5z" />
    <glyph glyph-name="Euro" unicode="&#x20ac;" horiz-adv-x="1228" 
d="M195 614h-134v328h132q15 355 142 519.5t372 164.5q236 0 343 -122.5t107 -399.5v-80h-328q0 141 -23 203.5t-79 62.5h-20q-61 0 -88.5 -88t-32.5 -260h399l-164 -328h-233q6 -152 33.5 -229.5t85.5 -77.5h20q102 0 102 205h328v-18q0 -277 -107 -400t-343 -123
q-238 0 -364.5 154.5t-147.5 488.5z" />
    <glyph glyph-name="ruble" unicode="&#x20bd;" horiz-adv-x="1228" 
d="M553 549v-62h369v-335h-369v-152h-389v152h-133v335h133v62h-133v336h133v712h428q64 0 117.5 -4.5t114 -18t108.5 -36t93.5 -61t75.5 -90t48 -126.5t18 -167v-41q0 -92 -18 -167t-48 -126.5t-75.5 -90t-93.5 -61.5t-108.5 -36.5t-114 -18t-117.5 -4.5h-39zM553 885h55
q166 0 166 180v16q0 181 -166 181h-55v-377z" />
    <glyph glyph-name="numero" unicode="&#x2116;" horiz-adv-x="2334" 
d="M1311 1597v-1597h-410l-440 881l10 -308v-573h-369v1597h410l440 -880l-10 307v573h369zM1874 770q-202 0 -303 104.5t-101 290.5v68q0 186 101 290.5t303 104.5q200 0 301.5 -105t101.5 -290v-68q0 -185 -101.5 -290t-301.5 -105zM1491 352v281h766v-281h-766z
M1874 1051q41 0 59.5 27.5t18.5 86.5v68q0 59 -18.5 87t-59.5 28t-59.5 -28t-18.5 -87v-68q0 -59 18.5 -86.5t59.5 -27.5z" />
    <glyph glyph-name="published" unicode="&#x2117;" horiz-adv-x="1884" 
d="M115 799q0 168 65.5 321.5t176 264t264 176t321.5 65.5t321.5 -65.5t264 -176t176 -264t65.5 -321.5t-65.5 -321.5t-176 -264.5t-264 -176.5t-321.5 -65.5t-321.5 65.5t-264 176.5t-176 264.5t-65.5 321.5zM238 799q0 -143 55.5 -273.5t150 -225t225 -150.5t273.5 -56
q191 0 353.5 94.5t257 257t94.5 353.5q0 143 -56 273.5t-150.5 225t-225 150t-273.5 55.5t-273.5 -55.5t-225 -150t-150 -225t-55.5 -273.5zM879 606v-289h-336v963h536q53 0 99.5 -8t93 -30.5t79.5 -57.5t53.5 -94t20.5 -136v-22q0 -77 -20.5 -136t-53.5 -94t-79.5 -57.5
t-93 -30.5t-99.5 -8h-200zM879 850h120q88 0 88 88v10q0 88 -88 88h-120v-186z" />
    <glyph glyph-name="servicemark" unicode="&#x2120;" horiz-adv-x="1167" 
d="M213 1300q-99 13 -142.5 50t-43.5 123v8q0 82 53.5 130t155.5 48q108 0 159 -52t51 -157v-14h-143q0 49 -15 72.5t-52 23.5h-9q-24 0 -38.5 -13.5t-14.5 -31.5v-4q0 -26 20 -39t66 -21q100 -13 145.5 -49.5t45.5 -120.5v-10q0 -84 -55.5 -131t-159.5 -47q-213 0 -213 209
v4h143q0 -88 70 -88h8q28 0 42.5 14.5t14.5 34.5v4q0 25 -18 37.5t-70 19.5zM944 1386l-76 -301h-151l-76 301l4 -116v-185h-145v553h217l76 -299l75 299h217v-553h-145v185z" />
    <glyph glyph-name="trademark" unicode="&#x2122;" horiz-adv-x="1167" 
d="M311 1513v-428h-145v428h-133v125h413v-125h-135zM944 1386l-76 -301h-151l-76 301l4 -116v-185h-145v553h217l76 -299l75 299h217v-553h-145v185z" />
    <glyph glyph-name="uni2153" unicode="&#x2153;" horiz-adv-x="1638" 
d="M588 799h-543v231h137v242l-55 -37l-131 190l246 168h211v-563h135v-231zM383 0h-307l1179 1597h308zM1319 256v-39q0 -13 14.5 -13t14.5 13v45q0 29 -27 29h-92v217h86q24 0 24 20v54q0 14 -14 14t-14 -14v-50h-256v17q0 137 68.5 201.5t207.5 64.5q66 0 117.5 -16
t81 -39.5t48 -54t24.5 -55.5t6 -48v-22q0 -60 -23 -105t-63 -65q40 -21 65 -66.5t25 -107.5v-23q0 -25 -6 -51.5t-24.5 -60t-47.5 -59t-82 -43t-121 -17.5q-138 0 -210 65t-72 191v18h270z" />
    <glyph glyph-name="uni2154" unicode="&#x2154;" horiz-adv-x="1638" 
d="M584 1030v-231h-553v170l264 307q20 23 20 47v57q0 14 -14 14t-14 -14v-49h-256v17q0 137 68.5 201.5t207.5 64.5q67 0 118 -17t80.5 -41.5t48 -58t24.5 -61.5t6 -56v-24q0 -65 -19.5 -110t-66.5 -99l-103 -117h189zM383 0h-307l1179 1597h308zM1319 256v-39
q0 -13 14.5 -13t14.5 13v45q0 29 -27 29h-92v217h86q24 0 24 20v54q0 14 -14 14t-14 -14v-50h-256v17q0 137 68.5 201.5t207.5 64.5q66 0 117.5 -16t81 -39.5t48 -54t24.5 -55.5t6 -48v-22q0 -60 -23 -105t-63 -65q40 -21 65 -66.5t25 -107.5v-23q0 -25 -6 -51.5t-24.5 -60
t-47.5 -59t-82 -43t-121 -17.5q-138 0 -210 65t-72 191v18h270z" />
    <glyph glyph-name="uni2155" unicode="&#x2155;" horiz-adv-x="1638" 
d="M588 799h-543v231h137v242l-55 -37l-131 190l246 168h211v-563h135v-231zM383 0h-307l1179 1597h308zM1049 256h270v-39q0 -13 14.5 -13t14.5 13v55q0 27 -31 27h-2q-14 0 -27 -8l-233 82l16 426h531v-234h-308l-4 -55q29 22 103 22q110 0 164.5 -70t54.5 -192v-26
q0 -57 -15 -102.5t-47 -82.5t-87.5 -57t-131.5 -20q-138 0 -210 65t-72 191v18z" />
    <glyph glyph-name="uni2156" unicode="&#x2156;" horiz-adv-x="1638" 
d="M584 1030v-231h-553v170l264 307q20 23 20 47v57q0 14 -14 14t-14 -14v-49h-256v17q0 137 68.5 201.5t207.5 64.5q67 0 118 -17t80.5 -41.5t48 -58t24.5 -61.5t6 -56v-24q0 -65 -19.5 -110t-66.5 -99l-103 -117h189zM383 0h-307l1179 1597h308zM1049 256h270v-39
q0 -13 14.5 -13t14.5 13v55q0 27 -31 27h-2q-14 0 -27 -8l-233 82l16 426h531v-234h-308l-4 -55q29 22 103 22q110 0 164.5 -70t54.5 -192v-26q0 -57 -15 -102.5t-47 -82.5t-87.5 -57t-131.5 -20q-138 0 -210 65t-72 191v18z" />
    <glyph glyph-name="uni2157" unicode="&#x2157;" horiz-adv-x="1638" 
d="M295 1055v-39q0 -14 14.5 -14t14.5 14v45q0 29 -27 29h-92v217h86q24 0 24 20v53q0 14 -14 14t-14 -14v-49h-256v17q0 137 68.5 201.5t207.5 64.5q66 0 117.5 -16t81 -39.5t48 -54t24.5 -55.5t6 -48v-23q0 -60 -23 -105t-63 -65q40 -21 65 -66.5t25 -107.5v-22
q0 -25 -6 -51.5t-24.5 -60t-47.5 -59.5t-82 -43.5t-121 -17.5q-138 0 -210 65t-72 191v19h270zM383 0h-307l1179 1597h308zM1049 256h270v-39q0 -13 14.5 -13t14.5 13v55q0 27 -31 27h-2q-14 0 -27 -8l-233 82l16 426h531v-234h-308l-4 -55q29 22 103 22q110 0 164.5 -70
t54.5 -192v-26q0 -57 -15 -102.5t-47 -82.5t-87.5 -57t-131.5 -20q-138 0 -210 65t-72 191v18z" />
    <glyph glyph-name="uni2158" unicode="&#x2158;" horiz-adv-x="1638" 
d="M561 799h-270v129h-271v190l285 479h256v-436h33v-233h-33v-129zM246 1157h45l4 82zM383 0h-307l1179 1597h308zM1049 256h270v-39q0 -13 14.5 -13t14.5 13v55q0 27 -31 27h-2q-14 0 -27 -8l-233 82l16 426h531v-234h-308l-4 -55q29 22 103 22q110 0 164.5 -70t54.5 -192
v-26q0 -57 -15 -102.5t-47 -82.5t-87.5 -57t-131.5 -20q-138 0 -210 65t-72 191v18z" />
    <glyph glyph-name="uni2159" unicode="&#x2159;" horiz-adv-x="1638" 
d="M588 799h-543v231h137v242l-55 -37l-131 190l246 168h211v-563h135v-231zM383 0h-307l1179 1597h308zM1567 815v-237q-149 0 -201 -41q-32 -25 -43 -60q35 27 98 27q91 0 141 -65.5t50 -176.5v-20q0 -117 -69 -188.5t-216 -71.5q-144 0 -212 85.5t-68 223.5v16
q0 243 114 373q71 82 167.5 108.5t238.5 26.5zM1343 217v51q0 14 -14 14t-14 -14v-51q0 -13 14 -13t14 13z" />
    <glyph glyph-name="uni215A" unicode="&#x215a;" horiz-adv-x="1638" 
d="M25 1055h270v-39q0 -14 14.5 -14t14.5 14v55q0 27 -31 27h-2q-14 0 -27 -8l-233 81l16 426h531v-233h-308l-4 -55q29 22 103 22q110 0 164.5 -70t54.5 -192v-27q0 -57 -15 -102.5t-47 -82.5t-87.5 -57t-131.5 -20q-138 0 -210 65t-72 191v19zM383 0h-307l1179 1597h308z
M1567 815v-237q-149 0 -201 -41q-32 -25 -43 -60q35 27 98 27q91 0 141 -65.5t50 -176.5v-20q0 -117 -69 -188.5t-216 -71.5q-144 0 -212 85.5t-68 223.5v16q0 243 114 373q71 82 167.5 108.5t238.5 26.5zM1343 217v51q0 14 -14 14t-14 -14v-51q0 -13 14 -13t14 13z" />
    <glyph glyph-name="uni215B" unicode="&#x215b;" horiz-adv-x="1638" 
d="M588 799h-543v231h137v242l-55 -37l-131 190l246 168h211v-563h135v-231zM383 0h-307l1179 1597h308zM1346 217v59q0 14 -14.5 14t-14.5 -14v-59q0 -13 14.5 -13t14.5 13zM1346 522v60q0 14 -14.5 14t-14.5 -14v-60q0 -14 14.5 -14t14.5 14zM1331 -18q-68 0 -121 17.5
t-82 43t-47.5 59t-24 60t-5.5 51.5v23q0 62 25 107.5t65 66.5q-40 20 -63 65t-23 105v22q0 23 6 48t24.5 55.5t47.5 54t80.5 39.5t117.5 16t117.5 -16t81 -39.5t48 -54t24.5 -55.5t6 -48v-22q0 -60 -23 -105t-63 -65q40 -21 65 -66.5t25 -107.5v-23q0 -25 -6 -51.5
t-24.5 -60t-47.5 -59t-82 -43t-121 -17.5z" />
    <glyph glyph-name="uni215C" unicode="&#x215c;" horiz-adv-x="1638" 
d="M295 1055v-39q0 -14 14.5 -14t14.5 14v45q0 29 -27 29h-92v217h86q24 0 24 20v53q0 14 -14 14t-14 -14v-49h-256v17q0 137 68.5 201.5t207.5 64.5q66 0 117.5 -16t81 -39.5t48 -54t24.5 -55.5t6 -48v-23q0 -60 -23 -105t-63 -65q40 -21 65 -66.5t25 -107.5v-22
q0 -25 -6 -51.5t-24.5 -60t-47.5 -59.5t-82 -43.5t-121 -17.5q-138 0 -210 65t-72 191v19h270zM383 0h-307l1179 1597h308zM1346 217v59q0 14 -14.5 14t-14.5 -14v-59q0 -13 14.5 -13t14.5 13zM1346 522v60q0 14 -14.5 14t-14.5 -14v-60q0 -14 14.5 -14t14.5 14zM1331 -18
q-68 0 -121 17.5t-82 43t-47.5 59t-24 60t-5.5 51.5v23q0 62 25 107.5t65 66.5q-40 20 -63 65t-23 105v22q0 23 6 48t24.5 55.5t47.5 54t80.5 39.5t117.5 16t117.5 -16t81 -39.5t48 -54t24.5 -55.5t6 -48v-22q0 -60 -23 -105t-63 -65q40 -21 65 -66.5t25 -107.5v-23
q0 -25 -6 -51.5t-24.5 -60t-47.5 -59t-82 -43t-121 -17.5z" />
    <glyph glyph-name="uni215D" unicode="&#x215d;" horiz-adv-x="1638" 
d="M25 1055h270v-39q0 -14 14.5 -14t14.5 14v55q0 27 -31 27h-2q-14 0 -27 -8l-233 81l16 426h531v-233h-308l-4 -55q29 22 103 22q110 0 164.5 -70t54.5 -192v-27q0 -57 -15 -102.5t-47 -82.5t-87.5 -57t-131.5 -20q-138 0 -210 65t-72 191v19zM383 0h-307l1179 1597h308z
M1346 217v59q0 14 -14.5 14t-14.5 -14v-59q0 -13 14.5 -13t14.5 13zM1346 522v60q0 14 -14.5 14t-14.5 -14v-60q0 -14 14.5 -14t14.5 14zM1331 -18q-68 0 -121 17.5t-82 43t-47.5 59t-24 60t-5.5 51.5v23q0 62 25 107.5t65 66.5q-40 20 -63 65t-23 105v22q0 23 6 48
t24.5 55.5t47.5 54t80.5 39.5t117.5 16t117.5 -16t81 -39.5t48 -54t24.5 -55.5t6 -48v-22q0 -60 -23 -105t-63 -65q40 -21 65 -66.5t25 -107.5v-23q0 -25 -6 -51.5t-24.5 -60t-47.5 -59t-82 -43t-121 -17.5z" />
    <glyph glyph-name="uni215E" unicode="&#x215e;" horiz-adv-x="1638" 
d="M14 1311v286h584v-167l-246 -631h-295l285 567l-94 -2v-53h-234zM383 0h-307l1179 1597h308zM1346 217v59q0 14 -14.5 14t-14.5 -14v-59q0 -13 14.5 -13t14.5 13zM1346 522v60q0 14 -14.5 14t-14.5 -14v-60q0 -14 14.5 -14t14.5 14zM1331 -18q-68 0 -121 17.5t-82 43
t-47.5 59t-24 60t-5.5 51.5v23q0 62 25 107.5t65 66.5q-40 20 -63 65t-23 105v22q0 23 6 48t24.5 55.5t47.5 54t80.5 39.5t117.5 16t117.5 -16t81 -39.5t48 -54t24.5 -55.5t6 -48v-22q0 -60 -23 -105t-63 -65q40 -21 65 -66.5t25 -107.5v-23q0 -25 -6 -51.5t-24.5 -60
t-47.5 -59t-82 -43t-121 -17.5z" />
    <glyph glyph-name="uni215F" unicode="&#x215f;" horiz-adv-x="1024" 
d="M588 799h-543v231h137v242l-55 -37l-131 190l246 168h211v-563h135v-231zM383 0h-307l1179 1597h308z" />
    <glyph glyph-name="arrowleft" unicode="&#x2190;" horiz-adv-x="1884" 
d="M913 1597h473l-630 -630h985v-336h-985l630 -631h-473l-798 799z" />
    <glyph glyph-name="arrowup" unicode="&#x2191;" horiz-adv-x="1884" 
d="M143 354v473l799 799l799 -799v-473l-631 631v-985h-336v985z" />
    <glyph glyph-name="arrowright" unicode="&#x2192;" horiz-adv-x="1884" 
d="M498 1597h473l798 -798l-798 -799h-473l630 631h-985v336h985z" />
    <glyph glyph-name="arrowdown" unicode="&#x2193;" horiz-adv-x="1884" 
d="M143 770v473l631 -631v985h336v-985l631 631v-473l-799 -799z" />
    <glyph glyph-name="uni2196" unicode="&#x2196;" horiz-adv-x="1884" 
d="M479 0h-336v1597h1598v-335h-1026l1057 -1055l-238 -238l-1055 1057v-1026z" />
    <glyph glyph-name="uni2197" unicode="&#x2197;" horiz-adv-x="1884" 
d="M143 1262v335h1598v-1597h-336v1026l-1055 -1057l-237 238l1056 1055h-1026z" />
    <glyph glyph-name="uni2198" unicode="&#x2198;" horiz-adv-x="1884" 
d="M143 0v336h1026l-1056 1055l237 237l1055 -1057v1026h336v-1597h-1598z" />
    <glyph glyph-name="uni2199" unicode="&#x2199;" horiz-adv-x="1884" 
d="M1741 336v-336h-1598v1597h336v-1026l1055 1057l238 -237l-1057 -1055h1026z" />
    <glyph glyph-name="minus" unicode="&#x2212;" horiz-adv-x="1228" 
d="M82 631v336h1065v-336h-1065z" />
    <glyph glyph-name="approxequal" unicode="&#x2248;" horiz-adv-x="1228" 
d="M381 782q71 0 139.5 -20.5t112.5 -45t97.5 -45t98.5 -20.5q96 0 175 94l174 -174q-58 -93 -142.5 -149.5t-187.5 -56.5q-71 0 -139.5 20.5t-113 45t-98 45t-98.5 20.5q-94 0 -174 -95l-174 174q58 93 142.5 150t187.5 57zM381 1233q71 0 139.5 -20.5t112.5 -45t97.5 -45
t98.5 -20.5q96 0 175 94l174 -174q-58 -93 -142.5 -150t-187.5 -57q-71 0 -139.5 20.5t-113 45t-98 45t-98.5 20.5q-95 0 -174 -94l-174 174q58 93 142.5 150t187.5 57z" />
    <glyph glyph-name="notequal" unicode="&#x2260;" horiz-adv-x="1228" 
d="M82 856v336h629l114 201h258l-114 -201h178v-336h-371l-65 -115h436v-335h-629l-115 -201h-258l115 201h-178v335h371l65 115h-436z" />
    <glyph glyph-name="equivalence" unicode="&#x2261;" horiz-adv-x="1228" 
d="M82 1081v336h1065v-336h-1065zM82 180v336h1065v-336h-1065zM82 631v336h1065v-336h-1065z" />
    <glyph glyph-name="lessequal" unicode="&#x2264;" horiz-adv-x="1228" 
d="M1147 1073l-490 -131l490 -131v-373l-1065 320v368l1065 320v-373zM1147 360v-208l-1065 319v209z" />
    <glyph glyph-name="greaterequal" unicode="&#x2265;" horiz-adv-x="1228" 
d="M82 811l489 131l-489 131v373l1065 -320v-368l-1065 -320v373zM82 152v208l1065 320v-209z" />
    <glyph glyph-name="squaremultiply" unicode="&#x22a0;" horiz-adv-x="1884" 
d="M1741 0h-1598v1597h1598v-1597zM1409 1266h-934v-934h934v934zM743 362l-237 238l199 199l-199 198l237 238l199 -199l199 199l237 -238l-198 -198l198 -199l-237 -238l-199 199z" />
    <glyph glyph-name="house" unicode="&#x2302;" horiz-adv-x="1740" 
d="M1597 0h-1454v922l727 696l727 -696v-922z" />
    <glyph glyph-name="blacksquare" unicode="&#x25a0;" horiz-adv-x="1884" 
d="M1741 0h-1598v1597h1598v-1597z" />
    <glyph glyph-name="blacksquare" unicode="&#xe740;" horiz-adv-x="1884" 
d="M1741 0h-1598v1597h1598v-1597z" />
    <glyph glyph-name="whitesquare" unicode="&#x25a1;" horiz-adv-x="1884" 
d="M1741 0h-1598v1597h1598v-1597zM1409 1266h-934v-934h934v934z" />
    <glyph glyph-name="blacksmallsquare" unicode="&#x25aa;" horiz-adv-x="1392" 
d="M1229 0h-1086v1085h1086v-1085z" />
    <glyph glyph-name="whitesmallsquare" unicode="&#x25ab;" horiz-adv-x="1392" 
d="M143 1085h1086v-1085h-1086v1085zM897 754h-422v-422h422v422z" />
    <glyph glyph-name="triagup" unicode="&#x25b2;" horiz-adv-x="1904" 
d="M1137 1626l643 -1626h-373l-455 1190l-454 -1190h-373l643 1626h369z" />
    <glyph glyph-name="triagrt" unicode="&#x25ba;" horiz-adv-x="1904" 
d="M1790 983v-369l-1626 -643v373l1190 455l-1190 454v373z" />
    <glyph glyph-name="triagdn" unicode="&#x25bc;" horiz-adv-x="1904" 
d="M768 -29l-643 1626h373l454 -1189l455 1189h373l-643 -1626h-369z" />
    <glyph glyph-name="triaglf" unicode="&#x25c4;" horiz-adv-x="1904" 
d="M115 983l1626 643v-373l-1190 -454l1190 -455v-373l-1626 643v369z" />
    <glyph glyph-name="whitecircle" unicode="&#x25cb;" horiz-adv-x="1884" 
d="M115 799q0 168 65.5 321.5t176 264t264 176t321.5 65.5t321.5 -65.5t264 -176t176 -264t65.5 -321.5t-65.5 -321.5t-176 -264.5t-264 -176.5t-321.5 -65.5t-321.5 65.5t-264 176.5t-176 264.5t-65.5 321.5zM446 799q0 -135 66.5 -249t180.5 -180.5t249 -66.5t249 66.5
t180.5 180.5t66.5 249t-66.5 249t-180.5 180t-249 66t-249 -66t-180.5 -180t-66.5 -249z" />
    <glyph glyph-name="whitecircle" unicode="&#x25ef;" horiz-adv-x="1884" 
d="M115 799q0 168 65.5 321.5t176 264t264 176t321.5 65.5t321.5 -65.5t264 -176t176 -264t65.5 -321.5t-65.5 -321.5t-176 -264.5t-264 -176.5t-321.5 -65.5t-321.5 65.5t-264 176.5t-176 264.5t-65.5 321.5zM446 799q0 -135 66.5 -249t180.5 -180.5t249 -66.5t249 66.5
t180.5 180.5t66.5 249t-66.5 249t-180.5 180t-249 66t-249 -66t-180.5 -180t-66.5 -249z" />
    <glyph glyph-name="blackcircle" unicode="&#x25cf;" horiz-adv-x="1884" 
d="M115 799q0 168 65.5 321.5t176 264t264 176t321.5 65.5t321.5 -65.5t264 -176t176 -264t65.5 -321.5t-65.5 -321.5t-176 -264.5t-264 -176.5t-321.5 -65.5t-321.5 65.5t-264 176.5t-176 264.5t-65.5 321.5z" />
    <glyph glyph-name="uni25E2" unicode="&#x25e2;" horiz-adv-x="1904" 
d="M1876 129l-129 -131l-131 -129l-1604 694l262 264l1164 -520l-520 1163l264 263z" />
    <glyph glyph-name="uni25E3" unicode="&#x25e3;" horiz-adv-x="1904" 
d="M158 -2l-129 131l694 1604l264 -263l-520 -1163l1163 520l262 -264l-1603 -694z" />
    <glyph glyph-name="uni25E4" unicode="&#x25e4;" horiz-adv-x="1904" 
d="M29 1473l129 131l131 129l1603 -695l-262 -264l-1163 520l520 -1163l-264 -262z" />
    <glyph glyph-name="uni25E5" unicode="&#x25e5;" horiz-adv-x="1904" 
d="M1747 1604l129 -131l-694 -1604l-264 262l520 1163l-1164 -520l-262 264l1604 695z" />
    <glyph glyph-name="uni2605" unicode="&#x2605;" horiz-adv-x="1802" 
d="M901 369l-532 -389l202 628l-532 387h659l203 627l203 -627h659l-532 -387l203 -628z" />
    <glyph glyph-name="ballotboxwithx" unicode="&#x2612;" horiz-adv-x="1392" 
d="M143 1085h1086v-1085h-1086v1085zM897 754h-422v-422h422v422zM815 672v-258h-258v258h258z" />
    <glyph glyph-name="uni263C" unicode="&#x263c;" horiz-adv-x="1966" 
d="M1067 391l-86 -414l-86 414q0 -80 -59 -135q-17 -16 -61 -45.5t-61.5 -53.5t-17.5 -61q0 -19 6 -37t12 -26l7 -8q-45 13 -69.5 48t-24.5 79q0 61 43 104q41 41 62.5 97t21.5 98l-353 -232l232 352q-53 -53 -135 -53q-19 0 -64.5 8.5t-62.5 8.5q-31 0 -55 -10t-36 -24.5
t-19.5 -29.5t-8.5 -25l-2 -10q-17 31 -17 58q0 59 42.5 100t103.5 41q42 0 89.5 17.5t74.5 35t32 25.5l-413 86l413 86q-80 0 -135 59q-16 18 -37.5 48.5t-34 47t-35.5 30t-52 13.5q-19 0 -37 -6t-26 -12l-9 -6q13 45 48 69.5t79 24.5q61 0 104 -43q41 -41 97 -62.5
t98 -21.5l-232 352l353 -231q-54 54 -54 135q0 19 8.5 64.5t8.5 62.5q0 31 -10 55t-24.5 36t-29 19.5t-24.5 8.5l-10 2q29 16 57 16q59 0 100 -42t41 -103q0 -42 17.5 -89.5t35 -75t25.5 -32.5l86 414l86 -414q0 80 59 135q17 16 61 45.5t61.5 53.5t17.5 61q0 19 -6 37
t-12 26l-7 9q45 -13 69.5 -48t24.5 -79q0 -62 -43 -105q-41 -41 -62.5 -96.5t-21.5 -97.5l353 231l-232 -352q53 53 135 53q19 0 64.5 -8t62.5 -8q31 0 55 10t36 24.5t19.5 29t8.5 24.5l2 10q17 -31 17 -57q0 -59 -42.5 -100t-103.5 -41q-42 0 -89.5 -17.5t-74.5 -35
t-32 -25.5l413 -86l-413 -86q79 0 135 -60q16 -18 37.5 -48.5t34 -47t35.5 -30t52 -13.5q19 0 37 6t26 12l9 7q-13 -45 -48.5 -70t-78.5 -25q-61 0 -104 43q-41 41 -97 62.5t-98 21.5l232 -352l-353 232q54 -54 54 -136q0 -19 -8.5 -64.5t-8.5 -62.5q0 -31 10 -55
t24.5 -35.5t29 -19t24.5 -8.5l10 -2q-31 -17 -57 -17q-59 0 -100 42.5t-41 103.5q0 42 -17.5 89.5t-35 74.5t-25.5 32z" />
    <glyph glyph-name="uni263E" unicode="&#x263e;" horiz-adv-x="1966" 
d="M1278 1491q-181 0 -333.5 -92.5t-241.5 -252t-89 -347.5q0 -141 52.5 -269.5t141.5 -221t212 -147.5t258 -55q99 0 197 31q-218 -157 -492 -157q-167 0 -318.5 65t-261 174.5t-174.5 261t-65 318.5t65 318.5t174.5 261t261 174.5t318.5 65q268 0 492 -158
q-109 31 -197 31z" />
    <glyph glyph-name="spade" unicode="&#x2660;" horiz-adv-x="1843" 
d="M924 1618q66 -99 199 -238t278 -233q60 -39 104 -73t90.5 -79t75.5 -90t47.5 -102t18.5 -119q0 -150 -105 -253t-256 -103q-142 0 -246 93.5t-163 235.5l-6 -2q17 -210 54 -356.5t113 -298.5h-413q76 152 113.5 299t54.5 356l-6 2q-27 -67 -65.5 -124t-89 -104
t-116.5 -74t-139 -27q-151 0 -256 103t-105 253q0 62 18.5 119t47.5 102t75.5 90t90.5 79t104 73q146 95 279 233.5t199 237.5h4z" />
    <glyph glyph-name="club" unicode="&#x2663;" horiz-adv-x="1843" 
d="M715 0q76 152 113.5 299t54.5 356l-6 2q-27 -67 -65.5 -124t-89 -104t-116.5 -74t-139 -27q-151 0 -256 103t-105 253q0 161 99 265t258 104q84 0 172 -47l4 4q-78 118 -78 239q0 154 103.5 261.5t257.5 107.5t257 -107.5t103 -261.5q0 -121 -78 -239l4 -4q88 47 172 47
q159 0 258 -104t99 -265q0 -150 -105 -253t-256 -103q-142 0 -246 93.5t-163 235.5l-6 -2q17 -210 54 -356.5t113 -298.5h-413z" />
    <glyph glyph-name="heart" unicode="&#x2665;" horiz-adv-x="1843" 
d="M924 -20h-4q-59 88 -193.5 259t-284.5 341q-64 73 -114 136.5t-105 148.5t-86 170t-31 161q0 185 107 303.5t285 118.5q92 0 163.5 -25.5t120.5 -73t80.5 -100.5t55.5 -123h8q24 70 55.5 123t80.5 100.5t120.5 73t163.5 25.5q178 0 284.5 -118.5t106.5 -303.5
q0 -76 -31 -161t-86 -170t-105 -148.5t-114 -136.5q-149 -169 -283.5 -340t-193.5 -260z" />
    <glyph glyph-name="diamond" unicode="&#x2666;" horiz-adv-x="1843" 
d="M1673 799q-218 -170 -415 -386t-334 -433h-4q-137 217 -334.5 433t-415.5 386q218 170 415.5 386t334.5 433h4q137 -217 334 -433t415 -386z" />
    <glyph glyph-name="uni267B" unicode="&#x267b;" horiz-adv-x="1966" 
d="M1767 545l2 -4l-196 -342q-41 -60 -60 -77q-44 -38 -120 -38h-117v-100l-232 278l232 277v-101h297q34 0 66.5 11t54.5 27t39.5 31.5t25.5 26.5zM381 250h-4l-197 344q-23 42 -31.5 65.5t-5.5 63t29 82.5l57 100l-86 49l357 64l121 -340l-84 49q-144 -246 -148 -256
q-27 -46 -29 -101.5t10 -87.5zM827 1595v2h396q37 -1 56 -3t46 -11t47 -29t39 -53l57 -100l88 49l-124 -340l-355 64l84 49l-147 256q-27 47 -74 76t-80 35zM410 1225l137 243q21 38 69 64q63 34 131.5 30.5t126.5 -33t80 -69.5l-237 -411zM913 84h-276q-43 0 -90 27
q-45 26 -76 70.5t-42.5 91.5t-9.5 91.5t19 73.5h475v-354zM1651 1079l141 -239q20 -36 20 -90q1 -99 -78 -178.5t-151 -79.5l-237 411z" />
    <glyph glyph-name="uni267C" unicode="&#x267c;" horiz-adv-x="1966" 
d="M598 1321l-106 -188l237 -138l184 320q-17 30 -62 52.5t-98 25.5t-102 -23q-37 -21 -53 -49zM807 1421v-2q4 0 11 -1.5t26.5 -7.5t36.5 -14.5t37.5 -26.5t33.5 -40l115 -199l-66 -38l275 -50l96 265l-67 -39l-45 78q-28 49 -60 62t-86 13h-307zM659 248h215v274h-368
q-13 -22 -15 -57t7.5 -71.5t33.5 -71t58 -54.5q36 -20 69 -20zM467 377h2q-5 10 -10.5 27.5t-5 63t21.5 81.5l115 199l65 -39l-94 264l-276 -49l67 -39l-45 -78q-20 -34 -22.5 -65t4 -48.5t24.5 -50.5zM1563 834l-109 186l-237 -137l184 -320q57 0 118 61.5t60 139.5
q0 42 -16 70zM1546 602l-2 2q-2 -3 -6.5 -8.5t-19.5 -20t-31.5 -25t-42 -19.5t-51.5 -9h-230v78l-180 -215l180 -215v78h90q57 0 85 21.5t55 66.5zM131 799q0 221 108.5 407.5t295 295t407.5 108.5t407.5 -108.5t295 -295t108.5 -407.5t-108.5 -407.5t-295 -295
t-407.5 -108.5t-407.5 108.5t-295 295t-108.5 407.5z" />
    <glyph glyph-name="uni267D" unicode="&#x267d;" horiz-adv-x="1966" 
d="M492 1133l106 188q16 28 53 49q49 26 102 23t98 -25.5t62 -52.5l-184 -320zM807 1419v2h307q54 0 86 -13t60 -62l45 -78l67 39l-96 -265l-275 50l66 38l-115 199q-21 36 -57 58.5t-62 26.5zM874 248h-215q-33 0 -69 20q-34 20 -58 54.5t-33.5 71t-7.5 71.5t15 57h368
v-274zM469 377h-2l-154 266q-18 33 -24.5 50.5t-4 48.5t22.5 65l45 78l-67 39l276 49l94 -264l-65 39l-115 -199q-21 -36 -22.5 -79t7.5 -68zM1454 1020l109 -186q16 -28 16 -70q1 -78 -60 -139.5t-118 -61.5l-184 320zM1544 604l2 -2l-153 -266q-18 -30 -31 -46t-41 -29
t-68 -13h-90v-78l-180 215l180 215v-78h230q42 0 79.5 20.5t54.5 41.5zM123 799q0 167 65 318.5t174.5 261t261 174.5t318.5 65t318.5 -65t261 -174.5t174.5 -261t65 -318.5t-65 -318.5t-174.5 -261t-261 -174.5t-318.5 -65t-318.5 65t-261 174.5t-174.5 261t-65 318.5z
M201 799q0 -202 99 -372.5t269.5 -270t372.5 -99.5t372.5 99.5t269.5 270t99 372.5q0 151 -58.5 288.5t-157.5 236.5t-236.5 157.5t-288.5 58.5t-288.5 -58.5t-236.5 -157.5t-157.5 -236.5t-58.5 -288.5z" />
    <glyph glyph-name="mediumwhitecircle" unicode="&#x26aa;" horiz-adv-x="1372" 
d="M115 543q0 155 76.5 286.5t208 208t286.5 76.5t286.5 -76.5t208 -208t76.5 -286.5q0 -116 -45.5 -222t-121.5 -182.5t-182 -122t-222 -45.5t-222 45.5t-182 122t-121.5 182.5t-45.5 222zM446 543q0 -100 70 -170t170 -70t170 70t70 170t-70 169.5t-170 69.5t-170 -69.5
t-70 -169.5z" />
    <glyph glyph-name="mediumblackcircle" unicode="&#x26ab;" horiz-adv-x="1372" 
d="M115 543q0 155 76.5 286.5t208 208t286.5 76.5t286.5 -76.5t208 -208t76.5 -286.5q0 -116 -45.5 -222t-121.5 -182.5t-182 -122t-222 -45.5t-222 45.5t-182 122t-121.5 182.5t-45.5 222z" />
    <glyph glyph-name="anglebracketleft" unicode="&#x3008;" horiz-adv-x="778" 
d="M754 1720l-332 -983l332 -983h-392l-331 983l331 983h392z" />
    <glyph glyph-name="anglebracketright" unicode="&#x3009;" horiz-adv-x="778" 
d="M25 -246l331 983l-331 983h391l332 -983l-332 -983h-391z" />
    <glyph glyph-name="fi" unicode="&#xe38c;" horiz-adv-x="1433" 
d="M571 1198v-113h220v-327h-220v-758h-376v758h-164v327h164v154q0 227 113.5 327.5t320.5 100.5q130 0 182 -29v-307q-8 3 -39.5 7.5t-54.5 4.5q-73 0 -109.5 -29.5t-36.5 -115.5zM958 0v1085h377v-1085h-377zM1341 1597v-389h-389v389h389z" />
    <glyph glyph-name="fi" unicode="&#xfb01;" horiz-adv-x="1433" 
d="M571 1198v-113h220v-327h-220v-758h-376v758h-164v327h164v154q0 227 113.5 327.5t320.5 100.5q130 0 182 -29v-307q-8 3 -39.5 7.5t-54.5 4.5q-73 0 -109.5 -29.5t-36.5 -115.5zM958 0v1085h377v-1085h-377zM1341 1597v-389h-389v389h389z" />
    <glyph glyph-name="fl" unicode="&#xe38d;" horiz-adv-x="1433" 
d="M571 1198v-113h220v-327h-220v-758h-376v758h-164v327h164v154q0 227 113.5 327.5t320.5 100.5q130 0 182 -29v-307q-8 3 -39.5 7.5t-54.5 4.5q-73 0 -109.5 -29.5t-36.5 -115.5zM958 0v1638h377v-1638h-377z" />
    <glyph glyph-name="fl" unicode="&#xfb02;" horiz-adv-x="1433" 
d="M571 1198v-113h220v-327h-220v-758h-376v758h-164v327h164v154q0 227 113.5 327.5t320.5 100.5q130 0 182 -29v-307q-8 3 -39.5 7.5t-54.5 4.5q-73 0 -109.5 -29.5t-36.5 -115.5zM958 0v1638h377v-1638h-377z" />
    <glyph glyph-name="invertedbreve" unicode="&#xe411;" horiz-adv-x="1024" 
d="M512 1626q111 0 190.5 -31t125 -88.5t65.5 -131.5t18 -167h-266q0 77 -36.5 106t-96.5 29t-96.5 -29t-36.5 -106h-266q-2 93 18 167t65.5 131.5t125 88.5t190.5 31z" />
    <glyph glyph-name="doublegrave" unicode="&#xe412;" horiz-adv-x="1024" 
d="M-35 1597h332l186 -389h-290zM375 1597h332l127 -389h-291z" />
    <glyph glyph-name="caronSlovak" unicode="&#xe413;" horiz-adv-x="1024" 
d="M614 1638h215l-51 -430h-164v430z" />
    <glyph glyph-name="commaaccent" unicode="&#xe414;" horiz-adv-x="1232" 
d="M676 -82v-123q0 -144 -78 -205t-250 -61v123q140 0 180 61h-180v205h328z" />
    <glyph glyph-name="commaaccent" unicode="&#xf6c3;" horiz-adv-x="1232" 
d="M676 -82v-123q0 -144 -78 -205t-250 -61v123q140 0 180 61h-180v205h328z" />
    <glyph glyph-name="dotbelow" unicode="&#xe415;" horiz-adv-x="1232" 
d="M676 -82v-328h-328v328h328z" />
    <glyph glyph-name="altcedilla" unicode="&#xe416;" horiz-adv-x="1232" 
d="M578 -238q0 45 -91 45q-26 0 -56 -5t-38 -9v111q68 20 142 20q106 0 171.5 -45t65.5 -135q0 -186 -256 -186q-74 0 -135 16t-92 37l55 141q58 -35 143 -35q91 0 91 45z" />
    <glyph glyph-name="grave.cap" unicode="&#xe421;" horiz-adv-x="1024" 
d="M195 1946h395l108 -226h-372z" />
    <glyph glyph-name="acute.cap" unicode="&#xe422;" horiz-adv-x="1024" 
d="M434 1946h395l-131 -226h-372z" />
    <glyph glyph-name="circumflex.cap" unicode="&#xe423;" horiz-adv-x="1024" 
d="M389 1720h-338l266 226h390l266 -226h-338l-123 80z" />
    <glyph glyph-name="tilde.cap" unicode="&#xe424;" horiz-adv-x="1024" 
d="M717 1946h194q0 -136 -64 -197t-161 -61q-57 0 -118.5 23.5t-112 47t-80.5 23.5q-68 0 -68 -62h-194q0 136 64 197t161 61q57 0 118.5 -23.5t112 -47t80.5 -23.5q68 0 68 62z" />
    <glyph glyph-name="macron.cap" unicode="&#xe425;" horiz-adv-x="1024" 
d="M184 1720v226h656v-226h-656z" />
    <glyph glyph-name="breve.cap" unicode="&#xe426;" horiz-adv-x="1024" 
d="M512 1688q-118 0 -200 20.5t-123.5 58t-58.5 80.5t-17 99h256q0 -62 143 -62t143 62h256q0 -56 -17 -99t-58.5 -80.5t-123.5 -58t-200 -20.5z" />
    <glyph glyph-name="invertedbreve.cap" unicode="&#xe427;" horiz-adv-x="1024" 
d="M512 1978q118 0 200 -20.5t123.5 -58t58.5 -80.5t17 -99h-256q0 62 -143 62t-143 -62h-256q0 56 17 99t58.5 80.5t123.5 58t200 20.5z" />
    <glyph glyph-name="dotaccent.cap" unicode="&#xe428;" horiz-adv-x="1024" 
d="M666 1946v-226h-308v226h308z" />
    <glyph glyph-name="dieresis.cap" unicode="&#xe429;" horiz-adv-x="1024" 
d="M481 1946v-226h-307v226h307zM850 1946v-226h-307v226h307z" />
    <glyph glyph-name="ring.cap" unicode="&#xe42a;" horiz-adv-x="1024" 
d="M289 1751q0 92 65.5 157.5t157.5 65.5t157.5 -65.5t65.5 -157.5t-65.5 -157.5t-157.5 -65.5t-157.5 65.5t-65.5 157.5zM412 1751q0 -41 29.5 -70.5t70.5 -29.5t70.5 29.5t29.5 70.5t-29.5 70.5t-70.5 29.5t-70.5 -29.5t-29.5 -70.5z" />
    <glyph glyph-name="hungarumlaut.cap" unicode="&#xe42b;" horiz-adv-x="1024" 
d="M250 1946h354l-110 -226h-332zM639 1946h354l-131 -226h-332z" />
    <glyph glyph-name="doublegrave.cap" unicode="&#xe42c;" horiz-adv-x="1024" 
d="M420 1946h354l88 -226h-332zM31 1946h354l109 -226h-332z" />
    <glyph glyph-name="caron.cap" unicode="&#xe42d;" horiz-adv-x="1024" 
d="M51 1946h338l123 -82l123 82h338l-266 -226h-390z" />
    <glyph glyph-name="commaaccent.cap" unicode="&#xe42e;" horiz-adv-x="1024" 
d="M358 1720v41q0 226 308 226v-82q-66 0 -106 -13t-60 -49h166v-123h-308z" />
    <glyph glyph-name="exclamdown.cap" unicode="&#xe441;" horiz-adv-x="573" 
d="M522 0h-471l103 1106h266zM92 1208v389h389v-389h-389z" />
    <glyph glyph-name="questiondown.cap" unicode="&#xe444;" horiz-adv-x="1044" 
d="M512 303q61 0 86 50t25 179h381v-38q0 -269 -114 -396t-378 -127q-111 0 -197 25t-138.5 64.5t-86 94t-46.5 109.5t-13 115q0 84 18.5 150t48.5 109.5t66.5 80.5t75 73t71 76t57 101t31.5 137h267q10 -106 -12.5 -202.5t-62 -165.5t-80 -126.5t-70 -109.5t-29.5 -92
q0 -107 100 -107zM338 1208v389h389v-389h-389z" />
    <glyph glyph-name="guilsinglleft.cap" unicode="&#xe451;" horiz-adv-x="655" 
d="M553 1280v-328l-199 -153l199 -154v-328l-451 297v369z" />
    <glyph glyph-name="guilsinglright.cap" unicode="&#xe452;" horiz-adv-x="655" 
d="M102 952v328l451 -297v-369l-451 -297v328l199 154z" />
    <glyph glyph-name="guillemotleft.cap" unicode="&#xe453;" horiz-adv-x="1187" 
d="M553 1280v-328l-199 -153l199 -154v-328l-451 297v369zM1085 1280v-328l-198 -153l198 -154v-328l-450 297v369z" />
    <glyph glyph-name="guillemotright.cap" unicode="&#xe454;" horiz-adv-x="1187" 
d="M635 952v328l450 -297v-369l-450 -297v328l199 154zM102 952v328l451 -297v-369l-451 -297v328l199 154z" />
    <glyph glyph-name="slash.cap" unicode="&#xe461;" horiz-adv-x="819" 
d="M397 0h-368l393 1597h369z" />
    <glyph glyph-name="backslash.cap" unicode="&#xe462;" horiz-adv-x="819" 
d="M29 1597h368l394 -1597h-369z" />
    <glyph glyph-name="bar.cap" unicode="&#xe463;" horiz-adv-x="573" 
d="M102 0v1597h369v-1597h-369z" />
    <glyph glyph-name="doublebar.cap" unicode="&#xe464;" horiz-adv-x="1024" 
d="M102 0v1597h369v-1597h-369zM553 0v1597h369v-1597h-369z" />
    <glyph glyph-name="brokenbar.cap" unicode="&#xe465;" horiz-adv-x="573" 
d="M102 840v757h369v-757h-369zM102 0v758h369v-758h-369z" />
    <glyph glyph-name="bullet.cap" unicode="&#xe466;" horiz-adv-x="942" 
d="M819 1147v-696h-696v696h696z" />
    <glyph glyph-name="onethirdemdash" unicode="&#xe471;" horiz-adv-x="681" 
d="M600 553h-518v328h518v-328z" />
    <glyph glyph-name="threequarteremdash" unicode="&#xe472;" horiz-adv-x="1536" 
d="M82 553v328h1372v-328h-1372z" />
    <glyph glyph-name="periodcentered.cap" unicode="&#xe481;" horiz-adv-x="573" 
d="M481 993v-389h-389v389h389z" />
    <glyph glyph-name="hyphen.cap" unicode="&#xe482;" horiz-adv-x="655" 
d="M82 635v328h573v-328h-573z" />
    <glyph glyph-name="onethirdemdash.cap" unicode="&#xe483;" horiz-adv-x="681" 
d="M600 635h-518v328h518v-328z" />
    <glyph glyph-name="endash.cap" unicode="&#xe484;" horiz-adv-x="1024" 
d="M82 635v328h860v-328h-860z" />
    <glyph glyph-name="threequarteremdash.cap" unicode="&#xe485;" horiz-adv-x="1536" 
d="M82 635v328h1372v-328h-1372z" />
    <glyph glyph-name="emdash.cap" unicode="&#xe486;" horiz-adv-x="2048" 
d="M82 635v328h1884v-328h-1884z" />
    <glyph glyph-name="figuredash.cap" unicode="&#xe487;" horiz-adv-x="1228" 
d="M82 635v328h1065v-328h-1065z" />
    <glyph glyph-name="uni2015.cap" unicode="&#xe488;" horiz-adv-x="2457" 
d="M82 635v328h2294v-328h-2294z" />
    <glyph glyph-name="parenleft.cap" unicode="&#xe491;" horiz-adv-x="778" 
d="M82 778v41q0 259 67.5 454.5t176.5 323.5h391q-47 -69 -88.5 -146t-81 -176.5t-63 -217.5t-23.5 -238v-41q0 -120 23.5 -238t63 -217.5t81 -176.5t88.5 -146h-391q-109 128 -176.5 323.5t-67.5 454.5z" />
    <glyph glyph-name="parenright.cap" unicode="&#xe492;" horiz-adv-x="778" 
d="M696 819v-41q0 -259 -67.5 -454.5t-175.5 -323.5h-392q47 69 88.5 146t81 176.5t63 217.5t23.5 238v41q0 120 -23.5 238t-63 217.5t-81 176.5t-88.5 146h392q108 -128 175.5 -323.5t67.5 -454.5z" />
    <glyph glyph-name="bracketleft.cap" unicode="&#xe493;" horiz-adv-x="778" 
d="M113 1597h604v-327h-228v-942h228v-328h-604v1597z" />
    <glyph glyph-name="bracketright.cap" unicode="&#xe494;" horiz-adv-x="778" 
d="M666 0h-605v328h228v942h-228v327h605v-1597z" />
    <glyph glyph-name="braceleft.cap" unicode="&#xe495;" horiz-adv-x="778" 
d="M717 1597v-327q-75 0 -110.5 -39.5t-35.5 -124.5v-62q0 -174 -127 -245q127 -74 127 -246v-78q3 -76 38.5 -111.5t107.5 -35.5v-328h-62q-226 0 -343 91t-117 298v82q0 85 -35.5 124.5t-110.5 39.5v328q75 0 110.5 39.5t35.5 123.5v82q0 207 117 298t343 91h62z" />
    <glyph glyph-name="braceright.cap" unicode="&#xe496;" horiz-adv-x="778" 
d="M61 1270v327h62q226 0 343.5 -91t117.5 -298v-82q0 -85 35 -124t110 -39v-328q-75 0 -110 -39.5t-35 -124.5v-82q0 -207 -117.5 -298t-343.5 -91h-62v328q71 0 107 35.5t39 111.5v78q0 171 125 246q-125 72 -125 245v62q0 85 -35.5 124.5t-110.5 39.5z" />
    <glyph glyph-name="anglebracketleft.cap" unicode="&#xe497;" horiz-adv-x="778" 
d="M713 1597l-281 -798l281 -799h-391l-281 799l281 798h391z" />
    <glyph glyph-name="anglebracketright.cap" unicode="&#xe498;" horiz-adv-x="778" 
d="M346 799l-280 798h391l280 -798l-280 -799h-391z" />
    <glyph glyph-name="lowline" unicode="&#xe511;" horiz-adv-x="655" 
d="M82 0v328h491v-328h-491z" />
    <glyph glyph-name="underscoremonospace" unicode="&#xe512;" horiz-adv-x="1228" 
d="M82 -410v328h1065v-328h-1065z" />
    <glyph glyph-name="underscoremonospace" unicode="&#xff3f;" horiz-adv-x="1228" 
d="M82 -410v328h1065v-328h-1065z" />
    <glyph glyph-name="at.cap" unicode="&#xe513;" horiz-adv-x="2048" 
d="M1059 8h12q364 0 676 228l139 -189q-107 -85 -217.5 -143t-217 -86.5t-196.5 -39.5t-190 -11q-222 0 -407 65t-320.5 188t-211 312t-75.5 426v82q0 190 49.5 350.5t139 277.5t214.5 199.5t277 123t324 40.5q155 0 291 -27t257 -88.5t207.5 -153.5t136.5 -229t50 -307v-61
q0 -144 -28.5 -255t-78 -182.5t-122 -117t-154 -64t-180.5 -18.5h-252l-23 112q-92 -141 -274 -141q-179 0 -276 128t-97 345v74q0 217 97 345t276 128q180 0 274 -143l23 114h297l-21 -274v-447q168 10 228.5 95.5t60.5 300.5v61q0 563 -686 563h-12q-165 0 -301 -46.5
t-237.5 -137t-157.5 -235t-56 -330.5v-82q0 -187 55.5 -331t157.5 -235t240.5 -137.5t308.5 -46.5zM989 588q50 0 87 24t54 52v290q-17 28 -54 52t-87 24q-133 0 -133 -184v-74q0 -184 133 -184z" />
    <glyph glyph-name="zero.inf" unicode="&#xe571;" 
d="M590 -188q0 -105 -77.5 -172.5t-205.5 -67.5t-205 67.5t-77 172.5v354q0 106 76.5 173t205.5 67t206 -67t77 -173v-354zM328 -180v338q0 15 -10 21t-20.5 0t-10.5 -21v-338q0 -15 10.5 -21t20.5 0t10 21z" />
    <glyph glyph-name="one.inf" unicode="&#xe572;" 
d="M588 -410h-543v232h137v241l-55 -36l-131 190l246 168h211v-563h135v-232z" />
    <glyph glyph-name="two.inf" unicode="&#xe573;" 
d="M584 -178v-232h-553v170l264 308q20 23 20 47v57q0 14 -14 14t-14 -14v-49h-256v16q0 137 68.5 202t207.5 65q67 0 118 -17t80.5 -41.5t48 -58t24.5 -61.5t6 -56v-25q0 -65 -19.5 -109.5t-66.5 -98.5l-103 -117h189z" />
    <glyph glyph-name="three.inf" unicode="&#xe574;" 
d="M295 -154v-39q0 -13 14.5 -13t14.5 13v46q0 28 -27 28h-92v217h86q24 0 24 21v53q0 14 -14 14t-14 -14v-49h-256v16q0 137 68.5 202t207.5 65q66 0 117.5 -16t81 -39.5t48 -54t24.5 -55.5t6 -48v-23q0 -60 -23 -105t-63 -65q40 -21 65 -66.5t25 -107.5v-23
q0 -25 -6 -51.5t-24.5 -60t-47.5 -59t-82 -43t-121 -17.5q-138 0 -210 65t-72 191v18h270z" />
    <glyph glyph-name="four.inf" unicode="&#xe575;" 
d="M561 -410h-270v129h-271v191l285 479h256v-436h33v-234h-33v-129zM246 -51h45l4 82z" />
    <glyph glyph-name="five.inf" unicode="&#xe576;" 
d="M25 -154h270v-39q0 -13 14.5 -13t14.5 13v56q0 26 -31 26h-2q-14 0 -27 -8l-233 82l16 426h531v-233h-308l-4 -56q31 23 103 23q110 0 164.5 -70t54.5 -192v-27q0 -57 -15 -102.5t-47 -82.5t-87.5 -57t-131.5 -20q-138 0 -210 65t-72 191v18z" />
    <glyph glyph-name="six.inf" unicode="&#xe577;" 
d="M543 406v-238q-149 0 -201 -41q-32 -25 -43 -59q33 26 98 26q91 0 141 -65t50 -176v-21q0 -117 -69 -188.5t-216 -71.5q-144 0 -212 85.5t-68 223.5v17q0 242 114 372q72 82 168.5 109t237.5 27zM319 -193v52q0 13 -14 13t-14 -13v-52q0 -13 14 -13t14 13z" />
    <glyph glyph-name="seven.inf" unicode="&#xe578;" 
d="M14 102v287h584v-168l-246 -631h-295l285 568l-94 -2v-54h-234z" />
    <glyph glyph-name="eight.inf" unicode="&#xe579;" 
d="M322 -193v60q0 13 -14.5 13t-14.5 -13v-60q0 -13 14.5 -13t14.5 13zM322 113v59q0 14 -14.5 14t-14.5 -14v-59q0 -13 14.5 -13t14.5 13zM307 -428q-68 0 -121 17.5t-82 43t-47.5 59t-24 60t-5.5 51.5v23q0 62 25 107.5t65 66.5q-40 20 -63 65t-23 105v23q0 23 6 48
t24.5 55.5t47.5 54t80.5 39.5t117.5 16t117.5 -16t81 -39.5t48 -54t24.5 -55.5t6 -48v-23q0 -60 -23 -105t-63 -65q40 -21 65 -66.5t25 -107.5v-23q0 -25 -6 -51.5t-24.5 -60t-47.5 -59t-82 -43t-121 -17.5z" />
    <glyph glyph-name="nine.inf" unicode="&#xe57a;" 
d="M68 -428v238q154 0 204 40q32 25 43 60q-35 -27 -98 -27q-91 0 -140.5 65.5t-49.5 176.5v20q0 118 68.5 189.5t215.5 71.5q144 0 212.5 -86t68.5 -224v-16q0 -242 -115 -373q-49 -56 -118.5 -87.5t-133.5 -39.5t-157 -8zM295 170v-51q0 -13 14.5 -13t14.5 13v51
q0 14 -14.5 14t-14.5 -14z" />
    <glyph glyph-name="plus.inf" unicode="&#xe57b;" 
d="M190 262h234v-156h156v-233h-156v-156h-234v156h-155v233h155v156z" />
    <glyph glyph-name="minus.inf" unicode="&#xe57c;" 
d="M35 -127v233h545v-233h-545z" />
    <glyph glyph-name="equal.inf" unicode="&#xe57d;" 
d="M35 29v233h545v-233h-545zM35 -283v234h545v-234h-545z" />
    <glyph glyph-name="parenleft.inf" unicode="&#xe57e;" horiz-adv-x="409" 
d="M10 -20v20q0 128 39.5 232.5t91.5 156.5h267q-52 -66 -90.5 -165.5t-38.5 -223.5v-20q0 -124 38.5 -224t90.5 -166h-267q-52 52 -91.5 157t-39.5 233z" />
    <glyph glyph-name="parenright.inf" unicode="&#xe57f;" horiz-adv-x="409" 
d="M399 0v-20q0 -128 -39.5 -233t-91.5 -157h-266q52 66 90.5 166t38.5 224v20q0 124 -38.5 223.5t-90.5 165.5h266q52 -52 91.5 -156.5t39.5 -232.5z" />
    <glyph glyph-name="Anocross" unicode="&#xe731;" horiz-adv-x="1331" 
d="M399 1597h533l381 -1597h-416l-231 1147l-230 -1147h-418z" />
    <glyph glyph-name="idotaccent" unicode="&#xe785;" horiz-adv-x="573" 
d="M98 0v1085h377v-1085h-377zM481 1597v-389h-389v389h389z" />
    <glyph glyph-name="interrobangdown" unicode="&#xe935;" horiz-adv-x="1044" 
d="M31 -51q0 80 18.5 143.5t49 105t67.5 76t75.5 66t71 65t56.5 81.5t30 108h191l14 -678q60 48 60 207h340v-39q0 -269 -114 -395.5t-378 -126.5q-111 0 -197 23.5t-138.5 61t-86 89.5t-46.5 104t-13 109zM338 696v389h389v-389h-389zM412 25q0 -95 53 -119l6 307
q-59 -105 -59 -188z" />
    <glyph glyph-name="interrobangdown.cap" unicode="&#xe99b;" horiz-adv-x="1044" 
d="M31 379q0 84 18.5 150t48.5 109.5t66.5 80.5t75 73t71 76t57 101t31.5 137h179l16 -789q37 20 53.5 71t16.5 144h340v-38q0 -269 -114 -396t-378 -127q-111 0 -197 25t-138.5 64.5t-86 94t-46.5 109.5t-13 115zM338 1208v389h389v-389h-389zM391 420q0 -78 60 -103l6 289
q-23 -46 -34.5 -70t-21.5 -56.5t-10 -59.5z" />
    <glyph glyph-name="registered.cap" unicode="&#xe99c;" horiz-adv-x="1884" 
d="M115 799q0 168 65.5 321.5t176 264t264 176t321.5 65.5t321.5 -65.5t264 -176t176 -264t65.5 -321.5t-65.5 -321.5t-176 -264.5t-264 -176.5t-321.5 -65.5t-321.5 65.5t-264 176.5t-176 264.5t-65.5 321.5zM238 799q0 -143 55.5 -273.5t150 -225t225 -150.5t273.5 -56
q191 0 353.5 94.5t257 257t94.5 353.5q0 143 -56 273.5t-150.5 225t-225 150t-273.5 55.5t-273.5 -55.5t-225 -150t-150 -225t-55.5 -273.5zM838 606v-289h-336v963h536q53 0 99.5 -8t93 -30.5t79.5 -57.5t53.5 -94t20.5 -136v-22q0 -201 -135 -279l135 -336h-354l-86 289
h-106zM838 850h120q89 0 89 88v10q0 88 -89 88h-120v-186z" />
    <glyph glyph-name="period.T" unicode="&#xf182;" 
d="M502 389v-389h-389v389h389z" />
    <glyph glyph-name="comma.T" unicode="&#xf183;" 
d="M502 389v-307q0 -192 -98.5 -290.5t-290.5 -98.5v184q154 0 192 123h-192v389h389z" />
    <glyph glyph-name="colon.T" unicode="&#xf184;" 
d="M502 389v-389h-389v389h389zM502 993v-389h-389v389h389z" />
    <glyph glyph-name="semicolon.T" unicode="&#xf185;" 
d="M502 389v-307q0 -192 -98.5 -290.5t-290.5 -98.5v184q154 0 192 123h-192v389h389zM502 993v-389h-389v389h389z" />
    <glyph glyph-name="onesixteenth" unicode="&#xf215;" horiz-adv-x="2252" 
d="M588 799h-543v231h137v242l-55 -37l-131 190l246 168h211v-563h135v-231zM383 0h-307l1179 1597h308zM1612 0h-543v231h137v242l-55 -37l-131 191l246 168h211v-564h135v-231zM2181 815v-237q-149 0 -201 -41q-32 -25 -43 -60q35 27 99 27q91 0 140.5 -65.5t49.5 -176.5
v-20q0 -118 -68.5 -189t-215.5 -71q-144 0 -212.5 85.5t-68.5 223.5v16q0 242 115 373q71 82 167 108.5t238 26.5zM1958 217v51q0 14 -14.5 14t-14.5 -14v-51q0 -13 14.5 -13t14.5 13z" />
    <glyph glyph-name="threesixteenths" unicode="&#xf216;" horiz-adv-x="2252" 
d="M295 1055v-39q0 -14 14.5 -14t14.5 14v45q0 29 -27 29h-92v217h86q24 0 24 20v53q0 14 -14 14t-14 -14v-49h-256v17q0 137 68.5 201.5t207.5 64.5q66 0 117.5 -16t81 -39.5t48 -54t24.5 -55.5t6 -48v-23q0 -60 -23 -105t-63 -65q40 -21 65 -66.5t25 -107.5v-22
q0 -25 -6 -51.5t-24.5 -60t-47.5 -59.5t-82 -43.5t-121 -17.5q-138 0 -210 65t-72 191v19h270zM383 0h-307l1179 1597h308zM1612 0h-543v231h137v242l-55 -37l-131 191l246 168h211v-564h135v-231zM2181 815v-237q-149 0 -201 -41q-32 -25 -43 -60q35 27 99 27
q91 0 140.5 -65.5t49.5 -176.5v-20q0 -118 -68.5 -189t-215.5 -71q-144 0 -212.5 85.5t-68.5 223.5v16q0 242 115 373q71 82 167 108.5t238 26.5zM1958 217v51q0 14 -14.5 14t-14.5 -14v-51q0 -13 14.5 -13t14.5 13z" />
    <glyph glyph-name="fivesixteenths" unicode="&#xf217;" horiz-adv-x="2252" 
d="M25 1055h270v-39q0 -14 14.5 -14t14.5 14v55q0 27 -31 27h-2q-14 0 -27 -8l-233 81l16 426h531v-233h-308l-4 -55q29 22 103 22q110 0 164.5 -70t54.5 -192v-27q0 -57 -15 -102.5t-47 -82.5t-87.5 -57t-131.5 -20q-138 0 -210 65t-72 191v19zM383 0h-307l1179 1597h308z
M1612 0h-543v231h137v242l-55 -37l-131 191l246 168h211v-564h135v-231zM2181 815v-237q-149 0 -201 -41q-32 -25 -43 -60q35 27 99 27q91 0 140.5 -65.5t49.5 -176.5v-20q0 -118 -68.5 -189t-215.5 -71q-144 0 -212.5 85.5t-68.5 223.5v16q0 242 115 373q71 82 167 108.5
t238 26.5zM1958 217v51q0 14 -14.5 14t-14.5 -14v-51q0 -13 14.5 -13t14.5 13z" />
    <glyph glyph-name="sevensixteenths" unicode="&#xf218;" horiz-adv-x="2252" 
d="M14 1311v286h584v-167l-246 -631h-295l285 567l-94 -2v-53h-234zM383 0h-307l1179 1597h308zM1612 0h-543v231h137v242l-55 -37l-131 191l246 168h211v-564h135v-231zM2181 815v-237q-149 0 -201 -41q-32 -25 -43 -60q35 27 99 27q91 0 140.5 -65.5t49.5 -176.5v-20
q0 -118 -68.5 -189t-215.5 -71q-144 0 -212.5 85.5t-68.5 223.5v16q0 242 115 373q71 82 167 108.5t238 26.5zM1958 217v51q0 14 -14.5 14t-14.5 -14v-51q0 -13 14.5 -13t14.5 13z" />
    <glyph glyph-name="ninesixteenths" unicode="&#xf219;" horiz-adv-x="2252" 
d="M68 780v238q152 0 204 41q32 25 43 59q-33 -26 -98 -26q-91 0 -140.5 65t-49.5 176v21q0 118 68.5 189t215.5 71q144 0 212.5 -85.5t68.5 -223.5v-17q0 -242 -115 -373q-49 -56 -118.5 -87.5t-133.5 -39.5t-157 -8zM295 1378v-51q0 -13 14.5 -13t14.5 13v51
q0 14 -14.5 14t-14.5 -14zM383 0h-307l1179 1597h308zM1612 0h-543v231h137v242l-55 -37l-131 191l246 168h211v-564h135v-231zM2181 815v-237q-149 0 -201 -41q-32 -25 -43 -60q35 27 99 27q91 0 140.5 -65.5t49.5 -176.5v-20q0 -118 -68.5 -189t-215.5 -71
q-144 0 -212.5 85.5t-68.5 223.5v16q0 242 115 373q71 82 167 108.5t238 26.5zM1958 217v51q0 14 -14.5 14t-14.5 -14v-51q0 -13 14.5 -13t14.5 13z" />
    <glyph glyph-name="elevensixteenths" unicode="&#xf220;" horiz-adv-x="2867" 
d="M588 799h-543v231h137v242l-55 -37l-131 190l246 168h211v-563h135v-231zM1202 799h-543v231h138v242l-56 -37l-131 190l246 168h211v-563h135v-231zM997 0h-307l1180 1597h307zM2226 0h-543v231h138v242l-56 -37l-131 191l246 168h211v-564h135v-231zM2796 815v-237
q-149 0 -201 -41q-32 -25 -43 -60q16 12 45.5 19.5t52.5 7.5q91 0 141 -65.5t50 -176.5v-20q0 -117 -69 -188.5t-216 -71.5q-144 0 -212.5 85.5t-68.5 223.5v16q0 242 115 373q71 82 167.5 108.5t238.5 26.5zM2572 217v51q0 14 -14 14t-14 -14v-51q0 -13 14 -13t14 13z" />
    <glyph glyph-name="thirteensixteenths" unicode="&#xf221;" horiz-adv-x="2867" 
d="M588 799h-543v231h137v242l-55 -37l-131 190l246 168h211v-563h135v-231zM909 1055v-39q0 -14 14.5 -14t14.5 14v45q0 29 -27 29h-92v217h86q25 0 25 20v53q0 14 -14.5 14t-14.5 -14v-49h-256v17q0 137 69 201.5t208 64.5q66 0 117.5 -16t80.5 -39.5t47.5 -54t24.5 -55.5
t6 -48v-23q0 -60 -23 -105t-63 -65q40 -21 65 -66.5t25 -107.5v-22q0 -25 -5.5 -51.5t-24 -60t-47.5 -59t-82 -43.5t-121 -18q-138 0 -210.5 65t-72.5 191v19h270zM997 0h-307l1180 1597h307zM2226 0h-543v231h138v242l-56 -37l-131 191l246 168h211v-564h135v-231z
M2796 815v-237q-149 0 -201 -41q-32 -25 -43 -60q16 12 45.5 19.5t52.5 7.5q91 0 141 -65.5t50 -176.5v-20q0 -117 -69 -188.5t-216 -71.5q-144 0 -212.5 85.5t-68.5 223.5v16q0 242 115 373q71 82 167.5 108.5t238.5 26.5zM2572 217v51q0 14 -14 14t-14 -14v-51
q0 -13 14 -13t14 13z" />
    <glyph glyph-name="fifteensixteenths" unicode="&#xf222;" horiz-adv-x="2867" 
d="M588 799h-543v231h137v242l-55 -37l-131 190l246 168h211v-563h135v-231zM639 1055h270v-39q0 -14 14.5 -14t14.5 14v55q0 27 -31 27h-2q-13 0 -26 -8l-234 81l17 426h530v-233h-307l-4 -55q29 22 102 22q110 0 164.5 -70t54.5 -192v-27q0 -119 -66.5 -190.5
t-213.5 -71.5q-138 0 -210.5 65t-72.5 191v19zM997 0h-307l1180 1597h307zM2226 0h-543v231h138v242l-56 -37l-131 191l246 168h211v-564h135v-231zM2796 815v-237q-149 0 -201 -41q-32 -25 -43 -60q16 12 45.5 19.5t52.5 7.5q91 0 141 -65.5t50 -176.5v-20
q0 -117 -69 -188.5t-216 -71.5q-144 0 -212.5 85.5t-68.5 223.5v16q0 242 115 373q71 82 167.5 108.5t238.5 26.5zM2572 217v51q0 14 -14 14t-14 -14v-51q0 -13 14 -13t14 13z" />
    </font>
</defs>
</svg>
