<?xml version="1.0" standalone="no"?>
<!DOCTYPE svg PUBLIC "-//W3C//DTD SVG 1.1//EN" "http://www.w3.org/Graphics/SVG/1.1/DTD/svg11.dtd" >
<svg xmlns="http://www.w3.org/2000/svg" xmlns:xlink="http://www.w3.org/1999/xlink" version="1.1">
<metadata>
Created by FontForge 20170731 at Thu Jan 27 16:36:05 2022
 By Aleksey,,,
Copyright (c) 2014, Cooper Hewitt Smithsonian Design Museum (cooperhewitt.org)
</metadata>
<defs>
<font id="CooperHewitt-HeavyItalic" horiz-adv-x="614" >
  <font-face 
    font-family="Cooper Hewitt"
    font-weight="714"
    font-style="italic"
    font-stretch="normal"
    units-per-em="2048"
    panose-1="0 0 0 0 0 0 0 0 0 0"
    ascent="1536"
    descent="-512"
    x-height="1085"
    cap-height="1597"
    bbox="-641 -471 2814.78 1987"
    underline-thickness="40"
    underline-position="-224"
    unicode-range="U+0020-F222"
  />
<missing-glyph horiz-adv-x="1966" 
d="M184 0v1597h1598v-1597h-1598zM983 707l-571 -572h1142zM412 1462l571 -571l571 571h-1142zM891 799l-563 563v-1126zM1075 799l563 -563v1126z" />
    <glyph glyph-name=".notdef" horiz-adv-x="1966" 
d="M184 0v1597h1598v-1597h-1598zM983 707l-571 -572h1142zM412 1462l571 -571l571 571h-1142zM891 799l-563 563v-1126zM1075 799l563 -563v1126z" />
    <glyph glyph-name=".null" horiz-adv-x="0" 
 />
    <glyph glyph-name="nonmarkingreturn" horiz-adv-x="682" 
 />
    <glyph glyph-name="space" unicode=" " horiz-adv-x="409" 
 />
    <glyph glyph-name="exclam" unicode="!" horiz-adv-x="573" 
d="M160 1597h471l-248 -1105h-266zM432 389l-51 -389h-389l51 389h389z" />
    <glyph glyph-name="quotedbl" unicode="&#x22;" horiz-adv-x="983" 
d="M190 1597h369l-108 -696h-295zM641 1597h369l-150 -696h-295z" />
    <glyph glyph-name="numbersign" unicode="#" horiz-adv-x="1228" 
d="M139 901l43 328h174l113 368h328l-113 -368h123l113 368h327l-112 -368h112l-43 -328h-168l-61 -205h121l-43 -327h-176l-109 -369h-328l109 369h-123l-109 -369h-327l108 369h-110l43 327h166l61 205h-119zM586 901l-62 -205h123l62 205h-123z" />
    <glyph glyph-name="dollar" unicode="$" horiz-adv-x="1228" 
d="M586 410q74 0 112.5 34.5t38.5 81.5q0 28 -12.5 49t-29.5 34t-52.5 24.5t-62 17.5t-78.5 15q-82 14 -138.5 30t-108.5 44.5t-81 68t-42.5 99.5t-6.5 139l2 22q17 193 173.5 311.5t397.5 118.5q29 0 43 -2l82 223h287l-104 -280q218 -113 172 -410l-4 -26h-379
q7 50 -0.5 89.5t-39.5 68t-87 28.5h-11q-73 0 -110 -37t-37 -88q0 -57 42.5 -78.5t182.5 -46.5q76 -13 131.5 -28.5t110.5 -44.5t88 -68.5t50.5 -100t10.5 -139.5l-2 -22q-19 -199 -177.5 -318t-411.5 -119h-25l-82 -223h-287l101 277q-117 53 -170.5 155.5t-22.5 259.5
l2 11h383q-11 -81 25 -125.5t116 -44.5h11z" />
    <glyph glyph-name="percent" unicode="%" horiz-adv-x="2048" 
d="M754 0h-328l686 1251q-58 -10 -119 -10q-32 0 -78 4l-6 -41q-26 -188 -149.5 -292.5t-304.5 -104.5t-278 104.5t-71 292.5l3 25q26 188 149.5 292.5t304.5 104.5q87 0 166 -29q83 -34 160.5 -45.5t216.5 -11.5q129 0 257 21.5t200 44.5l-23 -172zM1147 393
q24 188 147.5 293t304.5 105t278 -105t73 -293l-4 -24q-24 -188 -148 -293t-305 -105t-277.5 105t-72.5 293zM1419 369q-6 -52 21.5 -85.5t83.5 -33.5h12q56 0 91.5 33.5t41.5 85.5l4 24q6 53 -21.5 86t-82.5 33h-13q-56 0 -91.5 -33.5t-41.5 -85.5zM635 1229
q8 52 -19.5 85.5t-83.5 33.5h-12q-55 0 -91 -33t-44 -86l-2 -25q-6 -53 20.5 -86t81.5 -33h13q56 0 92.5 33.5t42.5 85.5z" />
    <glyph glyph-name="ampersand" unicode="&#x26;" horiz-adv-x="1433" 
d="M420 -29q-229 0 -347 123t-93 330l4 35q31 261 272 422q-48 84 -66 162t-2 184l5 28q11 78 44.5 143t90.5 117.5t147.5 81.5t206.5 29q126 0 218 -32t141 -86.5t67 -122.5t6 -146l-4 -27q-10 -66 -35.5 -122.5t-56.5 -95.5t-78 -75.5t-87.5 -59.5t-98.5 -52l166 -242
q63 115 79 230l2 14h400q-20 -136 -90.5 -277t-188.5 -262l187 -270h-453l-41 57q-163 -86 -395 -86zM506 295h10q66 0 125 18l-207 301q-51 -54 -59 -131l-2 -16q-21 -172 133 -172zM573 1233l-2 -16q-8 -76 23 -156q65 38 98 72.5t39 83.5l2 16q4 38 -13.5 61t-51.5 23
h-13q-34 0 -55.5 -22.5t-26.5 -61.5z" />
    <glyph glyph-name="quotesingle" unicode="'" horiz-adv-x="573" 
d="M190 1597h410l-149 -696h-295z" />
    <glyph glyph-name="parenleft" unicode="(" horiz-adv-x="778" 
d="M66 709l6 59q59 566 409 952h393q-165 -196 -279.5 -437.5t-143.5 -514.5l-7 -59q-28 -269 21 -502t151 -453h-389q-31 66 -54.5 122.5t-47.5 129t-38.5 146.5t-24.5 160.5t-8.5 186.5t12.5 210z" />
    <glyph glyph-name="parenright" unicode=")" horiz-adv-x="778" 
d="M707 766l-7 -59q-59 -568 -409 -953h-393q165 196 280 438t144 515l6 59q28 269 -21 501.5t-151 452.5h389q32 -66 55 -122.5t47.5 -128.5t39 -146t24 -160.5t8.5 -186.5t-12 -210z" />
    <glyph glyph-name="asterisk" unicode="*" horiz-adv-x="860" 
d="M442 1638h205l-45 -266h-184zM70 1255l90 195l237 -92l-82 -176zM279 827l-152 121l195 209l135 -108zM881 1450l37 -195l-267 -73l-33 176zM778 948l-180 -121l-121 222l164 108z" />
    <glyph glyph-name="plus" unicode="+" horiz-adv-x="1228" 
d="M520 1331h336l-47 -364h365l-46 -336h-364l-47 -365h-336l47 365h-365l46 336h364z" />
    <glyph glyph-name="comma" unicode="," horiz-adv-x="573" 
d="M432 389l-41 -307q-26 -192 -137 -290.5t-303 -98.5l24 184q152 0 209 123h-192l51 389h389z" />
    <glyph glyph-name="hyphen" unicode="-" horiz-adv-x="737" 
d="M53 553l43 328h574l-43 -328h-574z" />
    <glyph glyph-name="period" unicode="." horiz-adv-x="573" 
d="M432 389l-51 -389h-389l51 389h389z" />
    <glyph glyph-name="slash" unicode="/" horiz-adv-x="901" 
d="M995 1720l-729 -1966h-366l727 1966h368z" />
    <glyph glyph-name="zero" unicode="0" horiz-adv-x="1228" 
d="M1196 1147l-92 -696q-31 -225 -174 -352.5t-402 -127.5q-253 0 -385 134.5t-104 345.5l92 696q31 225 174 352t402 127q254 0 385.5 -134t103.5 -345zM723 451l92 696q9 66 -25.5 106.5t-105.5 40.5h-8q-71 0 -113 -38.5t-51 -108.5l-92 -696q-9 -66 25.5 -107t105.5 -41
h8q71 0 113 39t51 109z" />
    <glyph glyph-name="one" unicode="1" horiz-adv-x="1228" 
d="M1057 0h-1045l43 332h332l105 798l-236 -145l-152 275l543 337h287l-166 -1265h332z" />
    <glyph glyph-name="two" unicode="2" horiz-adv-x="1228" 
d="M700 332h390l-43 -332h-1065l30 240l680 661q108 108 117 191l2 20q9 94 -25 138t-98 44h-20q-136 0 -166 -229h-381l4 35q31 265 172 395.5t408 130.5q118 0 210 -28.5t147.5 -74t90 -105.5t44.5 -121t3 -123l-4 -37q-10 -90 -40 -160.5t-72.5 -124.5t-120.5 -129
l-406 -393z" />
    <glyph glyph-name="three" unicode="3" horiz-adv-x="1228" 
d="M418 512q-14 -113 26.5 -161t110.5 -48h20q64 0 107.5 42.5t50.5 129.5l2 23q12 151 -131 151h-211l45 332h205q75 0 118.5 37.5t49.5 111.5l2 23q6 62 -28 101.5t-89 39.5h-20q-70 0 -114 -52.5t-60 -176.5h-381l4 33q32 264 175 396t402 132q121 0 215 -30.5t149.5 -78
t89.5 -108.5t43 -120t1 -115l-6 -46q-31 -227 -213 -311q73 -35 110 -133.5t25 -226.5l-4 -41q-6 -59 -27 -118t-66 -119t-107.5 -105.5t-158 -74t-210.5 -28.5q-275 0 -409 139t-99 388l2 14h381z" />
    <glyph glyph-name="four" unicode="4" horiz-adv-x="1228" 
d="M930 0h-381l41 326h-598l37 268l751 1003h359l-123 -940h147l-45 -331h-147zM682 995l-258 -342l86 4h125l33 248z" />
    <glyph glyph-name="five" unicode="5" horiz-adv-x="1228" 
d="M37 512h381q-25 -209 127 -209h20q43 0 79 17.5t63.5 62.5t33.5 113l2 22q16 195 -151 195h-10q-53 0 -106 -25.5t-85 -73.5l-313 113l151 870h1016l-43 -331h-698l-49 -281q89 59 241 59q229 0 340.5 -139t87.5 -377l-4 -41q-24 -241 -170.5 -378.5t-406.5 -137.5
q-289 0 -414 135.5t-94 389.5z" />
    <glyph glyph-name="six" unicode="6" horiz-adv-x="1228" 
d="M1188 1626l-45 -336q-188 -2 -304.5 -37t-209.5 -125q-81 -81 -113 -192q89 72 225 72q205 0 305.5 -127.5t77.5 -360.5l-4 -41q-24 -238 -170.5 -373t-402.5 -135q-139 0 -243 43.5t-164.5 123.5t-84.5 188t-10 241l4 39q26 244 94 413t217 329q81 86 172.5 142.5
t198.5 85.5t212 39.5t245 10.5zM602 678q-45 0 -92.5 -23t-81.5 -69l-6 -51q-13 -111 24 -171.5t105 -60.5h12q67 0 118 49.5t60 130.5l2 23q10 87 -27.5 129.5t-103.5 42.5h-10z" />
    <glyph glyph-name="seven" unicode="7" horiz-adv-x="1228" 
d="M94 1024l76 573h1106l-31 -235l-731 -1362h-408l703 1270l-184 -4h-166l-33 -242h-332z" />
    <glyph glyph-name="eight" unicode="8" horiz-adv-x="1228" 
d="M543 -29q-118 0 -211.5 27t-152 71.5t-95.5 104.5t-49 123t-6 129l4 41q12 123 73.5 213.5t153.5 136.5q-62 45 -101.5 138.5t-25.5 199.5l6 45q8 59 28.5 114.5t63.5 113.5t103.5 100.5t155.5 70t212 27.5q121 0 215 -30.5t149.5 -78t89.5 -108.5t43 -120t1 -115l-6 -46
q-31 -227 -213 -311q73 -35 110 -133.5t25 -226.5l-4 -41q-6 -59 -27 -118t-66 -119t-107.5 -105.5t-158 -74t-210.5 -28.5zM602 649h-20q-66 0 -113.5 -42.5t-54.5 -129.5l-2 -22q-6 -74 28.5 -113t104.5 -39h20q66 0 113.5 42.5t54.5 129.5l2 23q6 74 -28.5 112.5
t-104.5 38.5zM627 981h20q72 0 115 37.5t49 111.5l2 23q6 62 -28 101.5t-89 39.5h-20q-72 0 -115 -37.5t-49 -111.5l-2 -23q-6 -62 28 -101.5t89 -39.5z" />
    <glyph glyph-name="nine" unicode="9" horiz-adv-x="1228" 
d="M49 -29l45 336q188 2 304.5 37t209.5 125q80 80 113 193q-89 -72 -225 -72q-205 0 -305.5 127t-77.5 360l4 41q24 238 170.5 373t402.5 135q139 0 243 -43.5t164.5 -123.5t84.5 -188t10 -241l-4 -39q-26 -244 -93.5 -412.5t-217.5 -328.5q-81 -86 -172.5 -142.5
t-198.5 -85.5t-212 -40t-245 -11zM625 920h10q45 0 92.5 23t81.5 69l6 51q13 111 -24 171t-105 60h-12q-67 0 -118 -49.5t-60 -130.5l-2 -22q-10 -87 27.5 -129.5t103.5 -42.5z" />
    <glyph glyph-name="colon" unicode=":" horiz-adv-x="573" 
d="M432 389l-51 -389h-389l51 389h389zM510 993l-51 -389h-389l51 389h389z" />
    <glyph glyph-name="semicolon" unicode=";" horiz-adv-x="573" 
d="M432 389l-41 -307q-26 -192 -137 -290.5t-303 -98.5l24 184q152 0 209 123h-192l51 389h389zM510 993l-51 -389h-389l51 389h389z" />
    <glyph glyph-name="less" unicode="&#x3c;" horiz-adv-x="1228" 
d="M111 983l1116 401l-47 -372l-641 -213l583 -213l-49 -373l-1012 401z" />
    <glyph glyph-name="equal" unicode="=" horiz-adv-x="1228" 
d="M94 856l43 336h1065l-43 -336h-1065zM35 406l43 335h1065l-43 -335h-1065z" />
    <glyph glyph-name="greater" unicode="&#x3e;" horiz-adv-x="1228" 
d="M1176 983l-50 -369l-1118 -401l49 373l641 213l-583 213l47 372z" />
    <glyph glyph-name="question" unicode="?" horiz-adv-x="1044" 
d="M602 1294q-62 0 -97 -54.5t-44 -174.5h-381l4 39q28 267 157.5 394.5t381.5 127.5q104 0 184.5 -20t130.5 -52.5t82 -79.5t44.5 -96t12.5 -106q0 -83 -21.5 -151.5t-57.5 -117.5t-80 -92.5t-92 -86t-90 -87.5t-77 -108t-51 -137h-266q3 82 24 157.5t52 132.5t67.5 109
t72.5 94t65.5 79t48 72.5t18.5 67.5q0 41 -21.5 65.5t-66.5 24.5zM657 389l-51 -389h-389l51 389h389z" />
    <glyph glyph-name="at" unicode="@" horiz-adv-x="2048" 
d="M928 -197h12q189 0 375 58.5t334 169.5l114 -189q-362 -280 -829 -280q-229 0 -410 65t-303 188t-174.5 312t-23.5 426l10 82q24 190 92 350.5t170.5 277.5t234.5 199.5t284.5 123t318.5 40.5q161 0 299 -27t255 -88.5t194.5 -153.5t111 -229t10.5 -307l-8 -61
q-19 -144 -62.5 -255t-102 -182.5t-137 -117t-162.5 -64t-183 -18.5h-252l-6 113q-115 -142 -287 -142q-180 0 -264 128.5t-54 344.5l11 74q30 219 140 346t288 127q185 0 262 -143l37 114h297l-56 -274l-59 -446q170 10 241 95t99 300l8 61q18 135 -8.5 237.5t-82.5 163
t-143 98.5t-176.5 51t-197.5 13h-12q-165 0 -308 -46.5t-257.5 -137t-190 -235t-98.5 -330.5l-11 -82q-23 -187 13.5 -331t125 -235t220 -137.5t301.5 -46.5zM944 383q86 0 146 76l38 291q-13 27 -50 51t-87 24q-67 0 -103 -46t-48 -138l-11 -74q-13 -96 15.5 -140t99.5 -44
z" />
    <glyph glyph-name="A" unicode="A" horiz-adv-x="1331" 
d="M508 1597h532l172 -1597h-415l-25 324h-332l-104 -324h-418zM715 1147l-162 -488h197z" />
    <glyph glyph-name="B" unicode="B" horiz-adv-x="1320" 
d="M211 1597h563q84 0 148.5 -8t134.5 -36t112.5 -75.5t63 -132t4.5 -200.5l-6 -45q-24 -183 -168 -275q74 -44 108 -117.5t23 -191.5l-4 -41q-9 -87 -34.5 -158t-60.5 -119.5t-84.5 -85t-99.5 -57.5t-111 -34t-113 -17t-112 -4h-573zM670 647h-195l-41 -311h195
q156 0 170 145l2 23q14 143 -131 143zM725 1262h-168l-37 -279h168q141 0 152 127l2 23q7 76 -26.5 102.5t-90.5 26.5z" />
    <glyph glyph-name="C" unicode="C" horiz-adv-x="1351" 
d="M471 836l-10 -78q-18 -141 -15 -241t46.5 -155t132.5 -55h22q184 0 215 246h389l-2 -18q-17 -153 -67.5 -262.5t-133.5 -175t-189.5 -96t-244.5 -30.5q-328 0 -465.5 189.5t-82.5 597.5l10 78q56 416 223.5 603t488.5 187q603 0 531 -563l-10 -80h-389q11 93 8 161.5
t-40.5 107t-111.5 38.5h-22q-57 0 -100.5 -21.5t-72.5 -57.5t-50.5 -97t-34.5 -124t-25 -154z" />
    <glyph glyph-name="D" unicode="D" horiz-adv-x="1372" 
d="M1313 840l-10 -78q-28 -211 -82 -353t-147.5 -235t-226.5 -133.5t-323 -40.5h-522l209 1597h502q255 0 396.5 -74.5t191 -239.5t12.5 -443zM434 336h113q79 0 136.5 19t94.5 50.5t63 88t40 117t26 151.5l11 78q18 138 6 232t-78.5 142t-196.5 48h-92z" />
    <glyph glyph-name="E" unicode="E" horiz-adv-x="1187" 
d="M211 1597h1003l-43 -335h-614l-37 -279h512l-45 -336h-512l-41 -311h615l-43 -336h-1004z" />
    <glyph glyph-name="F" unicode="F" horiz-adv-x="1146" 
d="M211 1597h1003l-43 -335h-614l-37 -279h512l-45 -336h-512l-84 -647h-389z" />
    <glyph glyph-name="G" unicode="G" horiz-adv-x="1392" 
d="M635 -29q-331 0 -477 191t-92 596l10 78q55 414 228.5 602t496.5 188q298 0 436 -139.5t102 -423.5l-10 -80h-389q11 93 6 161.5t-44.5 107t-113.5 38.5h-22q-71 0 -122.5 -31t-84.5 -94t-53 -140t-35 -189l-10 -78q-17 -141 -9.5 -241t58 -155t145.5 -55h23
q44 0 94.5 12t81.5 29l27 205h-193l45 336h582l-96 -729q-109 -89 -243 -139t-341 -50z" />
    <glyph glyph-name="H" unicode="H" horiz-adv-x="1372" 
d="M989 1597h389l-209 -1597h-389l84 647h-389l-84 -647h-389l209 1597h389l-80 -614h389z" />
    <glyph glyph-name="I" unicode="I" 
d="M610 1597l-209 -1597h-389l209 1597h389z" />
    <glyph glyph-name="J" unicode="J" horiz-adv-x="1126" 
d="M754 1597h389l-146 -1110q-33 -254 -167 -385t-388 -131q-268 0 -369 131t-67 390l8 61h369q-19 -120 -3.5 -183t83.5 -63t102 56.5t49 168.5z" />
    <glyph glyph-name="K" unicode="K" horiz-adv-x="1320" 
d="M600 1597l-72 -548l400 548h471l-520 -628l311 -969h-430l-180 608l-131 -157l-58 -451h-389l209 1597h389z" />
    <glyph glyph-name="L" unicode="L" horiz-adv-x="1085" 
d="M954 0h-952l209 1597h389l-166 -1261h563z" />
    <glyph glyph-name="M" unicode="M" horiz-adv-x="1822" 
d="M1362 922l-350 -922h-402l-108 922l-31 -308l-80 -614h-389l209 1597h580l108 -921l350 921h580l-209 -1597h-389l80 614z" />
    <glyph glyph-name="N" unicode="N" horiz-adv-x="1413" 
d="M1419 1597l-209 -1597h-409l-326 881l-31 -308l-73 -573h-369l209 1597h410l325 -880l29 307l76 573h368z" />
    <glyph glyph-name="O" unicode="O" horiz-adv-x="1392" 
d="M788 1626q328 0 465 -189t82 -597l-10 -78q-56 -417 -223 -604t-488 -187q-328 0 -465.5 189.5t-82.5 597.5l10 78q56 416 223.5 603t488.5 187zM625 307h22q54 0 96.5 21t72 58t52 96t36.5 125t26 155l10 78q18 141 15 241t-46.5 154.5t-132.5 54.5h-22
q-67 0 -116 -30.5t-81 -93t-51.5 -140.5t-34.5 -190l-10 -78q-18 -141 -15 -241t46.5 -155t132.5 -55z" />
    <glyph glyph-name="P" unicode="P" horiz-adv-x="1269" 
d="M463 549l-72 -549h-389l209 1597h551q92 0 163.5 -9t148.5 -40t123 -83t69 -146t6 -221l-6 -45q-12 -92 -40 -167t-65 -126.5t-87.5 -90t-101 -61.5t-113 -36.5t-116.5 -18t-118 -4.5h-162zM506 885h178q32 0 60.5 7.5t57 26t48 55.5t24.5 89l3 22q9 103 -31.5 140
t-110.5 37h-178z" />
    <glyph glyph-name="Q" unicode="Q" horiz-adv-x="1392" 
d="M788 1626q328 0 465 -189t82 -597l-10 -78q-40 -298 -134.5 -475.5t-258.5 -253.5l65 -238h-297l-45 178q-7 0 -20.5 -1t-20.5 -1q-328 0 -465.5 189.5t-82.5 597.5l10 78q56 416 223.5 603t488.5 187zM791 559l40 -151q67 104 99 354l10 78q18 141 15 241t-46.5 154.5
t-132.5 54.5h-22q-67 0 -116 -30.5t-81 -93t-51.5 -140.5t-34.5 -190l-10 -78q-16 -124 -16.5 -216.5t29.5 -152t93 -76.5l-63 246h287z" />
    <glyph glyph-name="R" unicode="R" horiz-adv-x="1300" 
d="M506 885h178q32 0 60.5 7.5t57 26t48 55.5t24.5 89l3 22q9 103 -31.5 140t-110.5 37h-178zM463 549l-72 -549h-389l209 1597h551q92 0 163.5 -9t148.5 -40t123 -83t69 -146t6 -221l-6 -45q-46 -345 -308 -451l170 -602h-419l-138 549h-108z" />
    <glyph glyph-name="S" unicode="S" horiz-adv-x="1310" 
d="M567 643q-259 34 -367 145t-83 326l4 37q24 220 185.5 347.5t451.5 127.5q588 0 520 -553l-6 -49h-389q19 138 -18 202t-142 64h-21q-82 0 -131 -40t-55 -103l-2 -21q-7 -71 41 -110.5t197 -59.5q262 -36 373 -149.5t85 -337.5l-4 -37q-25 -225 -188 -343t-447 -118
q-296 0 -436.5 137.5t-105.5 411.5l4 33h389q-17 -129 25.5 -187.5t144.5 -58.5h20q94 0 144.5 40.5t56.5 103.5l2 20q3 32 -5.5 57t-34 48t-77.5 39.5t-131 27.5z" />
    <glyph glyph-name="T" unicode="T" horiz-adv-x="1167" 
d="M844 1262l-166 -1262h-389l166 1262h-359l43 335h1106l-43 -335h-358z" />
    <glyph glyph-name="U" unicode="U" horiz-adv-x="1372" 
d="M594 -29q-171 0 -285 36t-173.5 107.5t-77.5 167t-1 226.5l144 1089h389l-141 -1079q-7 -64 -1.5 -111t46.5 -73.5t122 -26.5q120 0 174.5 54t67.5 157l141 1079h390l-144 -1089q-13 -105 -39.5 -185t-75 -148.5t-119.5 -112t-175.5 -67.5t-241.5 -24z" />
    <glyph glyph-name="V" unicode="V" horiz-adv-x="1331" 
d="M831 0h-532l-172 1597h416l80 -1146l381 1146h417z" />
    <glyph glyph-name="W" unicode="W" horiz-adv-x="1945" 
d="M1071 0l-49 1151l-350 -1151h-494l-45 1597h406l-17 -1060l320 1060h479l41 -1060l262 1060h406l-463 -1597h-496z" />
    <glyph glyph-name="X" unicode="X" horiz-adv-x="1351" 
d="M-70 0l480 846l-271 751h451l131 -487l258 487h451l-469 -751l260 -846h-430l-146 543l-285 -543h-430z" />
    <glyph glyph-name="Y" unicode="Y" horiz-adv-x="1310" 
d="M813 492l-63 -492h-390l64 492l-307 1105h426l139 -626l303 626h426z" />
    <glyph glyph-name="Z" unicode="Z" horiz-adv-x="1249" 
d="M14 266l721 1004l-303 -8h-266l43 335h1044l-34 -266l-721 -1003l303 8h307l-43 -336h-1085z" />
    <glyph glyph-name="bracketleft" unicode="[" horiz-adv-x="778" 
d="M238 1720h604l-43 -327h-228l-172 -1311h228l-43 -328h-604z" />
    <glyph glyph-name="backslash" unicode="\" horiz-adv-x="897" 
d="M369 -246l-213 1966h368l213 -1966h-368z" />
    <glyph glyph-name="bracketright" unicode="]" horiz-adv-x="778" 
d="M532 -246h-604l43 328h228l172 1311h-228l43 327h605z" />
    <glyph glyph-name="asciicircum" unicode="^" horiz-adv-x="1228" 
d="M907 1597l262 -1065h-372l-133 613l-293 -613h-373l541 1065h368z" />
    <glyph glyph-name="underscore" unicode="_" horiz-adv-x="655" 
d="M-74 -410l43 328h492l-43 -328h-492z" />
    <glyph glyph-name="grave" unicode="`" horiz-adv-x="1024" 
d="M207 1597h414l135 -389h-373z" />
    <glyph glyph-name="a" unicode="a" horiz-adv-x="1146" 
d="M637 0v111q-146 -140 -340 -140q-92 0 -158.5 28t-100 77t-45.5 107.5t-3 125.5l4 31q9 69 33.5 121t59.5 87.5t89 61t111.5 40.5t136.5 28l250 39q6 60 -18 87t-89 27q-61 0 -92.5 -29.5t-34.5 -74.5h-354l2 23q32 364 498 364q259 0 373 -110.5t88 -307.5l-52 -389
l-18 -307h-340zM461 274q46 0 90.5 18.5t71.5 45.5l22 162l-158 -25q-102 -14 -112 -96l-2 -19q-3 -36 18 -61t70 -25z" />
    <glyph glyph-name="b" unicode="b" horiz-adv-x="1198" 
d="M592 1638l-84 -634q117 110 301 110q186 0 266 -141t47 -391l-10 -78q-16 -120 -50 -215t-88.5 -167.5t-135 -111.5t-181.5 -39q-215 0 -299 154l-39 -125h-339l59 307l176 1331h377zM469 707l-43 -328q43 -84 135 -84q76 0 119 51.5t57 157.5l11 78q27 209 -119 209
q-92 0 -160 -84z" />
    <glyph glyph-name="c" unicode="c" horiz-adv-x="1081" 
d="M401 582l-10 -78q-13 -102 18 -155.5t103 -53.5q54 0 84.5 32t36.5 83h354l-6 -45q-26 -183 -152 -288.5t-354 -105.5q-248 0 -369.5 148t-89.5 385l11 78q15 115 56 210t109 168t169.5 113.5t228.5 40.5q239 0 351.5 -105.5t84.5 -308.5l-6 -45h-354q16 136 -95 136
q-69 0 -113 -52.5t-57 -156.5z" />
    <glyph glyph-name="d" unicode="d" horiz-adv-x="1218" 
d="M500 1114q109 0 168.5 -30t101.5 -80l84 634h377l-176 -1331l-19 -307h-340v133q-59 -79 -150 -120.5t-198 -41.5q-186 0 -266 141.5t-47 391.5l10 78q16 120 50 215t88.5 167t135 111t181.5 39zM688 379l43 328q-43 84 -135 84q-76 0 -119 -51.5t-57 -157.5l-10 -78
q-14 -105 14.5 -157t103.5 -52q92 0 160 84z" />
    <glyph glyph-name="e" unicode="e" horiz-adv-x="1146" 
d="M1049 410h-668q-5 -156 147 -156q68 0 110.5 27t47.5 67h354l-2 -14q-24 -168 -158.5 -265.5t-367.5 -97.5q-184 0 -304 70t-166.5 188.5t-25.5 274.5l11 78q15 115 56 209.5t109 168t170.5 114t231.5 40.5q264 0 385.5 -156t85.5 -426zM582 831q-132 0 -166 -155h291
q3 80 -26 117.5t-99 37.5z" />
    <glyph glyph-name="f" unicode="f" horiz-adv-x="860" 
d="M629 1198l-17 -113h219l-43 -327h-219l-98 -758h-377l99 758h-164l43 327h164l20 154q58 428 492 428q126 0 178 -29l-41 -307q-30 12 -92 12q-73 0 -113.5 -30t-50.5 -115z" />
    <glyph glyph-name="g" unicode="g" horiz-adv-x="1198" 
d="M623 23l16 120q-117 -110 -301 -110q-123 0 -202 64t-107.5 176t-8.5 262l11 77q14 109 47.5 197.5t87.5 158t134 108t181 38.5q216 0 299 -153l39 124h340l-59 -307l-103 -774q-32 -233 -168 -337.5t-389 -104.5q-144 0 -245.5 30.5t-154 85t-71 121t-6.5 146.5l8 55
h355q-14 -135 131 -135q81 0 117.5 35t48.5 123zM678 440l35 267q-43 84 -135 84q-75 0 -118 -47t-54 -132l-11 -77q-11 -83 19 -131t104 -48q92 0 160 84z" />
    <glyph glyph-name="h" unicode="h" horiz-adv-x="1218" 
d="M594 1638l-86 -649q132 125 328 125q74 0 130.5 -21.5t88.5 -58.5t51.5 -86.5t20.5 -105.5t-5 -115l-94 -727h-377l86 666q20 125 -98 125q-55 0 -99 -26.5t-69 -57.5l-92 -707h-377l215 1638h377z" />
    <glyph glyph-name="i" unicode="i" horiz-adv-x="573" 
d="M-2 0l141 1085h377l-141 -1085h-377zM590 1597l-51 -389h-389l51 389h389z" />
    <glyph glyph-name="j" unicode="j" horiz-adv-x="573" 
d="M0 31l139 1054h377l-143 -1095q-58 -428 -490 -428q-128 0 -178 28l41 308q9 -4 39 -8.5t53 -4.5q71 0 111.5 30.5t50.5 115.5zM590 1597l-51 -389h-389l51 389h389z" />
    <glyph glyph-name="k" unicode="k" horiz-adv-x="1187" 
d="M-8 0l215 1638h377l-113 -856l277 303h450l-410 -411l269 -674h-441l-129 373l-81 -84l-37 -289h-377z" />
    <glyph glyph-name="l" unicode="l" horiz-adv-x="573" 
d="M-2 0l215 1638h377l-215 -1638h-377z" />
    <glyph glyph-name="m" unicode="m" horiz-adv-x="1802" 
d="M1612 0h-377l88 676q15 115 -90 115q-83 0 -143 -74l-95 -717h-377l89 676q15 115 -91 115q-83 0 -143 -74l-94 -717h-377l102 778l19 307h340v-133q139 162 350 162q203 0 262 -166q136 166 355 166q86 0 147 -30t90.5 -81.5t41.5 -120t-1 -145.5z" />
    <glyph glyph-name="n" unicode="n" horiz-adv-x="1218" 
d="M1028 0h-377l88 666q15 125 -98 125q-55 0 -100 -26.5t-70 -57.5l-92 -707h-377l102 778l19 307h340v-143q145 172 373 172q74 0 130.5 -21.5t88.5 -58.5t51.5 -86.5t20.5 -105.5t-5 -115z" />
    <glyph glyph-name="o" unicode="o" horiz-adv-x="1146" 
d="M1071 582l-10 -78q-15 -115 -56 -210t-109 -168.5t-170.5 -114t-231.5 -40.5q-261 0 -384.5 147t-93.5 386l11 78q15 115 56 209.5t109 168t170.5 114t231.5 40.5q261 0 385 -146.5t92 -385.5zM401 582l-10 -78q-14 -105 15.5 -157t109.5 -52q143 0 170 209l10 78
q14 105 -15.5 157t-109.5 52q-143 0 -170 -209z" />
    <glyph glyph-name="p" unicode="p" horiz-adv-x="1198" 
d="M322 -410h-377l157 1188l19 307h340v-133q59 79 150 120.5t198 41.5q186 0 266 -141t47 -391l-10 -78q-16 -120 -50 -215t-88.5 -167.5t-135 -111.5t-181.5 -39q-108 0 -168 30.5t-102 80.5zM469 707l-43 -328q43 -84 135 -84q76 0 119 51.5t57 157.5l11 78
q27 209 -119 209q-92 0 -160 -84z" />
    <glyph glyph-name="q" unicode="q" horiz-adv-x="1214" 
d="M571 -410l66 492q-118 -111 -301 -111q-186 0 -266 141.5t-47 391.5l10 78q16 120 50 215t88.5 167t134.5 111t181 39q216 0 299 -153l39 124h340l-59 -307l-158 -1188h-377zM676 379l43 328q-43 84 -135 84q-76 0 -119 -51.5t-57 -157.5l-11 -78q-27 -209 119 -209
q92 0 160 84z" />
    <glyph glyph-name="r" unicode="r" horiz-adv-x="819" 
d="M774 1114q21 0 31 -2l-51 -385h-62q-84 0 -142.5 -22t-84.5 -50l-86 -655h-377l102 778l19 307h340v-131q125 160 311 160z" />
    <glyph glyph-name="s" unicode="s" horiz-adv-x="1085" 
d="M481 254q61 0 87 24.5t26 59.5q0 37 -24 54.5t-89 23.5q-229 20 -331 95.5t-80 244.5l4 30q11 83 55.5 147.5t112.5 103t150.5 58t176.5 19.5q250 0 357.5 -94.5t83.5 -276.5l-2 -16h-369q13 104 -96 104q-48 0 -77.5 -22.5t-29.5 -60.5q0 -31 25.5 -47.5t85.5 -20.5
q81 -7 144 -20t122 -38t95.5 -61t54.5 -93t8 -130l-4 -31q-21 -154 -155.5 -245t-356.5 -91q-252 0 -364.5 94.5t-90.5 266.5l2 16h375q-6 -45 20 -69.5t84 -24.5z" />
    <glyph glyph-name="t" unicode="t" horiz-adv-x="901" 
d="M612 1085h260l-43 -327h-260l-41 -318q-11 -86 21 -115.5t104 -29.5q23 0 56 4.5t41 7.5l-39 -307q-58 -29 -187 -29q-207 0 -307.5 100.5t-71.5 327.5l48 359h-164l43 327h164l40 308h377z" />
    <glyph glyph-name="u" unicode="u" horiz-adv-x="1218" 
d="M131 1085h377l-88 -665q-15 -125 98 -125q55 0 100 26.5t70 57.5l92 706h377l-102 -778l-19 -307h-340v143q-145 -172 -372 -172q-74 0 -130.5 21.5t-89 58.5t-52 86.5t-20.5 105.5t5 115z" />
    <glyph glyph-name="v" unicode="v" horiz-adv-x="1146" 
d="M207 0l-156 1085h389l72 -788l276 788h390l-439 -1085h-532z" />
    <glyph glyph-name="w" unicode="w" horiz-adv-x="1597" 
d="M788 696l-213 -696h-471l-32 1085h368l-37 -675l211 675h451l35 -675l139 675h369l-316 -1085h-471z" />
    <glyph glyph-name="x" unicode="x" horiz-adv-x="1187" 
d="M72 1085h434l84 -344l174 344h434l-332 -522l191 -563h-422l-96 352l-187 -352h-422l336 563z" />
    <glyph glyph-name="y" unicode="y" horiz-adv-x="1167" 
d="M541 451l258 634h409l-514 -1024l-196 -471h-451l238 471l-244 1024h410z" />
    <glyph glyph-name="z" unicode="z" horiz-adv-x="1044" 
d="M-29 258l514 508l-223 -8h-205l43 327h922l-33 -258l-514 -508l223 9h246l-43 -328h-962z" />
    <glyph glyph-name="braceleft" unicode="{" horiz-adv-x="778" 
d="M842 1720l-43 -327q-75 0 -115.5 -39.5t-52.5 -124.5l-31 -246q-23 -175 -160 -246q118 -74 95 -245l-33 -246q-10 -85 20 -124.5t105 -39.5l-43 -328h-62q-226 0 -331.5 91t-77.5 298l34 267q11 85 -19 124t-105 39l43 328q75 0 116 39.5t51 124.5l35 266
q28 207 157.5 298t354.5 91h62z" />
    <glyph glyph-name="bar" unicode="|" horiz-adv-x="573" 
d="M-31 -246l258 1966h369l-258 -1966h-369z" />
    <glyph glyph-name="braceright" unicode="}" horiz-adv-x="778" 
d="M-72 -246l43 328q75 0 115.5 39.5t50.5 124.5l33 246q23 170 158 245q-115 71 -92 246l30 246q12 85 -18 124.5t-105 39.5l43 327h62q226 0 331.5 -91t77.5 -298l-34 -266q-11 -85 18 -124.5t104 -39.5l-43 -328q-72 0 -111.5 -36t-51.5 -111l-37 -283
q-28 -207 -157.5 -298t-354.5 -91h-62z" />
    <glyph glyph-name="asciitilde" unicode="~" horiz-adv-x="1228" 
d="M412 1008q71 0 137 -20.5t107 -45t92 -45t96 -20.5q97 0 186 94l152 -174q-71 -93 -163.5 -150t-195.5 -57q-71 0 -136.5 20.5t-106.5 45t-91.5 45t-95.5 20.5q-97 0 -186 -94l-152 174q69 93 161.5 150t195.5 57z" />
    <glyph glyph-name="nbspace" unicode="&#xa0;" horiz-adv-x="409" 
 />
    <glyph glyph-name="exclamdown" unicode="&#xa1;" horiz-adv-x="573" 
d="M367 -410h-469l233 1004h266zM82 696l51 389h389l-51 -389h-389z" />
    <glyph glyph-name="cent" unicode="&#xa2;" horiz-adv-x="1228" 
d="M414 -123h-287l113 309q-224 158 -177 572l11 82q42 333 195 496t440 163h18l82 221h287l-103 -274q255 -116 203 -434l-10 -64h-371q34 221 -119 221h-16q-177 0 -221 -331l-10 -78q-5 -37 -7 -64t-2.5 -70t7.5 -73.5t23 -60.5t44.5 -46t71.5 -16h16q70 0 113 48.5
t55 131.5h373l-6 -35q-43 -243 -181 -359t-389 -116q-48 0 -71 2z" />
    <glyph glyph-name="sterling" unicode="&#xa3;" horiz-adv-x="1228" 
d="M721 1294q-48 0 -75 -27.5t-35.5 -68.5t-8.5 -106q0 -84 14 -191h345l-43 -328h-261q11 -151 5 -241h428l-43 -332h-1065l43 332h305q-4 97 -31 241h-244l43 328h133q-10 78 -10 164q0 46 4.5 91t19 102t38 107t64 99t94 84t132.5 56.5t175 21.5q118 0 204.5 -26.5
t138 -75t79.5 -118t29 -156t-13 -187.5l-6 -39h-381q37 270 -78 270z" />
    <glyph glyph-name="yen" unicode="&#xa5;" horiz-adv-x="1228" 
d="M68 655l43 328h172l-166 614h426l100 -614l260 614h426l-328 -614h175l-43 -328h-306l-45 -82h338l-43 -327h-338l-30 -246h-390l31 246h-338l43 327h338l-20 82h-305z" />
    <glyph glyph-name="brokenbar" unicode="&#xa6;" horiz-adv-x="573" 
d="M104 778l123 942h369l-123 -942h-369zM-31 -246l123 942h369l-123 -942h-369z" />
    <glyph glyph-name="section" unicode="&#xa7;" horiz-adv-x="1146" 
d="M563 688h17q69 0 104 37.5t35 91.5q0 92 -127 92h-17q-69 0 -104 -37.5t-35 -91.5q0 -92 127 -92zM696 1626q243 0 354.5 -95.5t88.5 -275.5l-2 -16h-369q8 50 -14.5 77t-73.5 27q-55 0 -84 -24t-29 -64q0 -73 107 -84q87 -8 151.5 -21.5t122 -38.5t91.5 -62t50 -93
t7 -129l-2 -16q-24 -201 -179 -258q63 -63 46 -193l-3 -20q-14 -98 -57 -170.5t-110 -115t-149.5 -63t-182.5 -20.5q-243 0 -354.5 95.5t-88.5 275.5l2 16h369q-8 -50 14.5 -77t73.5 -27q55 0 84 24t29 64q0 73 -107 84q-109 9 -185.5 28.5t-137 57.5t-85.5 102.5t-14 155.5
l2 16q24 201 179 258q-62 62 -45 193l2 20q14 98 57 170.5t110 115t149.5 63t182.5 20.5z" />
    <glyph glyph-name="dieresis" unicode="&#xa8;" horiz-adv-x="1024" 
d="M580 1597l-52 -389h-389l51 389h390zM1051 1597l-52 -389h-389l52 389h389z" />
    <glyph glyph-name="copyright" unicode="&#xa9;" horiz-adv-x="1884" 
d="M115 799q0 168 65.5 321.5t176 264t264 176t321.5 65.5t321.5 -65.5t264 -176t176 -264t65.5 -321.5t-65.5 -321.5t-176 -264.5t-264 -176.5t-321.5 -65.5t-321.5 65.5t-264 176.5t-176 264.5t-65.5 321.5zM238 799q0 -143 55.5 -273.5t150 -225t225 -150.5t273.5 -56
q191 0 353.5 94.5t257 257t94.5 353.5q0 143 -56 273.5t-150.5 225t-225 150t-273.5 55.5t-273.5 -55.5t-225 -150t-150 -225t-55.5 -273.5zM950 578q50 0 78.5 26.5t28.5 75.5h317v-45q0 -163 -111.5 -255.5t-320.5 -92.5q-227 0 -337.5 126t-110.5 349v74q0 223 110.5 349
t337.5 126q210 0 321 -96t111 -271v-45h-317q0 121 -107 121q-65 0 -93 -45.5t-28 -138.5v-74q0 -93 28 -138.5t93 -45.5z" />
    <glyph glyph-name="ordfeminine" unicode="&#xaa;" horiz-adv-x="901" 
d="M561 793v73q-103 -96 -254 -96q-54 0 -97 15t-68.5 41t-42 59.5t-17.5 70t4 74.5l4 23q23 127 100.5 180t239.5 78l154 24q0 49 -60 49q-52 0 -61 -49h-307l2 19q13 125 103 198.5t271 73.5q214 0 306.5 -85t72.5 -230l-39 -289l-14 -229h-297zM20 352l37 281h774
l-36 -281h-775zM469 1030q41 0 80 27l14 96l-82 -12q-55 -9 -61 -49l-2 -13q-3 -21 9.5 -35t41.5 -14z" />
    <glyph glyph-name="guillemotleft" unicode="&#xab;" horiz-adv-x="1187" 
d="M606 1178l-43 -328l-219 -154l178 -153l-43 -328l-411 297l49 369zM1139 1178l-43 -328l-219 -154l178 -153l-43 -328l-412 297l49 369z" />
    <glyph glyph-name="logicalnot" unicode="&#xac;" horiz-adv-x="1228" 
d="M94 856l43 336h1065l-106 -807h-336l63 471h-729z" />
    <glyph glyph-name="uni00AD" unicode="&#xad;" horiz-adv-x="737" 
d="M53 553l43 328h574l-43 -328h-574z" />
    <glyph glyph-name="registered" unicode="&#xae;" horiz-adv-x="675" 
d="M33 1362q0 126 89.5 215.5t215.5 89.5t215.5 -89.5t89.5 -215.5t-89.5 -215.5t-215.5 -89.5t-215.5 89.5t-89.5 215.5zM82 1362q0 -106 75 -181t181 -75t181 75t75 181t-75 181t-181 75t-181 -75t-75 -181zM502 1409q0 -78 -58 -106l58 -117h-131l-39 102h-33v-102h-125
v352h199q129 0 129 -121v-8zM377 1415q0 33 -33 33h-45v-70h45q33 0 33 33v4z" />
    <glyph glyph-name="macron" unicode="&#xaf;" horiz-adv-x="1024" 
d="M246 1239l43 328h655l-43 -328h-655z" />
    <glyph glyph-name="degree" unicode="&#xb0;" horiz-adv-x="819" 
d="M500 1401h-21q-47 0 -77.5 -27.5t-34.5 -77.5l-2 -22q-5 -44 21 -74.5t71 -30.5h20q47 0 78 27.5t35 77.5l2 22q5 44 -21 74.5t-71 30.5zM502 1626q156 0 242 -87.5t73 -240.5l-2 -22q-13 -152 -114 -242t-246 -90q-156 0 -242.5 87.5t-73.5 240.5l2 22q13 152 114 242
t247 90z" />
    <glyph glyph-name="plusminus" unicode="&#xb1;" horiz-adv-x="1228" 
d="M528 1393h336l-26 -201h364l-43 -336h-364l-27 -201h-336l27 201h-365l43 336h365zM14 262l45 336h1065l-45 -336h-1065z" />
    <glyph glyph-name="twosuperior" unicode="&#xb2;" 
d="M618 1030l-30 -231h-553l22 170l305 307q23 23 25 43l8 61q1 8 -5.5 12t-14 0t-8.5 -12l-7 -49h-256l2 21q13 137 84.5 199.5t210.5 62.5q67 0 117.5 -16.5t79 -41.5t45.5 -57.5t21.5 -61t1.5 -55.5l-4 -36q-7 -59 -33 -101t-82 -98l-117 -117h188z" />
    <glyph glyph-name="threesuperior" unicode="&#xb3;" 
d="M332 1055l-4 -39q-1 -8 5.5 -12t14 0t8.5 12l4 39q3 35 -26 35h-86l28 217h82q28 0 31 24l6 49q1 8 -5.5 12t-14 0t-8.5 -12l-7 -49h-256l2 21q13 136 85.5 199t209.5 63q67 0 117.5 -15.5t78.5 -38.5t45 -53.5t21.5 -57t2.5 -52.5l-2 -27q-9 -114 -109 -162
q78 -56 70 -164l-2 -26q-2 -27 -10.5 -55.5t-30 -62.5t-53 -59.5t-84 -43t-117.5 -17.5q-146 0 -214.5 65t-54.5 191l2 19h271z" />
    <glyph glyph-name="acute" unicode="&#xb4;" horiz-adv-x="1024" 
d="M621 1597h413l-278 -389h-373z" />
    <glyph glyph-name="paragraph" unicode="&#xb6;" horiz-adv-x="1146" 
d="M553 0l72 549h-39q-92 0 -163.5 9t-148.5 40t-123 83.5t-69 146.5t-6 221l6 45q17 128 64.5 222t108 146.5t144.5 84t158 41t166 9.5h428l-209 -1597h-389z" />
    <glyph glyph-name="periodcentered" unicode="&#xb7;" horiz-adv-x="573" 
d="M500 911l-51 -389h-390l52 389h389z" />
    <glyph glyph-name="cedilla" unicode="&#xb8;" horiz-adv-x="1232" 
d="M137 -385l74 137q53 -35 137 -35q54 0 75 12t21 35q0 43 -84 43q-17 0 -38 -2.5t-34 -4.5l-12 -3l-20 60l78 143h164l-41 -76q84 -8 133 -47.5t49 -112.5q0 -97 -72 -151.5t-202 -54.5q-148 0 -228 57z" />
    <glyph glyph-name="onesuperior" unicode="&#xb9;" 
d="M592 799h-543l31 231h137l31 242l-60 -37l-106 190l268 168h211l-74 -563h136z" />
    <glyph glyph-name="ordmasculine" unicode="&#xba;" horiz-adv-x="921" 
d="M23 352l36 281h766l-37 -281h-765zM479 770q-194 0 -294.5 109t-75.5 290l8 60q26 187 135.5 293t300.5 106q194 0 295 -109t76 -290l-9 -60q-26 -187 -135.5 -293t-300.5 -106zM532 1348q-38 0 -59.5 -27t-30.5 -92l-8 -60q-9 -62 6.5 -90t59.5 -28q38 0 59.5 26.5
t30.5 91.5l8 60q9 62 -6.5 90.5t-59.5 28.5z" />
    <glyph glyph-name="guillemotright" unicode="&#xbb;" horiz-adv-x="1187" 
d="M645 850l43 328l412 -297l-49 -369l-490 -297l43 328l219 153zM113 850l43 328l411 -297l-49 -369l-489 -297l43 328l219 153z" />
    <glyph glyph-name="onequarter" unicode="&#xbc;" horiz-adv-x="1638" 
d="M592 799h-543l31 231h137l31 242l-60 -37l-106 190l268 168h211l-74 -563h136zM281 0h-308l1389 1597h307zM1483 0h-271l17 129h-273l25 190l350 480h256l-57 -437h33l-31 -233h-33zM1214 358h46l14 82z" />
    <glyph glyph-name="onehalf" unicode="&#xbd;" horiz-adv-x="1638" 
d="M592 799h-543l31 231h137l31 242l-60 -37l-106 190l268 168h211l-74 -563h136zM281 0h-308l1389 1597h307zM1536 231l-31 -231h-553l23 170l305 307q23 23 25 43l8 62q1 8 -6 12t-14.5 0t-8.5 -12l-6 -50h-256l2 21q13 137 84.5 199.5t210.5 62.5q67 0 117.5 -16.5
t78.5 -41t45 -57t21.5 -61t1.5 -55.5l-4 -37q-7 -59 -33 -101t-82 -98l-116 -117h188z" />
    <glyph glyph-name="threequarters" unicode="&#xbe;" horiz-adv-x="1638" 
d="M332 1055l-4 -39q-1 -8 5.5 -12t14 0t8.5 12l4 39q3 35 -26 35h-86l28 217h82q28 0 31 24l6 49q1 8 -5.5 12t-14 0t-8.5 -12l-7 -49h-256l2 21q13 136 85.5 199t209.5 63q67 0 117.5 -15.5t78.5 -38.5t45 -53.5t21.5 -57t2.5 -52.5l-2 -27q-9 -114 -109 -162
q78 -56 70 -164l-2 -26q-2 -27 -10.5 -55.5t-30 -62.5t-53 -59.5t-84 -43t-117.5 -17.5q-146 0 -214.5 65t-54.5 191l2 19h271zM281 0h-308l1389 1597h307zM1483 0h-271l17 129h-273l25 190l350 480h256l-57 -437h33l-31 -233h-33zM1214 358h46l14 82z" />
    <glyph glyph-name="questiondown" unicode="&#xbf;" horiz-adv-x="1044" 
d="M391 -106q64 0 100.5 51.5t45.5 177.5h381l-5 -31q-36 -270 -160.5 -400t-373.5 -130q-131 0 -224 27.5t-143 76.5t-72 107t-22 129q0 83 21.5 150.5t57 113.5t79 85t90.5 74.5t88.5 71.5t75 86.5t47.5 110.5h266q-2 -92 -38 -176.5t-85 -145.5t-98 -114t-83 -101.5
t-34 -87.5q0 -75 86 -75zM328 696l51 389h389l-51 -389h-389z" />
    <glyph glyph-name="Agrave" unicode="&#xc0;" horiz-adv-x="1331" 
d="M508 1597h532l172 -1597h-415l-25 324h-332l-104 -324h-418zM504 1946h395l78 -226h-373zM715 1147l-162 -488h197z" />
    <glyph glyph-name="Aacute" unicode="&#xc1;" horiz-adv-x="1331" 
d="M508 1597h532l172 -1597h-415l-25 324h-332l-104 -324h-418zM743 1946h396l-162 -226h-373zM715 1147l-162 -488h197z" />
    <glyph glyph-name="Acircumflex" unicode="&#xc2;" horiz-adv-x="1331" 
d="M508 1597h532l172 -1597h-415l-25 324h-332l-104 -324h-418zM668 1720h-338l297 226h389l235 -226h-338l-112 80zM715 1147l-162 -488h197z" />
    <glyph glyph-name="Atilde" unicode="&#xc3;" horiz-adv-x="1331" 
d="M508 1597h532l172 -1597h-415l-25 324h-332l-104 -324h-418zM1026 1946h195q-19 -136 -91 -197t-169 -61q-57 0 -115.5 23.5t-106 47t-77.5 23.5q-68 0 -76 -62h-195q19 136 91 197t169 61q57 0 115.5 -23.5t106 -47t77.5 -23.5q68 0 76 62zM715 1147l-162 -488h197z" />
    <glyph glyph-name="Adieresis" unicode="&#xc4;" horiz-adv-x="1331" 
d="M508 1597h532l172 -1597h-415l-25 324h-332l-104 -324h-418zM791 1946l-31 -226h-307l30 226h308zM1159 1946l-31 -226h-307l31 226h307zM715 1147l-162 -488h197z" />
    <glyph glyph-name="Aring" unicode="&#xc5;" horiz-adv-x="1331" 
d="M508 1597h100q-43 53 -43 127q0 106 74 178t178 72q88 0 144.5 -55.5t56.5 -140.5q0 -106 -78 -181h100l172 -1597h-415l-25 324h-332l-104 -324h-418zM715 1147l-162 -488h197zM805 1851q-48 0 -81.5 -30.5t-33.5 -79.5q0 -40 25 -65t63 -25q48 0 81.5 30.5t33.5 79.5
q0 40 -25 65t-63 25z" />
    <glyph glyph-name="AE" unicode="&#xc6;" horiz-adv-x="1843" 
d="M664 1597h1206l-43 -335h-629v-279h490l-46 -336h-444l2 -311h504l-43 -336h-875l9 324h-330l-139 -324h-418zM823 1147l-211 -488h195z" />
    <glyph glyph-name="Ccedilla" unicode="&#xc7;" horiz-adv-x="1351" 
d="M330 -385l73 137q21 -14 60.5 -24.5t77.5 -10.5q54 0 75 12t21 35q0 43 -84 43q-17 0 -38 -2.5t-33 -4.5l-13 -3l-20 60l63 120q-273 27 -384.5 216t-61.5 565l10 78q56 416 223.5 603t488.5 187q603 0 531 -563l-10 -80h-389q11 93 8 161.5t-40.5 107t-111.5 38.5h-22
q-57 0 -100.5 -21.5t-72.5 -57.5t-50.5 -97t-34.5 -124t-25 -154l-10 -78q-18 -141 -15 -241t46.5 -155t132.5 -55h22q184 0 215 246h389l-2 -18q-31 -284 -175.5 -417t-397.5 -145l-27 -49q84 -8 133 -47.5t49 -112.5q0 -97 -72 -151.5t-202 -54.5q-147 0 -227 57z" />
    <glyph glyph-name="Egrave" unicode="&#xc8;" horiz-adv-x="1187" 
d="M211 1597h1003l-43 -335h-614l-37 -279h512l-45 -336h-512l-41 -311h615l-43 -336h-1004zM442 1946h396l77 -226h-372z" />
    <glyph glyph-name="Eacute" unicode="&#xc9;" horiz-adv-x="1187" 
d="M211 1597h1003l-43 -335h-614l-37 -279h512l-45 -336h-512l-41 -311h615l-43 -336h-1004zM682 1946h395l-162 -226h-372z" />
    <glyph glyph-name="Ecircumflex" unicode="&#xca;" horiz-adv-x="1187" 
d="M211 1597h1003l-43 -335h-614l-37 -279h512l-45 -336h-512l-41 -311h615l-43 -336h-1004zM606 1720h-338l297 226h389l236 -226h-338l-113 80z" />
    <glyph glyph-name="Edieresis" unicode="&#xcb;" horiz-adv-x="1187" 
d="M211 1597h1003l-43 -335h-614l-37 -279h512l-45 -336h-512l-41 -311h615l-43 -336h-1004zM1098 1946l-31 -226h-307l31 226h307zM729 1946l-31 -226h-307l31 226h307z" />
    <glyph glyph-name="Igrave" unicode="&#xcc;" 
d="M610 1597l-209 -1597h-389l209 1597h389zM145 1946h396l77 -226h-372z" />
    <glyph glyph-name="Iacute" unicode="&#xcd;" 
d="M610 1597l-209 -1597h-389l209 1597h389zM385 1946h395l-162 -226h-372z" />
    <glyph glyph-name="Icircumflex" unicode="&#xce;" 
d="M610 1597l-209 -1597h-389l209 1597h389zM309 1720h-338l297 226h389l236 -226h-338l-113 80z" />
    <glyph glyph-name="Idieresis" unicode="&#xcf;" 
d="M610 1597l-209 -1597h-389l209 1597h389zM801 1946l-31 -226h-307l31 226h307zM432 1946l-31 -226h-307l31 226h307z" />
    <glyph glyph-name="Eth" unicode="&#xd0;" horiz-adv-x="1495" 
d="M1434 840l-11 -78q-38 -281 -124.5 -445t-243.5 -240.5t-410 -76.5h-522l88 676h-203l37 287h203l84 634h502q255 0 396.5 -74.5t191 -239.5t12.5 -443zM555 336h113q79 0 136.5 19t94.5 50.5t63 88t40 117t26 151.5l10 78q18 138 6 232t-78 142t-196 48h-92l-41 -299
h309l-37 -287h-309z" />
    <glyph glyph-name="Ntilde" unicode="&#xd1;" horiz-adv-x="1413" 
d="M1419 1597l-209 -1597h-409l-326 881l-31 -308l-73 -573h-369l209 1597h410l325 -880l29 307l76 573h368zM1067 1946h195q-19 -136 -91.5 -197t-169.5 -61q-57 0 -115.5 23.5t-106 47t-77.5 23.5q-67 0 -75 -62h-195q19 136 91 197t169 61q57 0 115.5 -23.5t106 -47
t77.5 -23.5q68 0 76 62z" />
    <glyph glyph-name="Ograve" unicode="&#xd2;" horiz-adv-x="1392" 
d="M535 1946h395l78 -226h-373zM788 1626q328 0 465 -189t82 -597l-10 -78q-56 -417 -223 -604t-488 -187q-328 0 -465.5 189.5t-82.5 597.5l10 78q56 416 223.5 603t488.5 187zM625 307h22q54 0 96.5 21t72 58t52 96t36.5 125t26 155l10 78q18 141 15 241t-46.5 154.5
t-132.5 54.5h-22q-67 0 -116 -30.5t-81 -93t-51.5 -140.5t-34.5 -190l-10 -78q-18 -141 -15 -241t46.5 -155t132.5 -55z" />
    <glyph glyph-name="Oacute" unicode="&#xd3;" horiz-adv-x="1392" 
d="M774 1946h395l-161 -226h-373zM788 1626q328 0 465 -189t82 -597l-10 -78q-56 -417 -223 -604t-488 -187q-328 0 -465.5 189.5t-82.5 597.5l10 78q56 416 223.5 603t488.5 187zM625 307h22q54 0 96.5 21t72 58t52 96t36.5 125t26 155l10 78q18 141 15 241t-46.5 154.5
t-132.5 54.5h-22q-67 0 -116 -30.5t-81 -93t-51.5 -140.5t-34.5 -190l-10 -78q-18 -141 -15 -241t46.5 -155t132.5 -55z" />
    <glyph glyph-name="Ocircumflex" unicode="&#xd4;" horiz-adv-x="1392" 
d="M698 1720h-338l297 226h390l235 -226h-338l-113 80zM788 1626q328 0 465 -189t82 -597l-10 -78q-56 -417 -223 -604t-488 -187q-328 0 -465.5 189.5t-82.5 597.5l10 78q56 416 223.5 603t488.5 187zM625 307h22q54 0 96.5 21t72 58t52 96t36.5 125t26 155l10 78
q18 141 15 241t-46.5 154.5t-132.5 54.5h-22q-67 0 -116 -30.5t-81 -93t-51.5 -140.5t-34.5 -190l-10 -78q-18 -141 -15 -241t46.5 -155t132.5 -55z" />
    <glyph glyph-name="Otilde" unicode="&#xd5;" horiz-adv-x="1392" 
d="M1057 1946h194q-19 -136 -91 -197t-169 -61q-57 0 -115.5 23.5t-106 47t-77.5 23.5q-68 0 -76 -62h-194q19 136 91 197t169 61q57 0 115.5 -23.5t106 -47t77.5 -23.5q68 0 76 62zM788 1626q328 0 465 -189t82 -597l-10 -78q-56 -417 -223 -604t-488 -187
q-328 0 -465.5 189.5t-82.5 597.5l10 78q56 416 223.5 603t488.5 187zM625 307h22q54 0 96.5 21t72 58t52 96t36.5 125t26 155l10 78q18 141 15 241t-46.5 154.5t-132.5 54.5h-22q-67 0 -116 -30.5t-81 -93t-51.5 -140.5t-34.5 -190l-10 -78q-18 -141 -15 -241t46.5 -155
t132.5 -55z" />
    <glyph glyph-name="Odieresis" unicode="&#xd6;" horiz-adv-x="1392" 
d="M821 1946l-30 -226h-308l31 226h307zM1190 1946l-31 -226h-307l31 226h307zM788 1626q328 0 465 -189t82 -597l-10 -78q-56 -417 -223 -604t-488 -187q-328 0 -465.5 189.5t-82.5 597.5l10 78q56 416 223.5 603t488.5 187zM625 307h22q54 0 96.5 21t72 58t52 96t36.5 125
t26 155l10 78q18 141 15 241t-46.5 154.5t-132.5 54.5h-22q-67 0 -116 -30.5t-81 -93t-51.5 -140.5t-34.5 -190l-10 -78q-18 -141 -15 -241t46.5 -155t132.5 -55z" />
    <glyph glyph-name="multiply" unicode="&#xd7;" horiz-adv-x="1228" 
d="M223 240l-207 237l365 322l-279 321l269 238l278 -322l365 322l207 -238l-365 -321l279 -322l-269 -237l-278 321z" />
    <glyph glyph-name="Oslash" unicode="&#xd8;" horiz-adv-x="1392" 
d="M788 1626q235 0 369 -94l51 65h226l-156 -200q106 -192 57 -557l-10 -78q-56 -417 -223 -604t-488 -187q-238 0 -370 95l-51 -66h-226l156 201q-106 187 -57 557l10 78q56 416 223.5 603t488.5 187zM461 758q-12 -76 -15 -142l472 607q-45 67 -142 67h-22
q-67 0 -116 -30.5t-81 -93t-51.5 -140.5t-34.5 -190zM625 307h22q54 0 96.5 21t72 58t52 96t36.5 125t26 155l10 78q12 105 14 141l-471 -606q41 -68 142 -68z" />
    <glyph glyph-name="Ugrave" unicode="&#xd9;" horiz-adv-x="1372" 
d="M524 1946h396l77 -226h-372zM594 -29q-171 0 -285 36t-173.5 107.5t-77.5 167t-1 226.5l144 1089h389l-141 -1079q-7 -64 -1.5 -111t46.5 -73.5t122 -26.5q120 0 174.5 54t67.5 157l141 1079h390l-144 -1089q-13 -105 -39.5 -185t-75 -148.5t-119.5 -112t-175.5 -67.5
t-241.5 -24z" />
    <glyph glyph-name="Uacute" unicode="&#xda;" horiz-adv-x="1372" 
d="M764 1946h395l-162 -226h-372zM594 -29q-171 0 -285 36t-173.5 107.5t-77.5 167t-1 226.5l144 1089h389l-141 -1079q-7 -64 -1.5 -111t46.5 -73.5t122 -26.5q120 0 174.5 54t67.5 157l141 1079h390l-144 -1089q-13 -105 -39.5 -185t-75 -148.5t-119.5 -112t-175.5 -67.5
t-241.5 -24z" />
    <glyph glyph-name="Ucircumflex" unicode="&#xdb;" horiz-adv-x="1372" 
d="M688 1720h-338l297 226h389l236 -226h-338l-113 80zM594 -29q-171 0 -285 36t-173.5 107.5t-77.5 167t-1 226.5l144 1089h389l-141 -1079q-7 -64 -1.5 -111t46.5 -73.5t122 -26.5q120 0 174.5 54t67.5 157l141 1079h390l-144 -1089q-13 -105 -39.5 -185t-75 -148.5
t-119.5 -112t-175.5 -67.5t-241.5 -24z" />
    <glyph glyph-name="Udieresis" unicode="&#xdc;" horiz-adv-x="1372" 
d="M1180 1946l-31 -226h-307l30 226h308zM811 1946l-31 -226h-307l31 226h307zM594 -29q-171 0 -285 36t-173.5 107.5t-77.5 167t-1 226.5l144 1089h389l-141 -1079q-7 -64 -1.5 -111t46.5 -73.5t122 -26.5q120 0 174.5 54t67.5 157l141 1079h390l-144 -1089
q-13 -105 -39.5 -185t-75 -148.5t-119.5 -112t-175.5 -67.5t-241.5 -24z" />
    <glyph glyph-name="Yacute" unicode="&#xdd;" horiz-adv-x="1310" 
d="M813 492l-63 -492h-390l64 492l-307 1105h426l139 -626l303 626h426zM733 1946h395l-161 -226h-373z" />
    <glyph glyph-name="Thorn" unicode="&#xde;" horiz-adv-x="1269" 
d="M600 1597l-35 -274h160q92 0 163.5 -9t148.5 -40t123 -83.5t69 -146.5t6 -221l-6 -45q-12 -92 -40 -167t-65 -126.5t-87.5 -90t-101 -61.5t-113 -36.5t-116.5 -18t-118 -4.5h-162l-35 -274h-389l209 1597h389zM469 610h178q32 0 60.5 7.5t57.5 26t48.5 55.5t24.5 89l2 23
q9 103 -31.5 139.5t-110.5 36.5h-178z" />
    <glyph glyph-name="germandbls" unicode="&#xdf;" horiz-adv-x="1331" 
d="M582 664l30 235q102 50 167 130.5t65 174.5q0 139 -148 139q-76 0 -121.5 -47t-52.5 -108l-155 -1188h-377l157 1206q60 461 578 461q144 0 248.5 -36t161.5 -99.5t79 -145t9 -178.5l-4 -30q-16 -124 -79 -215.5t-155 -147.5l29 -22q124 -97 182.5 -206t40.5 -243l-4 -31
q-47 -342 -447 -342q-84 0 -145.5 18.5t-97 51t-56 78t-21.5 98.5t5 113l2 18h293q-13 -94 37 -94q53 0 57 80q4 113 -96 190z" />
    <glyph glyph-name="agrave" unicode="&#xe0;" horiz-adv-x="1146" 
d="M268 1597h414l135 -389h-373zM637 0v111q-146 -140 -340 -140q-92 0 -158.5 28t-100 77t-45.5 107.5t-3 125.5l4 31q9 69 33.5 121t59.5 87.5t89 61t111.5 40.5t136.5 28l250 39q6 60 -18 87t-89 27q-61 0 -92.5 -29.5t-34.5 -74.5h-354l2 23q32 364 498 364
q259 0 373 -110.5t88 -307.5l-52 -389l-18 -307h-340zM461 274q46 0 90.5 18.5t71.5 45.5l22 162l-158 -25q-102 -14 -112 -96l-2 -19q-3 -36 18 -61t70 -25z" />
    <glyph glyph-name="aacute" unicode="&#xe1;" horiz-adv-x="1146" 
d="M682 1597h414l-279 -389h-373zM637 0v111q-146 -140 -340 -140q-92 0 -158.5 28t-100 77t-45.5 107.5t-3 125.5l4 31q9 69 33.5 121t59.5 87.5t89 61t111.5 40.5t136.5 28l250 39q6 60 -18 87t-89 27q-61 0 -92.5 -29.5t-34.5 -74.5h-354l2 23q32 364 498 364
q259 0 373 -110.5t88 -307.5l-52 -389l-18 -307h-340zM461 274q46 0 90.5 18.5t71.5 45.5l22 162l-158 -25q-102 -14 -112 -96l-2 -19q-3 -36 18 -61t70 -25z" />
    <glyph glyph-name="acircumflex" unicode="&#xe2;" horiz-adv-x="1146" 
d="M498 1208h-328l328 389h368l226 -389h-328l-113 150zM637 0v111q-146 -140 -340 -140q-92 0 -158.5 28t-100 77t-45.5 107.5t-3 125.5l4 31q9 69 33.5 121t59.5 87.5t89 61t111.5 40.5t136.5 28l250 39q6 60 -18 87t-89 27q-61 0 -92.5 -29.5t-34.5 -74.5h-354l2 23
q32 364 498 364q259 0 373 -110.5t88 -307.5l-52 -389l-18 -307h-340zM461 274q46 0 90.5 18.5t71.5 45.5l22 162l-158 -25q-102 -14 -112 -96l-2 -19q-3 -36 18 -61t70 -25z" />
    <glyph glyph-name="atilde" unicode="&#xe3;" horiz-adv-x="1146" 
d="M877 1597h245q-23 -182 -103.5 -271t-189.5 -89q-57 0 -117.5 26t-111.5 52t-84 26q-64 0 -72 -71h-245q25 182 104.5 271t188.5 89q57 0 118 -26t112.5 -52t84.5 -26q62 0 70 71zM637 0v111q-146 -140 -340 -140q-92 0 -158.5 28t-100 77t-45.5 107.5t-3 125.5l4 31
q9 69 33.5 121t59.5 87.5t89 61t111.5 40.5t136.5 28l250 39q6 60 -18 87t-89 27q-61 0 -92.5 -29.5t-34.5 -74.5h-354l2 23q32 364 498 364q259 0 373 -110.5t88 -307.5l-52 -389l-18 -307h-340zM461 274q46 0 90.5 18.5t71.5 45.5l22 162l-158 -25q-102 -14 -112 -96
l-2 -19q-3 -36 18 -61t70 -25z" />
    <glyph glyph-name="adieresis" unicode="&#xe4;" horiz-adv-x="1146" 
d="M641 1597l-51 -389h-389l51 389h389zM1112 1597l-51 -389h-389l51 389h389zM637 0v111q-146 -140 -340 -140q-92 0 -158.5 28t-100 77t-45.5 107.5t-3 125.5l4 31q9 69 33.5 121t59.5 87.5t89 61t111.5 40.5t136.5 28l250 39q6 60 -18 87t-89 27q-61 0 -92.5 -29.5
t-34.5 -74.5h-354l2 23q32 364 498 364q259 0 373 -110.5t88 -307.5l-52 -389l-18 -307h-340zM461 274q46 0 90.5 18.5t71.5 45.5l22 162l-158 -25q-102 -14 -112 -96l-2 -19q-3 -36 18 -61t70 -25z" />
    <glyph glyph-name="aring" unicode="&#xe5;" horiz-adv-x="1146" 
d="M631 1180q-88 0 -144.5 55.5t-56.5 140.5q0 106 74 178t178 72q88 0 144.5 -55.5t56.5 -140.5q0 -106 -74 -178t-178 -72zM670 1503q-48 0 -81.5 -30.5t-33.5 -79.5q0 -40 25 -65t63 -25q48 0 81.5 30.5t33.5 79.5q0 40 -25 65t-63 25zM637 0v111q-146 -140 -340 -140
q-92 0 -158.5 28t-100 77t-45.5 107.5t-3 125.5l4 31q9 69 33.5 121t59.5 87.5t89 61t111.5 40.5t136.5 28l250 39q6 60 -18 87t-89 27q-61 0 -92.5 -29.5t-34.5 -74.5h-354l2 23q32 364 498 364q259 0 373 -110.5t88 -307.5l-52 -389l-18 -307h-340zM461 274
q46 0 90.5 18.5t71.5 45.5l22 162l-158 -25q-102 -14 -112 -96l-2 -19q-3 -36 18 -61t70 -25z" />
    <glyph glyph-name="ae" unicode="&#xe6;" horiz-adv-x="1753" 
d="M586 1114q235 0 332 -108q118 108 305 108q264 0 385.5 -156t85.5 -426l-17 -122h-667q-5 -156 147 -156q68 0 110.5 27t47.5 67h354l-2 -14q-24 -168 -158.5 -265.5t-367.5 -97.5q-270 0 -402 148q-168 -148 -401 -148q-70 0 -127 13t-96 36.5t-67.5 55t-41.5 69
t-18.5 79.5t2.5 85l4 31q9 69 33.5 121t59.5 87.5t89 61t111.5 40.5t136.5 28l250 39q6 60 -18 87t-89 27q-61 0 -92.5 -29.5t-34.5 -74.5h-354l2 23q32 364 498 364zM461 274q87 0 180 76q-6 76 2 150l-156 -25q-102 -14 -112 -96l-2 -19q-3 -36 18 -61t70 -25zM1210 831
q-132 0 -166 -155h291q3 80 -26 117.5t-99 37.5z" />
    <glyph glyph-name="ccedilla" unicode="&#xe7;" horiz-adv-x="1081" 
d="M182 -385l74 137q21 -14 60 -24.5t77 -10.5q54 0 75 12t21 35q0 43 -83 43q-17 0 -38 -2.5t-34 -4.5l-12 -3l-21 60l66 123q-195 32 -287 173.5t-64 350.5l11 78q15 115 56 210t109 168t169.5 113.5t228.5 40.5q239 0 351.5 -105.5t84.5 -308.5l-6 -45h-354
q16 136 -95 136q-69 0 -113 -52.5t-57 -156.5l-10 -78q-13 -102 18 -155.5t103 -53.5q54 0 84.5 32t36.5 83h354l-6 -45q-24 -172 -137 -275.5t-316 -116.5l-26 -49q84 -8 133 -47.5t49 -112.5q0 -97 -72 -151.5t-202 -54.5q-148 0 -228 57z" />
    <glyph glyph-name="egrave" unicode="&#xe8;" horiz-adv-x="1146" 
d="M276 1597h414l135 -389h-372zM1049 410h-668q-5 -156 147 -156q68 0 110.5 27t47.5 67h354l-2 -14q-24 -168 -158.5 -265.5t-367.5 -97.5q-184 0 -304 70t-166.5 188.5t-25.5 274.5l11 78q15 115 56 209.5t109 168t170.5 114t231.5 40.5q264 0 385.5 -156t85.5 -426z
M582 831q-132 0 -166 -155h291q3 80 -26 117.5t-99 37.5z" />
    <glyph glyph-name="eacute" unicode="&#xe9;" horiz-adv-x="1146" 
d="M690 1597h414l-279 -389h-372zM1049 410h-668q-5 -156 147 -156q68 0 110.5 27t47.5 67h354l-2 -14q-24 -168 -158.5 -265.5t-367.5 -97.5q-184 0 -304 70t-166.5 188.5t-25.5 274.5l11 78q15 115 56 209.5t109 168t170.5 114t231.5 40.5q264 0 385.5 -156t85.5 -426z
M582 831q-132 0 -166 -155h291q3 80 -26 117.5t-99 37.5z" />
    <glyph glyph-name="ecircumflex" unicode="&#xea;" horiz-adv-x="1146" 
d="M506 1208h-328l328 389h368l226 -389h-328l-113 150zM1049 410h-668q-5 -156 147 -156q68 0 110.5 27t47.5 67h354l-2 -14q-24 -168 -158.5 -265.5t-367.5 -97.5q-184 0 -304 70t-166.5 188.5t-25.5 274.5l11 78q15 115 56 209.5t109 168t170.5 114t231.5 40.5
q264 0 385.5 -156t85.5 -426zM582 831q-132 0 -166 -155h291q3 80 -26 117.5t-99 37.5z" />
    <glyph glyph-name="edieresis" unicode="&#xeb;" horiz-adv-x="1146" 
d="M649 1597l-51 -389h-389l51 389h389zM1120 1597l-51 -389h-389l51 389h389zM1049 410h-668q-5 -156 147 -156q68 0 110.5 27t47.5 67h354l-2 -14q-24 -168 -158.5 -265.5t-367.5 -97.5q-184 0 -304 70t-166.5 188.5t-25.5 274.5l11 78q15 115 56 209.5t109 168t170.5 114
t231.5 40.5q264 0 385.5 -156t85.5 -426zM582 831q-132 0 -166 -155h291q3 80 -26 117.5t-99 37.5z" />
    <glyph glyph-name="igrave" unicode="&#xec;" horiz-adv-x="573" 
d="M-2 0l141 1085h377l-141 -1085h-377zM-18 1597h413l135 -389h-372z" />
    <glyph glyph-name="iacute" unicode="&#xed;" horiz-adv-x="573" 
d="M-2 0l141 1085h377l-141 -1085h-377zM395 1597h414l-279 -389h-372z" />
    <glyph glyph-name="icircumflex" unicode="&#xee;" horiz-adv-x="573" 
d="M-2 0l141 1085h377l-141 -1085h-377zM211 1208h-326l326 389h369l225 -389h-328l-112 150z" />
    <glyph glyph-name="idieresis" unicode="&#xef;" horiz-adv-x="573" 
d="M-2 0l141 1085h377l-141 -1085h-377zM825 1597l-51 -389h-389l51 389h389zM354 1597l-51 -389h-389l51 389h389z" />
    <glyph glyph-name="eth" unicode="&#xf0;" horiz-adv-x="1146" 
d="M125 1331l45 336q382 -24 582 -137l268 137l-29 -205l-92 -47q33 -35 59 -78q67 -108 99.5 -239.5t30.5 -255.5t-17 -258l-10 -80q-15 -115 -56 -210t-109 -168.5t-170.5 -114t-231.5 -40.5q-261 0 -385.5 147t-92.5 386l11 78q32 242 180.5 387t345.5 145q68 0 98 -10
q-51 80 -125 121l-391 -201l27 205l145 74q-92 25 -182 28zM401 582l-10 -78q-14 -105 15.5 -157t109.5 -52q143 0 170 209l10 78q14 105 -15.5 157t-109.5 52q-143 0 -170 -209z" />
    <glyph glyph-name="ntilde" unicode="&#xf1;" horiz-adv-x="1218" 
d="M920 1597h245q-23 -182 -103.5 -271t-189.5 -89q-57 0 -117.5 26t-111.5 52t-84 26q-64 0 -72 -71h-245q25 182 104.5 271t188.5 89q57 0 118 -26t112.5 -52t84.5 -26q62 0 70 71zM1028 0h-377l88 666q15 125 -98 125q-55 0 -100 -26.5t-70 -57.5l-92 -707h-377l102 778
l19 307h340v-143q145 172 373 172q74 0 130.5 -21.5t88.5 -58.5t51.5 -86.5t20.5 -105.5t-5 -115z" />
    <glyph glyph-name="ograve" unicode="&#xf2;" horiz-adv-x="1146" 
d="M268 1597h414l135 -389h-373zM1071 582l-10 -78q-15 -115 -56 -210t-109 -168.5t-170.5 -114t-231.5 -40.5q-261 0 -384.5 147t-93.5 386l11 78q15 115 56 209.5t109 168t170.5 114t231.5 40.5q261 0 385 -146.5t92 -385.5zM401 582l-10 -78q-14 -105 15.5 -157
t109.5 -52q143 0 170 209l10 78q14 105 -15.5 157t-109.5 52q-143 0 -170 -209z" />
    <glyph glyph-name="oacute" unicode="&#xf3;" horiz-adv-x="1146" 
d="M682 1597h414l-279 -389h-373zM1071 582l-10 -78q-15 -115 -56 -210t-109 -168.5t-170.5 -114t-231.5 -40.5q-261 0 -384.5 147t-93.5 386l11 78q15 115 56 209.5t109 168t170.5 114t231.5 40.5q261 0 385 -146.5t92 -385.5zM401 582l-10 -78q-14 -105 15.5 -157
t109.5 -52q143 0 170 209l10 78q14 105 -15.5 157t-109.5 52q-143 0 -170 -209z" />
    <glyph glyph-name="ocircumflex" unicode="&#xf4;" horiz-adv-x="1146" 
d="M498 1208h-328l328 389h368l226 -389h-328l-113 150zM1071 582l-10 -78q-15 -115 -56 -210t-109 -168.5t-170.5 -114t-231.5 -40.5q-261 0 -384.5 147t-93.5 386l11 78q15 115 56 209.5t109 168t170.5 114t231.5 40.5q261 0 385 -146.5t92 -385.5zM401 582l-10 -78
q-14 -105 15.5 -157t109.5 -52q143 0 170 209l10 78q14 105 -15.5 157t-109.5 52q-143 0 -170 -209z" />
    <glyph glyph-name="otilde" unicode="&#xf5;" horiz-adv-x="1146" 
d="M877 1597h245q-23 -182 -103.5 -271t-189.5 -89q-57 0 -117.5 26t-111.5 52t-84 26q-64 0 -72 -71h-245q25 182 104.5 271t188.5 89q57 0 118 -26t112.5 -52t84.5 -26q62 0 70 71zM1071 582l-10 -78q-15 -115 -56 -210t-109 -168.5t-170.5 -114t-231.5 -40.5
q-261 0 -384.5 147t-93.5 386l11 78q15 115 56 209.5t109 168t170.5 114t231.5 40.5q261 0 385 -146.5t92 -385.5zM401 582l-10 -78q-14 -105 15.5 -157t109.5 -52q143 0 170 209l10 78q14 105 -15.5 157t-109.5 52q-143 0 -170 -209z" />
    <glyph glyph-name="odieresis" unicode="&#xf6;" horiz-adv-x="1146" 
d="M1112 1597l-51 -389h-389l51 389h389zM641 1597l-51 -389h-389l51 389h389zM1071 582l-10 -78q-15 -115 -56 -210t-109 -168.5t-170.5 -114t-231.5 -40.5q-261 0 -384.5 147t-93.5 386l11 78q15 115 56 209.5t109 168t170.5 114t231.5 40.5q261 0 385 -146.5t92 -385.5z
M401 582l-10 -78q-14 -105 15.5 -157t109.5 -52q143 0 170 209l10 78q14 105 -15.5 157t-109.5 52q-143 0 -170 -209z" />
    <glyph glyph-name="divide" unicode="&#xf7;" horiz-adv-x="1228" 
d="M63 631l46 336h1065l-46 -336h-1065zM782 573l-51 -389h-389l51 389h389zM893 1413l-51 -389h-389l51 389h389z" />
    <glyph glyph-name="oslash" unicode="&#xf8;" horiz-adv-x="1146" 
d="M1071 582l-10 -78q-15 -115 -56 -210t-109 -168.5t-170.5 -114t-231.5 -40.5q-191 0 -312 82l-49 -53h-184l137 147q-95 133 -70 357l11 78q15 115 56 209.5t109 168t170.5 114t231.5 40.5q188 0 309 -82l49 53h185l-136 -147q98 -137 70 -356zM686 504l10 78q0 5 1 15
t1 15l-270 -293q30 -24 88 -24q143 0 170 209zM401 582l-10 -78l-4 -29l270 291q-31 25 -86 25q-143 0 -170 -209z" />
    <glyph glyph-name="ugrave" unicode="&#xf9;" horiz-adv-x="1218" 
d="M297 1597h414l135 -389h-373zM131 1085h377l-88 -665q-15 -125 98 -125q55 0 100 26.5t70 57.5l92 706h377l-102 -778l-19 -307h-340v143q-145 -172 -372 -172q-74 0 -130.5 21.5t-89 58.5t-52 86.5t-20.5 105.5t5 115z" />
    <glyph glyph-name="uacute" unicode="&#xfa;" horiz-adv-x="1218" 
d="M711 1597h413l-278 -389h-373zM131 1085h377l-88 -665q-15 -125 98 -125q55 0 100 26.5t70 57.5l92 706h377l-102 -778l-19 -307h-340v143q-145 -172 -372 -172q-74 0 -130.5 21.5t-89 58.5t-52 86.5t-20.5 105.5t5 115z" />
    <glyph glyph-name="ucircumflex" unicode="&#xfb;" horiz-adv-x="1218" 
d="M526 1208h-327l327 389h369l225 -389h-327l-113 150zM131 1085h377l-88 -665q-15 -125 98 -125q55 0 100 26.5t70 57.5l92 706h377l-102 -778l-19 -307h-340v143q-145 -172 -372 -172q-74 0 -130.5 21.5t-89 58.5t-52 86.5t-20.5 105.5t5 115z" />
    <glyph glyph-name="udieresis" unicode="&#xfc;" horiz-adv-x="1218" 
d="M1141 1597l-51 -389h-390l52 389h389zM670 1597l-52 -389h-389l52 389h389zM131 1085h377l-88 -665q-15 -125 98 -125q55 0 100 26.5t70 57.5l92 706h377l-102 -778l-19 -307h-340v143q-145 -172 -372 -172q-74 0 -130.5 21.5t-89 58.5t-52 86.5t-20.5 105.5t5 115z" />
    <glyph glyph-name="yacute" unicode="&#xfd;" horiz-adv-x="1167" 
d="M541 451l258 634h409l-514 -1024l-196 -471h-451l238 471l-244 1024h410zM692 1597h414l-279 -389h-372z" />
    <glyph glyph-name="thorn" unicode="&#xfe;" horiz-adv-x="1198" 
d="M215 1638h377l-84 -634q117 110 301 110q186 0 266 -141t47 -391l-10 -78q-16 -120 -50 -215t-88.5 -167.5t-135 -111.5t-181.5 -39q-108 0 -168 30.5t-102 80.5l-65 -492h-377zM469 707l-43 -328q43 -84 135 -84q76 0 119 51.5t57 157.5l11 78q27 209 -119 209
q-92 0 -160 -84z" />
    <glyph glyph-name="ydieresis" unicode="&#xff;" horiz-adv-x="1167" 
d="M541 451l258 634h409l-514 -1024l-196 -471h-451l238 471l-244 1024h410zM1122 1597l-51 -389h-389l51 389h389zM651 1597l-51 -389h-389l51 389h389z" />
    <glyph glyph-name="Amacron" unicode="&#x100;" horiz-adv-x="1331" 
d="M508 1597h532l172 -1597h-415l-25 324h-332l-104 -324h-418zM463 1720l31 226h655l-31 -226h-655zM715 1147l-162 -488h197z" />
    <glyph glyph-name="amacron" unicode="&#x101;" horiz-adv-x="1146" 
d="M307 1239l43 328h656l-43 -328h-656zM637 0v111q-146 -140 -340 -140q-92 0 -158.5 28t-100 77t-45.5 107.5t-3 125.5l4 31q9 69 33.5 121t59.5 87.5t89 61t111.5 40.5t136.5 28l250 39q6 60 -18 87t-89 27q-61 0 -92.5 -29.5t-34.5 -74.5h-354l2 23q32 364 498 364
q259 0 373 -110.5t88 -307.5l-52 -389l-18 -307h-340zM461 274q46 0 90.5 18.5t71.5 45.5l22 162l-158 -25q-102 -14 -112 -96l-2 -19q-3 -36 18 -61t70 -25z" />
    <glyph glyph-name="Abreve" unicode="&#x102;" horiz-adv-x="1331" 
d="M508 1597h532l172 -1597h-415l-25 324h-332l-104 -324h-418zM786 1688q-118 0 -197 20.5t-115.5 58t-47.5 80.5t-4 99h256q-5 -31 27.5 -46.5t107.5 -15.5q143 0 152 62h256q-7 -56 -30 -99t-70 -80.5t-132 -58t-203 -20.5zM715 1147l-162 -488h197z" />
    <glyph glyph-name="abreve" unicode="&#x103;" horiz-adv-x="1146" 
d="M627 1180q-111 0 -187 31.5t-112.5 87t-49 132t4.5 166.5h266q-10 -77 22.5 -106t92.5 -29q61 0 101 29t50 106h266q-10 -93 -39.5 -167t-82.5 -131t-137 -88t-195 -31zM637 0v111q-146 -140 -340 -140q-92 0 -158.5 28t-100 77t-45.5 107.5t-3 125.5l4 31q9 69 33.5 121
t59.5 87.5t89 61t111.5 40.5t136.5 28l250 39q6 60 -18 87t-89 27q-61 0 -92.5 -29.5t-34.5 -74.5h-354l2 23q32 364 498 364q259 0 373 -110.5t88 -307.5l-52 -389l-18 -307h-340zM461 274q46 0 90.5 18.5t71.5 45.5l22 162l-158 -25q-102 -14 -112 -96l-2 -19
q-3 -36 18 -61t70 -25z" />
    <glyph glyph-name="Aogonek" unicode="&#x104;" horiz-adv-x="1331" 
d="M1212 0q-27 -12 -43 -20.5t-40 -25.5t-36 -37.5t-12 -45.5t20 -40t52 -15q41 0 76 20l53 -225q-36 -22 -99 -37.5t-128 -15.5q-123 0 -192.5 48t-69.5 142q0 141 114 252h-110l-25 324h-332l-104 -324h-418l590 1597h532zM715 1147l-162 -488h197z" />
    <glyph glyph-name="aogonek" unicode="&#x105;" horiz-adv-x="1146" 
d="M977 0q-27 -12 -43 -20.5t-40 -25.5t-36 -37.5t-12 -45.5t20 -40t52 -15q40 0 75 20l54 -225q-36 -22 -99 -37.5t-129 -15.5q-123 0 -192.5 48t-69.5 142q0 115 80 215v148q-146 -140 -340 -140q-92 0 -158.5 28t-100 77t-45.5 107.5t-3 125.5l4 31q9 69 33.5 121
t59.5 87.5t89 61t111.5 40.5t136.5 28l250 39q6 60 -18 87t-89 27q-61 0 -92.5 -29.5t-34.5 -74.5h-354l2 23q32 364 498 364q259 0 373 -110.5t88 -307.5l-52 -389zM461 274q46 0 90.5 18.5t71.5 45.5l22 162l-158 -25q-102 -14 -112 -96l-2 -19q-3 -36 18 -61t70 -25z" />
    <glyph glyph-name="Cacute" unicode="&#x106;" horiz-adv-x="1351" 
d="M764 1946h395l-162 -226h-372zM471 836l-10 -78q-18 -141 -15 -241t46.5 -155t132.5 -55h22q184 0 215 246h389l-2 -18q-17 -153 -67.5 -262.5t-133.5 -175t-189.5 -96t-244.5 -30.5q-328 0 -465.5 189.5t-82.5 597.5l10 78q56 416 223.5 603t488.5 187q603 0 531 -563
l-10 -80h-389q11 93 8 161.5t-40.5 107t-111.5 38.5h-22q-57 0 -100.5 -21.5t-72.5 -57.5t-50.5 -97t-34.5 -124t-25 -154z" />
    <glyph glyph-name="cacute" unicode="&#x107;" horiz-adv-x="1081" 
d="M662 1597h413l-278 -389h-373zM401 582l-10 -78q-13 -102 18 -155.5t103 -53.5q54 0 84.5 32t36.5 83h354l-6 -45q-26 -183 -152 -288.5t-354 -105.5q-248 0 -369.5 148t-89.5 385l11 78q15 115 56 210t109 168t169.5 113.5t228.5 40.5q239 0 351.5 -105.5t84.5 -308.5
l-6 -45h-354q16 136 -95 136q-69 0 -113 -52.5t-57 -156.5z" />
    <glyph glyph-name="Ccircumflex" unicode="&#x108;" horiz-adv-x="1351" 
d="M688 1720h-338l297 226h389l236 -226h-338l-113 80zM471 836l-10 -78q-18 -141 -15 -241t46.5 -155t132.5 -55h22q184 0 215 246h389l-2 -18q-17 -153 -67.5 -262.5t-133.5 -175t-189.5 -96t-244.5 -30.5q-328 0 -465.5 189.5t-82.5 597.5l10 78q56 416 223.5 603
t488.5 187q603 0 531 -563l-10 -80h-389q11 93 8 161.5t-40.5 107t-111.5 38.5h-22q-57 0 -100.5 -21.5t-72.5 -57.5t-50.5 -97t-34.5 -124t-25 -154z" />
    <glyph glyph-name="ccircumflex" unicode="&#x109;" horiz-adv-x="1081" 
d="M477 1208h-327l327 389h369l225 -389h-328l-112 150zM401 582l-10 -78q-13 -102 18 -155.5t103 -53.5q54 0 84.5 32t36.5 83h354l-6 -45q-26 -183 -152 -288.5t-354 -105.5q-248 0 -369.5 148t-89.5 385l11 78q15 115 56 210t109 168t169.5 113.5t228.5 40.5
q239 0 351.5 -105.5t84.5 -308.5l-6 -45h-354q16 136 -95 136q-69 0 -113 -52.5t-57 -156.5z" />
    <glyph glyph-name="Cdotaccent" unicode="&#x10a;" horiz-adv-x="1351" 
d="M995 1946l-30 -226h-308l31 226h307zM471 836l-10 -78q-18 -141 -15 -241t46.5 -155t132.5 -55h22q184 0 215 246h389l-2 -18q-17 -153 -67.5 -262.5t-133.5 -175t-189.5 -96t-244.5 -30.5q-328 0 -465.5 189.5t-82.5 597.5l10 78q56 416 223.5 603t488.5 187
q603 0 531 -563l-10 -80h-389q11 93 8 161.5t-40.5 107t-111.5 38.5h-22q-57 0 -100.5 -21.5t-72.5 -57.5t-50.5 -97t-34.5 -124t-25 -154z" />
    <glyph glyph-name="cdotaccent" unicode="&#x10b;" horiz-adv-x="1081" 
d="M856 1597l-51 -389h-389l51 389h389zM401 582l-10 -78q-13 -102 18 -155.5t103 -53.5q54 0 84.5 32t36.5 83h354l-6 -45q-26 -183 -152 -288.5t-354 -105.5q-248 0 -369.5 148t-89.5 385l11 78q15 115 56 210t109 168t169.5 113.5t228.5 40.5q239 0 351.5 -105.5
t84.5 -308.5l-6 -45h-354q16 136 -95 136q-69 0 -113 -52.5t-57 -156.5z" />
    <glyph glyph-name="Ccaron" unicode="&#x10c;" horiz-adv-x="1351" 
d="M381 1946h338l110 -82l136 82h338l-297 -226h-390zM471 836l-10 -78q-18 -141 -15 -241t46.5 -155t132.5 -55h22q184 0 215 246h389l-2 -18q-17 -153 -67.5 -262.5t-133.5 -175t-189.5 -96t-244.5 -30.5q-328 0 -465.5 189.5t-82.5 597.5l10 78q56 416 223.5 603
t488.5 187q603 0 531 -563l-10 -80h-389q11 93 8 161.5t-40.5 107t-111.5 38.5h-22q-57 0 -100.5 -21.5t-72.5 -57.5t-50.5 -97t-34.5 -124t-25 -154z" />
    <glyph glyph-name="ccaron" unicode="&#x10d;" horiz-adv-x="1081" 
d="M201 1597h327l113 -151l154 151h327l-327 -389h-369zM401 582l-10 -78q-13 -102 18 -155.5t103 -53.5q54 0 84.5 32t36.5 83h354l-6 -45q-26 -183 -152 -288.5t-354 -105.5q-248 0 -369.5 148t-89.5 385l11 78q15 115 56 210t109 168t169.5 113.5t228.5 40.5
q239 0 351.5 -105.5t84.5 -308.5l-6 -45h-354q16 136 -95 136q-69 0 -113 -52.5t-57 -156.5z" />
    <glyph glyph-name="Dcaron" unicode="&#x10e;" horiz-adv-x="1372" 
d="M350 1946h338l111 -82l135 82h338l-297 -226h-389zM1313 840l-10 -78q-28 -211 -82 -353t-147.5 -235t-226.5 -133.5t-323 -40.5h-522l209 1597h502q255 0 396.5 -74.5t191 -239.5t12.5 -443zM434 336h113q79 0 136.5 19t94.5 50.5t63 88t40 117t26 151.5l11 78
q18 138 6 232t-78.5 142t-196.5 48h-92z" />
    <glyph glyph-name="dcaron" unicode="&#x10f;" horiz-adv-x="1218" 
d="M1333 1638h215l-108 -430h-164zM500 1114q109 0 168.5 -30t101.5 -80l84 634h377l-176 -1331l-19 -307h-340v133q-59 -79 -150 -120.5t-198 -41.5q-186 0 -266 141.5t-47 391.5l10 78q16 120 50 215t88.5 167t135 111t181.5 39zM688 379l43 328q-43 84 -135 84
q-76 0 -119 -51.5t-57 -157.5l-10 -78q-14 -105 14.5 -157t103.5 -52q92 0 160 84z" />
    <glyph glyph-name="Dcroat" unicode="&#x110;" horiz-adv-x="1495" 
d="M1434 840l-11 -78q-38 -281 -124.5 -445t-243.5 -240.5t-410 -76.5h-522l88 676h-203l37 287h203l84 634h502q255 0 396.5 -74.5t191 -239.5t12.5 -443zM555 336h113q79 0 136.5 19t94.5 50.5t63 88t40 117t26 151.5l10 78q18 138 6 232t-78 142t-196 48h-92l-41 -299
h309l-37 -287h-309z" />
    <glyph glyph-name="dcroat" unicode="&#x111;" horiz-adv-x="1218" 
d="M688 379l43 328q-43 84 -135 84q-76 0 -119 -51.5t-57 -157.5l-10 -78q-14 -105 14.5 -157t103.5 -52q92 0 160 84zM348 -29q-186 0 -266 141.5t-47 391.5l10 78q16 120 50 215t88.5 167t135 111t181.5 39q109 0 168.5 -30t101.5 -80l29 225h-219l36 266h218l20 143h377
l-21 -143h125l-37 -266h-122l-121 -922l-19 -307h-340v133q-59 -79 -150 -120.5t-198 -41.5z" />
    <glyph glyph-name="Emacron" unicode="&#x112;" horiz-adv-x="1187" 
d="M211 1597h1003l-43 -335h-614l-37 -279h512l-45 -336h-512l-41 -311h615l-43 -336h-1004zM401 1720l31 226h655l-30 -226h-656z" />
    <glyph glyph-name="emacron" unicode="&#x113;" horiz-adv-x="1146" 
d="M315 1239l43 328h656l-43 -328h-656zM1049 410h-668q-5 -156 147 -156q68 0 110.5 27t47.5 67h354l-2 -14q-24 -168 -158.5 -265.5t-367.5 -97.5q-184 0 -304 70t-166.5 188.5t-25.5 274.5l11 78q15 115 56 209.5t109 168t170.5 114t231.5 40.5q264 0 385.5 -156
t85.5 -426zM582 831q-132 0 -166 -155h291q3 80 -26 117.5t-99 37.5z" />
    <glyph glyph-name="Ebreve" unicode="&#x114;" horiz-adv-x="1187" 
d="M211 1597h1003l-43 -335h-614l-37 -279h512l-45 -336h-512l-41 -311h615l-43 -336h-1004zM725 1688q-118 0 -197 20.5t-116 58t-48 80.5t-4 99h256q-5 -31 28 -46.5t108 -15.5q142 0 151 62h256q-6 -44 -20.5 -79.5t-46 -70t-78 -57.5t-120.5 -37t-169 -14z" />
    <glyph glyph-name="ebreve" unicode="&#x115;" horiz-adv-x="1146" 
d="M635 1180q-111 0 -187 31.5t-112.5 87t-49 132t4.5 166.5h266q-10 -77 22.5 -106t92.5 -29q61 0 101 29t50 106h267q-10 -93 -39.5 -167t-83 -131t-137.5 -88t-195 -31zM1049 410h-668q-5 -156 147 -156q68 0 110.5 27t47.5 67h354l-2 -14q-24 -168 -158.5 -265.5
t-367.5 -97.5q-184 0 -304 70t-166.5 188.5t-25.5 274.5l11 78q15 115 56 209.5t109 168t170.5 114t231.5 40.5q264 0 385.5 -156t85.5 -426zM582 831q-132 0 -166 -155h291q3 80 -26 117.5t-99 37.5z" />
    <glyph glyph-name="Edotaccent" unicode="&#x116;" horiz-adv-x="1187" 
d="M211 1597h1003l-43 -335h-614l-37 -279h512l-45 -336h-512l-41 -311h615l-43 -336h-1004zM913 1946l-30 -226h-308l31 226h307z" />
    <glyph glyph-name="edotaccent" unicode="&#x117;" horiz-adv-x="1146" 
d="M885 1597l-51 -389h-390l52 389h389zM1049 410h-668q-5 -156 147 -156q68 0 110.5 27t47.5 67h354l-2 -14q-24 -168 -158.5 -265.5t-367.5 -97.5q-184 0 -304 70t-166.5 188.5t-25.5 274.5l11 78q15 115 56 209.5t109 168t170.5 114t231.5 40.5q264 0 385.5 -156
t85.5 -426zM582 831q-132 0 -166 -155h291q3 80 -26 117.5t-99 37.5z" />
    <glyph glyph-name="Eogonek" unicode="&#x118;" horiz-adv-x="1187" 
d="M1006 0q-28 -13 -43.5 -21t-40 -25t-36.5 -37.5t-12 -45.5t20 -40t52 -15q41 0 76 20l53 -225q-36 -22 -99 -37.5t-128 -15.5q-123 0 -192.5 48t-69.5 142q0 141 114 252h-698l209 1597h1003l-43 -335h-614l-37 -279h512l-45 -336h-512l-41 -311h615z" />
    <glyph glyph-name="eogonek" unicode="&#x119;" horiz-adv-x="1146" 
d="M1049 410h-668q-5 -156 147 -156q68 0 110.5 27t47.5 67h354l-2 -14q-17 -123 -95.5 -209.5t-209.5 -124.5q-51 -15 -91 -48.5t-40 -80.5q0 -25 20 -40t52 -15q41 0 76 20l53 -225q-36 -22 -99 -37.5t-129 -15.5q-123 0 -192.5 48t-69.5 142q0 122 93 229
q-147 19 -242 92.5t-131 184t-17 250.5l11 78q15 115 56 209.5t109 168t170.5 114t231.5 40.5q264 0 385.5 -156t85.5 -426zM582 831q-132 0 -166 -155h291q3 80 -26 117.5t-99 37.5z" />
    <glyph glyph-name="Ecaron" unicode="&#x11a;" horiz-adv-x="1187" 
d="M211 1597h1003l-43 -335h-614l-37 -279h512l-45 -336h-512l-41 -311h615l-43 -336h-1004zM299 1946h338l111 -82l135 82h338l-297 -226h-389z" />
    <glyph glyph-name="ecaron" unicode="&#x11b;" horiz-adv-x="1146" 
d="M229 1597h328l113 -151l153 151h328l-328 -389h-368zM1049 410h-668q-5 -156 147 -156q68 0 110.5 27t47.5 67h354l-2 -14q-24 -168 -158.5 -265.5t-367.5 -97.5q-184 0 -304 70t-166.5 188.5t-25.5 274.5l11 78q15 115 56 209.5t109 168t170.5 114t231.5 40.5
q264 0 385.5 -156t85.5 -426zM582 831q-132 0 -166 -155h291q3 80 -26 117.5t-99 37.5z" />
    <glyph glyph-name="Gcircumflex" unicode="&#x11c;" horiz-adv-x="1392" 
d="M698 1720h-338l297 226h390l235 -226h-338l-113 80zM635 -29q-331 0 -477 191t-92 596l10 78q55 414 228.5 602t496.5 188q298 0 436 -139.5t102 -423.5l-10 -80h-389q11 93 6 161.5t-44.5 107t-113.5 38.5h-22q-71 0 -122.5 -31t-84.5 -94t-53 -140t-35 -189l-10 -78
q-17 -141 -9.5 -241t58 -155t145.5 -55h23q44 0 94.5 12t81.5 29l27 205h-193l45 336h582l-96 -729q-109 -89 -243 -139t-341 -50z" />
    <glyph glyph-name="gcircumflex" unicode="&#x11d;" horiz-adv-x="1198" 
d="M508 1208h-328l328 389h369l225 -389h-328l-112 150zM623 23l16 120q-117 -110 -301 -110q-123 0 -202 64t-107.5 176t-8.5 262l11 77q14 109 47.5 197.5t87.5 158t134 108t181 38.5q216 0 299 -153l39 124h340l-59 -307l-103 -774q-32 -233 -168 -337.5t-389 -104.5
q-144 0 -245.5 30.5t-154 85t-71 121t-6.5 146.5l8 55h355q-14 -135 131 -135q81 0 117.5 35t48.5 123zM678 440l35 267q-43 84 -135 84q-75 0 -118 -47t-54 -132l-11 -77q-11 -83 19 -131t104 -48q92 0 160 84z" />
    <glyph glyph-name="Gbreve" unicode="&#x11e;" horiz-adv-x="1392" 
d="M817 1688q-118 0 -197 20.5t-115.5 58t-47.5 80.5t-4 99h256q-5 -31 27.5 -46.5t107.5 -15.5q142 0 151 62h256q-6 -44 -20.5 -79.5t-46 -70t-78 -57.5t-120.5 -37t-169 -14zM635 -29q-331 0 -477 191t-92 596l10 78q55 414 228.5 602t496.5 188q298 0 436 -139.5
t102 -423.5l-10 -80h-389q11 93 6 161.5t-44.5 107t-113.5 38.5h-22q-71 0 -122.5 -31t-84.5 -94t-53 -140t-35 -189l-10 -78q-17 -141 -9.5 -241t58 -155t145.5 -55h23q44 0 94.5 12t81.5 29l27 205h-193l45 336h582l-96 -729q-109 -89 -243 -139t-341 -50z" />
    <glyph glyph-name="gbreve" unicode="&#x11f;" horiz-adv-x="1198" 
d="M637 1180q-111 0 -187 31.5t-112.5 87t-49 132t4.5 166.5h266q-10 -77 22.5 -106t92.5 -29q61 0 101 29t50 106h267q-10 -93 -39.5 -167t-83 -131t-137.5 -88t-195 -31zM623 23l16 120q-117 -110 -301 -110q-123 0 -202 64t-107.5 176t-8.5 262l11 77q14 109 47.5 197.5
t87.5 158t134 108t181 38.5q216 0 299 -153l39 124h340l-59 -307l-103 -774q-32 -233 -168 -337.5t-389 -104.5q-144 0 -245.5 30.5t-154 85t-71 121t-6.5 146.5l8 55h355q-14 -135 131 -135q81 0 117.5 35t48.5 123zM678 440l35 267q-43 84 -135 84q-75 0 -118 -47
t-54 -132l-11 -77q-11 -83 19 -131t104 -48q92 0 160 84z" />
    <glyph glyph-name="Gdotaccent" unicode="&#x120;" horiz-adv-x="1392" 
d="M1006 1946l-31 -226h-307l30 226h308zM635 -29q-331 0 -477 191t-92 596l10 78q55 414 228.5 602t496.5 188q298 0 436 -139.5t102 -423.5l-10 -80h-389q11 93 6 161.5t-44.5 107t-113.5 38.5h-22q-71 0 -122.5 -31t-84.5 -94t-53 -140t-35 -189l-10 -78
q-17 -141 -9.5 -241t58 -155t145.5 -55h23q44 0 94.5 12t81.5 29l27 205h-193l45 336h582l-96 -729q-109 -89 -243 -139t-341 -50z" />
    <glyph glyph-name="gdotaccent" unicode="&#x121;" horiz-adv-x="1198" 
d="M877 1597l-52 -389h-389l51 389h390zM623 23l16 120q-117 -110 -301 -110q-123 0 -202 64t-107.5 176t-8.5 262l11 77q14 109 47.5 197.5t87.5 158t134 108t181 38.5q216 0 299 -153l39 124h340l-59 -307l-103 -774q-32 -233 -168 -337.5t-389 -104.5q-144 0 -245.5 30.5
t-154 85t-71 121t-6.5 146.5l8 55h355q-14 -135 131 -135q81 0 117.5 35t48.5 123zM678 440l35 267q-43 84 -135 84q-75 0 -118 -47t-54 -132l-11 -77q-11 -83 19 -131t104 -48q92 0 160 84z" />
    <glyph glyph-name="Gcommaaccent" unicode="&#x122;" horiz-adv-x="1392" 
d="M768 -82l-16 -123q-18 -144 -104.5 -205t-258.5 -61l17 123q140 0 188 61h-180l26 205h328zM635 -29q-331 0 -477 191t-92 596l10 78q55 414 228.5 602t496.5 188q298 0 436 -139.5t102 -423.5l-10 -80h-389q11 93 6 161.5t-44.5 107t-113.5 38.5h-22q-71 0 -122.5 -31
t-84.5 -94t-53 -140t-35 -189l-10 -78q-17 -141 -9.5 -241t58 -155t145.5 -55h23q44 0 94.5 12t81.5 29l27 205h-193l45 336h582l-96 -729q-109 -89 -243 -139t-341 -50z" />
    <glyph glyph-name="gcommaaccent" unicode="&#x123;" horiz-adv-x="1198" 
d="M467 1208l18 144q20 145 107.5 209.5t257.5 64.5l-16 -123q-141 0 -191 -69h182l-30 -226h-328zM623 23l16 120q-117 -110 -301 -110q-123 0 -202 64t-107.5 176t-8.5 262l11 77q14 109 47.5 197.5t87.5 158t134 108t181 38.5q216 0 299 -153l39 124h340l-59 -307
l-103 -774q-32 -233 -168 -337.5t-389 -104.5q-144 0 -245.5 30.5t-154 85t-71 121t-6.5 146.5l8 55h355q-14 -135 131 -135q81 0 117.5 35t48.5 123zM678 440l35 267q-43 84 -135 84q-75 0 -118 -47t-54 -132l-11 -77q-11 -83 19 -131t104 -48q92 0 160 84z" />
    <glyph glyph-name="Hcircumflex" unicode="&#x124;" horiz-adv-x="1372" 
d="M989 1597h389l-209 -1597h-389l84 647h-389l-84 -647h-389l209 1597h389l-80 -614h389zM688 1720h-338l297 226h389l236 -226h-338l-113 80z" />
    <glyph glyph-name="hcircumflex" unicode="&#x125;" horiz-adv-x="1218" 
d="M594 1638l-86 -649q132 125 328 125q74 0 130.5 -21.5t88.5 -58.5t51.5 -86.5t20.5 -105.5t-5 -115l-94 -727h-377l86 666q20 125 -98 125q-55 0 -99 -26.5t-69 -57.5l-92 -707h-377l215 1638h377zM293 1720h-338l297 226h389l236 -226h-338l-113 80z" />
    <glyph glyph-name="Hbar" unicode="&#x126;" horiz-adv-x="1372" 
d="M989 1597h389l-209 -1597h-389l84 647h-389l-84 -647h-389l209 1597h389l-20 -163h389zM520 983h389l21 164h-389z" />
    <glyph glyph-name="hbar" unicode="&#x127;" horiz-adv-x="1218" 
d="M594 1638l-19 -143h220l-37 -266h-219l-31 -240q132 125 328 125q74 0 130.5 -21.5t88.5 -58.5t51.5 -86.5t20.5 -105.5t-5 -115l-94 -727h-375l86 666q5 19 2 41t-11 40.5t-31.5 31t-59.5 12.5q-55 0 -99 -26.5t-69 -57.5l-92 -707h-377l160 1229h-123l37 266h123
l18 143h377z" />
    <glyph glyph-name="Itilde" unicode="&#x128;" 
d="M610 1597l-209 -1597h-389l209 1597h389zM668 1946h194q-19 -136 -91 -197t-169 -61q-57 0 -115.5 23.5t-106 47t-77.5 23.5q-68 0 -76 -62h-194q19 136 91 197t169 61q57 0 115.5 -23.5t106 -47t77.5 -23.5q68 0 76 62z" />
    <glyph glyph-name="itilde" unicode="&#x129;" horiz-adv-x="573" 
d="M-2 0l141 1085h377l-141 -1085h-377zM590 1597h246q-23 -182 -103.5 -271t-189.5 -89q-57 0 -118 26t-112 52t-84 26q-63 0 -71 -71h-246q25 182 104.5 271t188.5 89q57 0 118 -26t112.5 -52t84.5 -26q62 0 70 71z" />
    <glyph glyph-name="Imacron" unicode="&#x12a;" 
d="M610 1597l-209 -1597h-389l209 1597h389zM104 1720l31 226h656l-31 -226h-656z" />
    <glyph glyph-name="imacron" unicode="&#x12b;" horiz-adv-x="573" 
d="M-2 0l141 1085h377l-141 -1085h-377zM20 1239l43 328h656l-43 -328h-656z" />
    <glyph glyph-name="Ibreve" unicode="&#x12c;" 
d="M610 1597l-209 -1597h-389l209 1597h389zM428 1688q-118 0 -197 20.5t-116 58t-48 80.5t-4 99h256q-5 -31 28 -46.5t108 -15.5q142 0 151 62h256q-6 -44 -20.5 -79.5t-46 -70t-78 -57.5t-120.5 -37t-169 -14z" />
    <glyph glyph-name="ibreve" unicode="&#x12d;" horiz-adv-x="573" 
d="M-2 0l141 1085h377l-141 -1085h-377zM340 1180q-111 0 -187 31.5t-112.5 87t-49 132t4.5 166.5h266q-10 -77 22.5 -106t92.5 -29q61 0 101 29t50 106h267q-10 -93 -39.5 -167t-83 -131t-137.5 -88t-195 -31z" />
    <glyph glyph-name="Iogonek" unicode="&#x12e;" 
d="M96 0h-84l209 1597h389l-209 -1597q-27 -12 -43 -20.5t-40 -25.5t-36 -37.5t-12 -45.5t20 -40t52 -15q41 0 76 20l53 -225q-36 -22 -99 -37.5t-128 -15.5q-123 0 -192.5 48t-69.5 142q0 141 114 252z" />
    <glyph glyph-name="iogonek" unicode="&#x12f;" horiz-adv-x="573" 
d="M590 1597l-51 -389h-389l51 389h389zM-45 -252q0 140 115 252h-72l141 1085h377l-141 -1085q-27 -12 -43 -20.5t-40 -25.5t-36 -37.5t-12 -45.5t19.5 -40t51.5 -15q41 0 76 20l53 -225q-36 -22 -99 -37.5t-128 -15.5q-123 0 -192.5 48t-69.5 142z" />
    <glyph glyph-name="Idotaccent" unicode="&#x130;" 
d="M610 1597l-209 -1597h-389l209 1597h389zM616 1946l-30 -226h-307l30 226h307z" />
    <glyph glyph-name="dotlessi" unicode="&#x131;" horiz-adv-x="573" 
d="M-2 0l141 1085h377l-141 -1085h-377z" />
    <glyph glyph-name="IJ" unicode="&#x132;" horiz-adv-x="1312" 
d="M791 457l149 1140h389l-155 -1183q-58 -443 -490 -443q-77 0 -130 11t-71 24l41 318q12 -5 44.5 -11t56.5 -6q74 0 114.5 30.5t51.5 119.5zM610 1597l-209 -1597h-389l209 1597h389z" />
    <glyph glyph-name="ij" unicode="&#x133;" horiz-adv-x="1044" 
d="M471 31l139 1054h377l-143 -1095q-58 -428 -492 -428q-128 0 -178 28l41 308q33 -13 92 -13q73 0 113.5 30t50.5 116zM-2 0l141 1085h377l-141 -1085h-377zM590 1597l-51 -389h-389l51 389h389zM1061 1597l-51 -389h-389l51 389h389z" />
    <glyph glyph-name="Jcircumflex" unicode="&#x134;" horiz-adv-x="1126" 
d="M842 1720h-338l297 226h389l235 -226h-338l-112 80zM754 1597h389l-146 -1110q-33 -254 -167 -385t-388 -131q-268 0 -369 131t-67 390l8 61h369q-19 -120 -3.5 -183t83.5 -63t102 56.5t49 168.5z" />
    <glyph glyph-name="jcircumflex" unicode="&#x135;" horiz-adv-x="573" 
d="M0 31l139 1054h377l-143 -1095q-58 -428 -490 -428q-128 0 -178 28l41 308q9 -4 39 -8.5t53 -4.5q71 0 111.5 30.5t50.5 115.5zM211 1208h-326l326 389h369l225 -389h-328l-112 150z" />
    <glyph glyph-name="Kcommaaccent" unicode="&#x136;" horiz-adv-x="1320" 
d="M600 1597l-72 -548l400 548h471l-520 -628l311 -969h-430l-180 608l-131 -157l-58 -451h-389l209 1597h389zM717 -82l-17 -123q-18 -144 -104 -205t-258 -61l16 123q141 0 189 61h-181l27 205h328z" />
    <glyph glyph-name="kcommaaccent" unicode="&#x137;" horiz-adv-x="1187" 
d="M-8 0l215 1638h377l-113 -856l277 303h450l-410 -411l269 -674h-441l-129 373l-81 -84l-37 -289h-377zM639 -82l-16 -123q-18 -144 -104.5 -205t-258.5 -61l16 123q141 0 189 61h-180l26 205h328z" />
    <glyph glyph-name="kgreenlandic" unicode="&#x138;" horiz-adv-x="1187" 
d="M-8 0l141 1085h377l-39 -303l277 303h450l-410 -411l269 -674h-441l-129 373l-81 -84l-37 -289h-377z" />
    <glyph glyph-name="Lacute" unicode="&#x139;" horiz-adv-x="1085" 
d="M954 0h-952l209 1597h389l-166 -1261h563zM375 1946h395l-162 -226h-372z" />
    <glyph glyph-name="lacute" unicode="&#x13a;" horiz-adv-x="573" 
d="M-2 0l215 1638h377l-215 -1638h-377zM365 1946h395l-162 -226h-373z" />
    <glyph glyph-name="Lcommaaccent" unicode="&#x13b;" horiz-adv-x="1085" 
d="M954 0h-952l209 1597h389l-166 -1261h563zM629 -82l-17 -123q-18 -144 -104 -205t-258 -61l16 123q141 0 189 61h-181l27 205h328z" />
    <glyph glyph-name="lcommaaccent" unicode="&#x13c;" horiz-adv-x="573" 
d="M-2 0l215 1638h377l-215 -1638h-377zM338 -82l-16 -123q-18 -144 -104.5 -205t-258.5 -61l16 123q141 0 189 61h-180l26 205h328z" />
    <glyph glyph-name="Lcaron" unicode="&#x13d;" horiz-adv-x="1085" 
d="M954 0h-952l209 1597h389l-166 -1261h563zM817 1638h215l-108 -430h-164z" />
    <glyph glyph-name="lcaron" unicode="&#x13e;" horiz-adv-x="573" 
d="M-2 0l215 1638h377l-215 -1638h-377zM692 1638h215l-108 -430h-164z" />
    <glyph glyph-name="Ldot" unicode="&#x13f;" horiz-adv-x="1085" 
d="M954 0h-952l209 1597h389l-166 -1261h563zM1065 1010l-51 -389h-389l51 389h389z" />
    <glyph glyph-name="ldot" unicode="&#x140;" horiz-adv-x="962" 
d="M-2 0l215 1638h377l-215 -1638h-377zM981 911l-51 -389h-389l51 389h389z" />
    <glyph glyph-name="Lslash" unicode="&#x141;" horiz-adv-x="1208" 
d="M-37 336l43 319l217 99l111 843h389l-86 -653l371 170l-41 -319l-371 -170l-39 -289h563l-43 -336h-952l55 434z" />
    <glyph glyph-name="lslash" unicode="&#x142;" horiz-adv-x="819" 
d="M-14 346l41 309l194 109l115 874h377l-86 -647l217 123l-41 -309l-217 -123l-88 -682h-377l59 455z" />
    <glyph glyph-name="Nacute" unicode="&#x143;" horiz-adv-x="1413" 
d="M1419 1597l-209 -1597h-409l-326 881l-31 -308l-73 -573h-369l209 1597h410l325 -880l29 307l76 573h368zM784 1946h396l-162 -226h-373z" />
    <glyph glyph-name="nacute" unicode="&#x144;" horiz-adv-x="1218" 
d="M725 1597h414l-279 -389h-373zM1028 0h-377l88 666q15 125 -98 125q-55 0 -100 -26.5t-70 -57.5l-92 -707h-377l102 778l19 307h340v-143q145 172 373 172q74 0 130.5 -21.5t88.5 -58.5t51.5 -86.5t20.5 -105.5t-5 -115z" />
    <glyph glyph-name="Ncommaaccent" unicode="&#x145;" horiz-adv-x="1413" 
d="M1419 1597l-209 -1597h-409l-326 881l-31 -308l-73 -573h-369l209 1597h410l325 -880l29 307l76 573h368zM758 -82l-17 -123q-18 -144 -104 -205t-258 -61l16 123q141 0 189 61h-181l27 205h328z" />
    <glyph glyph-name="ncommaaccent" unicode="&#x146;" horiz-adv-x="1218" 
d="M668 -82l-17 -123q-18 -144 -104 -205t-258 -61l16 123q141 0 189 61h-181l27 205h328zM1028 0h-377l88 666q15 125 -98 125q-55 0 -100 -26.5t-70 -57.5l-92 -707h-377l102 778l19 307h340v-143q145 172 373 172q74 0 130.5 -21.5t88.5 -58.5t51.5 -86.5t20.5 -105.5
t-5 -115z" />
    <glyph glyph-name="Ncaron" unicode="&#x147;" horiz-adv-x="1413" 
d="M1419 1597l-209 -1597h-409l-326 881l-31 -308l-73 -573h-369l209 1597h410l325 -880l29 307l76 573h368zM401 1946h338l111 -82l135 82h338l-297 -226h-389z" />
    <glyph glyph-name="ncaron" unicode="&#x148;" horiz-adv-x="1218" 
d="M264 1597h328l113 -151l153 151h328l-328 -389h-369zM1028 0h-377l88 666q15 125 -98 125q-55 0 -100 -26.5t-70 -57.5l-92 -707h-377l102 778l19 307h340v-143q145 172 373 172q74 0 130.5 -21.5t88.5 -58.5t51.5 -86.5t20.5 -105.5t-5 -115z" />
    <glyph glyph-name="Eng" unicode="&#x14a;" horiz-adv-x="1413" 
d="M1419 1597l-211 -1607q-31 -227 -157.5 -327.5t-333.5 -100.5q-128 0 -178 28l41 308q9 -4 39 -8.5t53 -4.5q109 0 145 70l-342 926l-31 -308l-73 -573h-369l209 1597h410l325 -880l29 307l76 573h368z" />
    <glyph glyph-name="eng" unicode="&#x14b;" horiz-adv-x="1218" 
d="M123 1085h340v-143q145 172 373 172q74 0 130.5 -21.5t88.5 -58.5t51.5 -86.5t20.5 -105.5t-5 -115l-96 -737q-31 -227 -157.5 -327.5t-333.5 -100.5q-129 0 -179 28l41 308q33 -13 92 -13q72 0 112.5 30t51.5 116l84 635q15 125 -98 125q-55 0 -99 -26.5t-69 -57.5
l-92 -707h-377l102 778z" />
    <glyph glyph-name="Omacron" unicode="&#x14c;" horiz-adv-x="1392" 
d="M494 1720l30 226h656l-31 -226h-655zM788 1626q328 0 465 -189t82 -597l-10 -78q-56 -417 -223 -604t-488 -187q-328 0 -465.5 189.5t-82.5 597.5l10 78q56 416 223.5 603t488.5 187zM625 307h22q54 0 96.5 21t72 58t52 96t36.5 125t26 155l10 78q18 141 15 241
t-46.5 154.5t-132.5 54.5h-22q-67 0 -116 -30.5t-81 -93t-51.5 -140.5t-34.5 -190l-10 -78q-18 -141 -15 -241t46.5 -155t132.5 -55z" />
    <glyph glyph-name="omacron" unicode="&#x14d;" horiz-adv-x="1146" 
d="M307 1239l43 328h656l-43 -328h-656zM1071 582l-10 -78q-15 -115 -56 -210t-109 -168.5t-170.5 -114t-231.5 -40.5q-261 0 -384.5 147t-93.5 386l11 78q15 115 56 209.5t109 168t170.5 114t231.5 40.5q261 0 385 -146.5t92 -385.5zM401 582l-10 -78q-14 -105 15.5 -157
t109.5 -52q143 0 170 209l10 78q14 105 -15.5 157t-109.5 52q-143 0 -170 -209z" />
    <glyph glyph-name="Obreve" unicode="&#x14e;" horiz-adv-x="1392" 
d="M817 1688q-118 0 -197 20.5t-115.5 58t-47.5 80.5t-4 99h256q-5 -31 27.5 -46.5t107.5 -15.5q142 0 151 62h256q-6 -44 -20.5 -79.5t-46 -70t-78 -57.5t-120.5 -37t-169 -14zM788 1626q328 0 465 -189t82 -597l-10 -78q-56 -417 -223 -604t-488 -187q-328 0 -465.5 189.5
t-82.5 597.5l10 78q56 416 223.5 603t488.5 187zM625 307h22q54 0 96.5 21t72 58t52 96t36.5 125t26 155l10 78q18 141 15 241t-46.5 154.5t-132.5 54.5h-22q-67 0 -116 -30.5t-81 -93t-51.5 -140.5t-34.5 -190l-10 -78q-18 -141 -15 -241t46.5 -155t132.5 -55z" />
    <glyph glyph-name="obreve" unicode="&#x14f;" horiz-adv-x="1146" 
d="M627 1180q-111 0 -187 31.5t-112.5 87t-49 132t4.5 166.5h266q-10 -77 22.5 -106t92.5 -29q61 0 101 29t50 106h266q-10 -93 -39.5 -167t-82.5 -131t-137 -88t-195 -31zM1071 582l-10 -78q-15 -115 -56 -210t-109 -168.5t-170.5 -114t-231.5 -40.5q-261 0 -384.5 147
t-93.5 386l11 78q15 115 56 209.5t109 168t170.5 114t231.5 40.5q261 0 385 -146.5t92 -385.5zM401 582l-10 -78q-14 -105 15.5 -157t109.5 -52q143 0 170 209l10 78q14 105 -15.5 157t-109.5 52q-143 0 -170 -209z" />
    <glyph glyph-name="Ohungarumlaut" unicode="&#x150;" horiz-adv-x="1392" 
d="M590 1946h354l-141 -226h-332zM979 1946h354l-162 -226h-331zM788 1626q328 0 465 -189t82 -597l-10 -78q-56 -417 -223 -604t-488 -187q-328 0 -465.5 189.5t-82.5 597.5l10 78q56 416 223.5 603t488.5 187zM625 307h22q54 0 96.5 21t72 58t52 96t36.5 125t26 155l10 78
q18 141 15 241t-46.5 154.5t-132.5 54.5h-22q-67 0 -116 -30.5t-81 -93t-51.5 -140.5t-34.5 -190l-10 -78q-18 -141 -15 -241t46.5 -155t132.5 -55z" />
    <glyph glyph-name="ohungarumlaut" unicode="&#x151;" horiz-adv-x="1146" 
d="M897 1597h332l-279 -389h-291zM487 1597h332l-219 -389h-291zM1071 582l-10 -78q-15 -115 -56 -210t-109 -168.5t-170.5 -114t-231.5 -40.5q-261 0 -384.5 147t-93.5 386l11 78q15 115 56 209.5t109 168t170.5 114t231.5 40.5q261 0 385 -146.5t92 -385.5zM401 582
l-10 -78q-14 -105 15.5 -157t109.5 -52q143 0 170 209l10 78q14 105 -15.5 157t-109.5 52q-143 0 -170 -209z" />
    <glyph glyph-name="OE" unicode="&#x152;" horiz-adv-x="1925" 
d="M66 758l10 78q38 281 124.5 445t243.5 240t410 76h1098l-43 -335h-615l-37 -279h512l-45 -336h-512l-41 -311h615l-43 -336h-1077q-255 0 -396.5 74.5t-191 240t-12.5 443.5zM471 836l-10 -78q-18 -138 -6 -232t78 -142t196 -48h53l121 926h-72q-79 0 -136.5 -19
t-94.5 -50.5t-63 -88t-40 -117t-26 -151.5z" />
    <glyph glyph-name="oe" unicode="&#x153;" horiz-adv-x="1816" 
d="M1718 410h-667q-5 -156 147 -156q68 0 110.5 27t47.5 67h354l-2 -14q-24 -168 -158.5 -265.5t-367.5 -97.5q-239 0 -346 150q-126 -150 -342 -150q-261 0 -384.5 147t-93.5 386l11 78q15 115 56 209.5t109 168t170.5 114t231.5 40.5q226 0 328 -147q126 147 342 147
q264 0 385.5 -156t85.5 -426zM401 582l-10 -78q-14 -105 15.5 -157t109.5 -52q143 0 170 209l10 78q14 105 -15.5 157t-109.5 52q-143 0 -170 -209zM1251 831q-132 0 -166 -155h291q3 80 -26 117.5t-99 37.5z" />
    <glyph glyph-name="Racute" unicode="&#x154;" horiz-adv-x="1300" 
d="M702 1946h396l-162 -226h-373zM506 885h178q32 0 60.5 7.5t57 26t48 55.5t24.5 89l3 22q9 103 -31.5 140t-110.5 37h-178zM463 549l-72 -549h-389l209 1597h551q92 0 163.5 -9t148.5 -40t123 -83t69 -146t6 -221l-6 -45q-46 -345 -308 -451l170 -602h-419l-138 549h-108z
" />
    <glyph glyph-name="racute" unicode="&#x155;" horiz-adv-x="819" 
d="M539 1597h413l-278 -389h-373zM774 1114q21 0 31 -2l-51 -385h-62q-84 0 -142.5 -22t-84.5 -50l-86 -655h-377l102 778l19 307h340v-131q125 160 311 160z" />
    <glyph glyph-name="Rcommaaccent" unicode="&#x156;" horiz-adv-x="1300" 
d="M696 -82l-16 -123q-18 -144 -104.5 -205t-258.5 -61l17 123q140 0 188 61h-180l27 205h327zM506 885h178q32 0 60.5 7.5t57 26t48 55.5t24.5 89l3 22q9 103 -31.5 140t-110.5 37h-178zM463 549l-72 -549h-389l209 1597h551q92 0 163.5 -9t148.5 -40t123 -83t69 -146
t6 -221l-6 -45q-46 -345 -308 -451l170 -602h-419l-138 549h-108z" />
    <glyph glyph-name="rcommaaccent" unicode="&#x157;" horiz-adv-x="819" 
d="M342 -82l-16 -123q-18 -144 -104.5 -205t-258.5 -61l17 123q140 0 188 61h-180l26 205h328zM774 1114q21 0 31 -2l-51 -385h-62q-84 0 -142.5 -22t-84.5 -50l-86 -655h-377l102 778l19 307h340v-131q125 160 311 160z" />
    <glyph glyph-name="Rcaron" unicode="&#x158;" horiz-adv-x="1300" 
d="M319 1946h338l111 -82l135 82h338l-297 -226h-389zM506 885h178q32 0 60.5 7.5t57 26t48 55.5t24.5 89l3 22q9 103 -31.5 140t-110.5 37h-178zM463 549l-72 -549h-389l209 1597h551q92 0 163.5 -9t148.5 -40t123 -83t69 -146t6 -221l-6 -45q-46 -345 -308 -451l170 -602
h-419l-138 549h-108z" />
    <glyph glyph-name="rcaron" unicode="&#x159;" horiz-adv-x="819" 
d="M78 1597h328l112 -151l154 151h327l-327 -389h-369zM774 1114q21 0 31 -2l-51 -385h-62q-84 0 -142.5 -22t-84.5 -50l-86 -655h-377l102 778l19 307h340v-131q125 160 311 160z" />
    <glyph glyph-name="Sacute" unicode="&#x15a;" horiz-adv-x="1310" 
d="M733 1946h395l-161 -226h-373zM567 643q-259 34 -367 145t-83 326l4 37q24 220 185.5 347.5t451.5 127.5q588 0 520 -553l-6 -49h-389q19 138 -18 202t-142 64h-21q-82 0 -131 -40t-55 -103l-2 -21q-7 -71 41 -110.5t197 -59.5q262 -36 373 -149.5t85 -337.5l-4 -37
q-25 -225 -188 -343t-447 -118q-296 0 -436.5 137.5t-105.5 411.5l4 33h389q-17 -129 25.5 -187.5t144.5 -58.5h20q94 0 144.5 40.5t56.5 103.5l2 20q3 32 -5.5 57t-34 48t-77.5 39.5t-131 27.5z" />
    <glyph glyph-name="sacute" unicode="&#x15b;" horiz-adv-x="1085" 
d="M651 1597h414l-279 -389h-372zM481 254q61 0 87 24.5t26 59.5q0 37 -24 54.5t-89 23.5q-229 20 -331 95.5t-80 244.5l4 30q11 83 55.5 147.5t112.5 103t150.5 58t176.5 19.5q250 0 357.5 -94.5t83.5 -276.5l-2 -16h-369q13 104 -96 104q-48 0 -77.5 -22.5t-29.5 -60.5
q0 -31 25.5 -47.5t85.5 -20.5q81 -7 144 -20t122 -38t95.5 -61t54.5 -93t8 -130l-4 -31q-21 -154 -155.5 -245t-356.5 -91q-252 0 -364.5 94.5t-90.5 266.5l2 16h375q-6 -45 20 -69.5t84 -24.5z" />
    <glyph glyph-name="Scircumflex" unicode="&#x15c;" horiz-adv-x="1310" 
d="M657 1720h-338l297 226h390l235 -226h-338l-112 80zM567 643q-259 34 -367 145t-83 326l4 37q24 220 185.5 347.5t451.5 127.5q588 0 520 -553l-6 -49h-389q19 138 -18 202t-142 64h-21q-82 0 -131 -40t-55 -103l-2 -21q-7 -71 41 -110.5t197 -59.5q262 -36 373 -149.5
t85 -337.5l-4 -37q-25 -225 -188 -343t-447 -118q-296 0 -436.5 137.5t-105.5 411.5l4 33h389q-17 -129 25.5 -187.5t144.5 -58.5h20q94 0 144.5 40.5t56.5 103.5l2 20q3 32 -5.5 57t-34 48t-77.5 39.5t-131 27.5z" />
    <glyph glyph-name="scircumflex" unicode="&#x15d;" horiz-adv-x="1085" 
d="M467 1208h-328l328 389h369l225 -389h-328l-112 150zM481 254q61 0 87 24.5t26 59.5q0 37 -24 54.5t-89 23.5q-229 20 -331 95.5t-80 244.5l4 30q11 83 55.5 147.5t112.5 103t150.5 58t176.5 19.5q250 0 357.5 -94.5t83.5 -276.5l-2 -16h-369q13 104 -96 104
q-48 0 -77.5 -22.5t-29.5 -60.5q0 -31 25.5 -47.5t85.5 -20.5q81 -7 144 -20t122 -38t95.5 -61t54.5 -93t8 -130l-4 -31q-21 -154 -155.5 -245t-356.5 -91q-252 0 -364.5 94.5t-90.5 266.5l2 16h375q-6 -45 20 -69.5t84 -24.5z" />
    <glyph glyph-name="Scedilla" unicode="&#x15e;" horiz-adv-x="1310" 
d="M567 643q-259 34 -367 145t-83 326l4 37q24 220 185.5 347.5t451.5 127.5q588 0 520 -553l-6 -49h-389q19 138 -18 202t-142 64h-21q-82 0 -131 -40t-55 -103l-2 -21q-7 -71 41 -110.5t197 -59.5q262 -36 373 -149.5t85 -337.5l-4 -37q-23 -212 -169.5 -328.5
t-401.5 -130.5l-27 -49q84 -8 133.5 -47.5t49.5 -112.5q0 -97 -72.5 -151.5t-202.5 -54.5q-147 0 -227 57l73 137q21 -14 60.5 -24.5t77.5 -10.5q54 0 75 12t21 35q0 43 -84 43q-17 0 -38 -2.5t-34 -4.5l-12 -3l-20 60l63 118q-246 22 -360 158.5t-82 386.5l4 33h389
q-17 -129 25.5 -187.5t144.5 -58.5h20q94 0 144.5 40.5t56.5 103.5l2 20q3 32 -5.5 57t-34 48t-77.5 39.5t-131 27.5z" />
    <glyph glyph-name="scedilla" unicode="&#x15f;" horiz-adv-x="1085" 
d="M172 -385l74 137q21 -14 60 -24.5t77 -10.5q54 0 75 12t21 35q0 43 -84 43q-17 0 -38 -2.5t-33 -4.5l-13 -3l-20 60l63 118q-198 18 -285.5 110.5t-68.5 246.5l2 16h375q-6 -45 20 -69.5t84 -24.5q61 0 87 24.5t26 59.5q0 37 -24 54.5t-89 23.5q-229 20 -331 95.5
t-80 244.5l4 30q11 83 55.5 147.5t112.5 103t150.5 58t176.5 19.5q250 0 357.5 -94.5t83.5 -276.5l-2 -16h-369q13 104 -96 104q-48 0 -77.5 -22.5t-29.5 -60.5q0 -31 25.5 -47.5t85.5 -20.5q81 -7 144 -20t122 -38t95.5 -61t54.5 -93t8 -130l-4 -31q-19 -141 -137 -231
t-312 -103l-26 -49q84 -8 133 -47.5t49 -112.5q0 -97 -72.5 -151.5t-202.5 -54.5q-147 0 -227 57z" />
    <glyph glyph-name="Scaron" unicode="&#x160;" horiz-adv-x="1310" 
d="M350 1946h338l111 -82l135 82h338l-297 -226h-389zM567 643q-259 34 -367 145t-83 326l4 37q24 220 185.5 347.5t451.5 127.5q588 0 520 -553l-6 -49h-389q19 138 -18 202t-142 64h-21q-82 0 -131 -40t-55 -103l-2 -21q-7 -71 41 -110.5t197 -59.5q262 -36 373 -149.5
t85 -337.5l-4 -37q-25 -225 -188 -343t-447 -118q-296 0 -436.5 137.5t-105.5 411.5l4 33h389q-17 -129 25.5 -187.5t144.5 -58.5h20q94 0 144.5 40.5t56.5 103.5l2 20q3 32 -5.5 57t-34 48t-77.5 39.5t-131 27.5z" />
    <glyph glyph-name="scaron" unicode="&#x161;" horiz-adv-x="1085" 
d="M190 1597h328l113 -151l153 151h328l-328 -389h-368zM481 254q61 0 87 24.5t26 59.5q0 37 -24 54.5t-89 23.5q-229 20 -331 95.5t-80 244.5l4 30q11 83 55.5 147.5t112.5 103t150.5 58t176.5 19.5q250 0 357.5 -94.5t83.5 -276.5l-2 -16h-369q13 104 -96 104
q-48 0 -77.5 -22.5t-29.5 -60.5q0 -31 25.5 -47.5t85.5 -20.5q81 -7 144 -20t122 -38t95.5 -61t54.5 -93t8 -130l-4 -31q-21 -154 -155.5 -245t-356.5 -91q-252 0 -364.5 94.5t-90.5 266.5l2 16h375q-6 -45 20 -69.5t84 -24.5z" />
    <glyph glyph-name="Tcommaaccent" unicode="&#x162;" horiz-adv-x="1167" 
d="M844 1262l-166 -1262h-389l166 1262h-359l43 335h1106l-43 -335h-358zM635 -82l-17 -123q-18 -144 -104 -205t-258 -61l16 123q141 0 189 61h-180l26 205h328z" />
    <glyph glyph-name="tcommaaccent" unicode="&#x163;" horiz-adv-x="901" 
d="M612 1085h260l-43 -327h-260l-41 -318q-11 -86 21 -115.5t104 -29.5q23 0 56 4.5t41 7.5l-39 -307q-58 -29 -187 -29q-207 0 -307.5 100.5t-71.5 327.5l48 359h-164l43 327h164l40 308h377zM543 -82l-17 -123q-18 -144 -104 -205t-258 -61l16 123q141 0 189 61h-181
l27 205h328z" />
    <glyph glyph-name="Tcaron" unicode="&#x164;" horiz-adv-x="1167" 
d="M844 1262l-166 -1262h-389l166 1262h-359l43 335h1106l-43 -335h-358zM279 1946h337l111 -82l135 82h338l-297 -226h-389z" />
    <glyph glyph-name="tcaron" unicode="&#x165;" horiz-adv-x="901" 
d="M612 1085h260l-43 -327h-260l-41 -318q-11 -86 21 -115.5t104 -29.5q23 0 56 4.5t41 7.5l-39 -307q-58 -29 -187 -29q-207 0 -307.5 100.5t-71.5 327.5l48 359h-164l43 327h164l40 308h377zM788 1638h216l-109 -430h-164z" />
    <glyph glyph-name="Tbar" unicode="&#x166;" horiz-adv-x="1167" 
d="M844 1262l-39 -293h225l-41 -307h-225l-86 -662h-389l86 662h-225l40 307h226l39 293h-359l43 335h1106l-43 -335h-358z" />
    <glyph glyph-name="tbar" unicode="&#x167;" horiz-adv-x="901" 
d="M612 1085h260l-43 -327h-260l-10 -82h178l-35 -266h-176q-3 -67 29.5 -91t97.5 -24q23 0 56 4.5t41 7.5l-39 -307q-58 -29 -187 -29q-207 0 -307.5 100.5t-71.5 327.5l2 11h-122l34 266h123l11 82h-164l43 327h164l40 308h377z" />
    <glyph glyph-name="Utilde" unicode="&#x168;" horiz-adv-x="1372" 
d="M1047 1946h194q-19 -136 -91 -197t-169 -61q-57 0 -115.5 23.5t-106 47t-77.5 23.5q-68 0 -76 -62h-194q19 136 91 197t169 61q57 0 115.5 -23.5t106 -47t77.5 -23.5q68 0 76 62zM594 -29q-171 0 -285 36t-173.5 107.5t-77.5 167t-1 226.5l144 1089h389l-141 -1079
q-7 -64 -1.5 -111t46.5 -73.5t122 -26.5q120 0 174.5 54t67.5 157l141 1079h390l-144 -1089q-13 -105 -39.5 -185t-75 -148.5t-119.5 -112t-175.5 -67.5t-241.5 -24z" />
    <glyph glyph-name="utilde" unicode="&#x169;" horiz-adv-x="1218" 
d="M905 1597h246q-23 -182 -103.5 -271t-189.5 -89q-57 0 -117.5 26t-111.5 52t-84 26q-64 0 -72 -71h-246q25 182 104.5 271t188.5 89q57 0 118.5 -26t113 -52t84.5 -26q61 0 69 71zM131 1085h377l-88 -665q-15 -125 98 -125q55 0 100 26.5t70 57.5l92 706h377l-102 -778
l-19 -307h-340v143q-145 -172 -372 -172q-74 0 -130.5 21.5t-89 58.5t-52 86.5t-20.5 105.5t5 115z" />
    <glyph glyph-name="Umacron" unicode="&#x16a;" horiz-adv-x="1372" 
d="M483 1720l31 226h655l-30 -226h-656zM594 -29q-171 0 -285 36t-173.5 107.5t-77.5 167t-1 226.5l144 1089h389l-141 -1079q-7 -64 -1.5 -111t46.5 -73.5t122 -26.5q120 0 174.5 54t67.5 157l141 1079h390l-144 -1089q-13 -105 -39.5 -185t-75 -148.5t-119.5 -112
t-175.5 -67.5t-241.5 -24z" />
    <glyph glyph-name="umacron" unicode="&#x16b;" horiz-adv-x="1218" 
d="M336 1239l43 328h655l-43 -328h-655zM131 1085h377l-88 -665q-15 -125 98 -125q55 0 100 26.5t70 57.5l92 706h377l-102 -778l-19 -307h-340v143q-145 -172 -372 -172q-74 0 -130.5 21.5t-89 58.5t-52 86.5t-20.5 105.5t5 115z" />
    <glyph glyph-name="Ubreve" unicode="&#x16c;" horiz-adv-x="1372" 
d="M807 1688q-118 0 -197 20.5t-116 58t-48 80.5t-4 99h256q-5 -31 28 -46.5t108 -15.5q142 0 151 62h256q-6 -44 -20.5 -79.5t-46 -70t-78 -57.5t-120.5 -37t-169 -14zM594 -29q-171 0 -285 36t-173.5 107.5t-77.5 167t-1 226.5l144 1089h389l-141 -1079q-7 -64 -1.5 -111
t46.5 -73.5t122 -26.5q120 0 174.5 54t67.5 157l141 1079h390l-144 -1089q-13 -105 -39.5 -185t-75 -148.5t-119.5 -112t-175.5 -67.5t-241.5 -24z" />
    <glyph glyph-name="ubreve" unicode="&#x16d;" horiz-adv-x="1218" 
d="M655 1180q-111 0 -187 31.5t-112.5 87t-49 132t4.5 166.5h267q-5 -41 2 -68.5t24.5 -41.5t38.5 -19.5t49 -5.5q135 0 152 135h266q-10 -93 -39.5 -167t-83 -131t-137.5 -88t-195 -31zM131 1085h377l-88 -665q-15 -125 98 -125q55 0 100 26.5t70 57.5l92 706h377
l-102 -778l-19 -307h-340v143q-145 -172 -372 -172q-74 0 -130.5 21.5t-89 58.5t-52 86.5t-20.5 105.5t5 115z" />
    <glyph glyph-name="Uring" unicode="&#x16e;" horiz-adv-x="1372" 
d="M594 -29q-171 0 -285 36t-173.5 107.5t-77.5 167t-1 226.5l144 1089h389l-141 -1079q-7 -64 -1.5 -111t46.5 -73.5t122 -26.5q120 0 174.5 54t67.5 157l141 1079h390l-144 -1089q-13 -105 -39.5 -185t-75 -148.5t-119.5 -112t-175.5 -67.5t-241.5 -24zM791 1528
q-88 0 -144.5 55.5t-56.5 140.5q0 106 74 178t178 72q87 0 143.5 -55.5t56.5 -140.5q0 -106 -73.5 -178t-177.5 -72zM829 1851q-48 0 -81 -30.5t-33 -79.5q0 -40 25 -65t63 -25q48 0 81.5 30.5t33.5 79.5q0 39 -25 64.5t-64 25.5z" />
    <glyph glyph-name="uring" unicode="&#x16f;" horiz-adv-x="1218" 
d="M659 1180q-87 0 -143.5 55.5t-56.5 140.5q0 106 74 178t178 72q87 0 143.5 -55.5t56.5 -140.5q0 -106 -74 -178t-178 -72zM698 1503q-48 0 -81 -30.5t-33 -79.5q0 -40 25 -65t63 -25q48 0 81 30.5t33 79.5q0 40 -25 65t-63 25zM131 1085h377l-88 -665q-15 -125 98 -125
q55 0 100 26.5t70 57.5l92 706h377l-102 -778l-19 -307h-340v143q-145 -172 -372 -172q-74 0 -130.5 21.5t-89 58.5t-52 86.5t-20.5 105.5t5 115z" />
    <glyph glyph-name="Uhungarumlaut" unicode="&#x170;" horiz-adv-x="1372" 
d="M969 1946h354l-162 -226h-332zM580 1946h354l-141 -226h-332zM594 -29q-171 0 -285 36t-173.5 107.5t-77.5 167t-1 226.5l144 1089h389l-141 -1079q-7 -64 -1.5 -111t46.5 -73.5t122 -26.5q120 0 174.5 54t67.5 157l141 1079h390l-144 -1089q-13 -105 -39.5 -185
t-75 -148.5t-119.5 -112t-175.5 -67.5t-241.5 -24z" />
    <glyph glyph-name="uhungarumlaut" unicode="&#x171;" horiz-adv-x="1218" 
d="M516 1597h332l-219 -389h-291zM926 1597h331l-278 -389h-291zM131 1085h377l-88 -665q-15 -125 98 -125q55 0 100 26.5t70 57.5l92 706h377l-102 -778l-19 -307h-340v143q-145 -172 -372 -172q-74 0 -130.5 21.5t-89 58.5t-52 86.5t-20.5 105.5t5 115z" />
    <glyph glyph-name="Uogonek" unicode="&#x172;" horiz-adv-x="1372" 
d="M856 0q-27 -12 -43 -20.5t-40 -25.5t-36 -37.5t-12 -45.5t20 -40t52 -15q40 0 75 20l54 -225q-36 -22 -99 -37.5t-129 -15.5q-123 0 -192.5 48t-69.5 142q0 120 88 225q-150 7 -250.5 46.5t-151 108t-67 164.5t1.5 216l144 1089h389l-141 -1079q-7 -64 -1.5 -111
t46.5 -73.5t122 -26.5q120 0 174.5 54t67.5 157l141 1079h390l-144 -1089q-28 -210 -116.5 -335.5t-272.5 -172.5z" />
    <glyph glyph-name="uogonek" unicode="&#x173;" horiz-adv-x="1218" 
d="M131 1085h377l-88 -665q-15 -125 98 -125q55 0 100 26.5t70 57.5l92 706h377l-102 -778l-19 -307q-27 -12 -43 -20.5t-40 -25.5t-36 -37.5t-12 -45.5t20 -40t52 -15q41 0 76 20l53 -225q-36 -22 -99 -37.5t-128 -15.5q-124 0 -193.5 48t-69.5 142q0 115 80 215v180
q-145 -172 -372 -172q-74 0 -130.5 21.5t-89 58.5t-52 86.5t-20.5 105.5t5 115z" />
    <glyph glyph-name="Wcircumflex" unicode="&#x174;" horiz-adv-x="1945" 
d="M1071 0l-49 1151l-350 -1151h-494l-45 1597h406l-17 -1060l320 1060h479l41 -1060l262 1060h406l-463 -1597h-496zM975 1720h-338l297 226h389l236 -226h-338l-113 80z" />
    <glyph glyph-name="wcircumflex" unicode="&#x175;" horiz-adv-x="1597" 
d="M788 696l-213 -696h-471l-32 1085h368l-37 -675l211 675h451l35 -675l139 675h369l-316 -1085h-471zM723 1208h-328l328 389h369l225 -389h-328l-112 150z" />
    <glyph glyph-name="Ycircumflex" unicode="&#x176;" horiz-adv-x="1310" 
d="M813 492l-63 -492h-390l64 492l-307 1105h426l139 -626l303 626h426zM657 1720h-338l297 226h390l235 -226h-338l-112 80z" />
    <glyph glyph-name="ycircumflex" unicode="&#x177;" horiz-adv-x="1167" 
d="M541 451l258 634h409l-514 -1024l-196 -471h-451l238 471l-244 1024h410zM508 1208h-328l328 389h369l225 -389h-328l-112 150z" />
    <glyph glyph-name="Ydieresis" unicode="&#x178;" horiz-adv-x="1310" 
d="M813 492l-63 -492h-390l64 492l-307 1105h426l139 -626l303 626h426zM1149 1946l-31 -226h-307l31 226h307zM780 1946l-30 -226h-308l31 226h307z" />
    <glyph glyph-name="Zacute" unicode="&#x179;" horiz-adv-x="1249" 
d="M700 1946h396l-162 -226h-373zM14 266l721 1004l-303 -8h-266l43 335h1044l-34 -266l-721 -1003l303 8h307l-43 -336h-1085z" />
    <glyph glyph-name="zacute" unicode="&#x17a;" horiz-adv-x="1044" 
d="M629 1597h413l-278 -389h-373zM-29 258l514 508l-223 -8h-205l43 327h922l-33 -258l-514 -508l223 9h246l-43 -328h-962z" />
    <glyph glyph-name="Zdotaccent" unicode="&#x17b;" horiz-adv-x="1249" 
d="M932 1946l-31 -226h-307l31 226h307zM14 266l721 1004l-303 -8h-266l43 335h1044l-34 -266l-721 -1003l303 8h307l-43 -336h-1085z" />
    <glyph glyph-name="zdotaccent" unicode="&#x17c;" horiz-adv-x="1044" 
d="M823 1597l-51 -389h-389l51 389h389zM-29 258l514 508l-223 -8h-205l43 327h922l-33 -258l-514 -508l223 9h246l-43 -328h-962z" />
    <glyph glyph-name="Zcaron" unicode="&#x17d;" horiz-adv-x="1249" 
d="M317 1946h338l111 -82l135 82h338l-297 -226h-389zM14 266l721 1004l-303 -8h-266l43 335h1044l-34 -266l-721 -1003l303 8h307l-43 -336h-1085z" />
    <glyph glyph-name="zcaron" unicode="&#x17e;" horiz-adv-x="1044" 
d="M168 1597h328l112 -151l154 151h328l-328 -389h-369zM-29 258l514 508l-223 -8h-205l43 327h922l-33 -258l-514 -508l223 9h246l-43 -328h-962z" />
    <glyph glyph-name="Scommaaccent" unicode="&#x218;" horiz-adv-x="1310" 
d="M707 -82l-17 -123q-18 -144 -104 -205t-258 -61l16 123q140 0 188 61h-180l27 205h328zM567 643q-259 34 -367 145t-83 326l4 37q24 220 185.5 347.5t451.5 127.5q588 0 520 -553l-6 -49h-389q19 138 -18 202t-142 64h-21q-82 0 -131 -40t-55 -103l-2 -21
q-7 -71 41 -110.5t197 -59.5q262 -36 373 -149.5t85 -337.5l-4 -37q-25 -225 -188 -343t-447 -118q-296 0 -436.5 137.5t-105.5 411.5l4 33h389q-17 -129 25.5 -187.5t144.5 -58.5h20q94 0 144.5 40.5t56.5 103.5l2 20q3 32 -5.5 57t-34 48t-77.5 39.5t-131 27.5z" />
    <glyph glyph-name="scommaaccent" unicode="&#x219;" horiz-adv-x="1085" 
d="M594 -82l-16 -123q-18 -144 -104.5 -205t-258.5 -61l16 123q141 0 189 61h-180l26 205h328zM481 254q61 0 87 24.5t26 59.5q0 37 -24 54.5t-89 23.5q-229 20 -331 95.5t-80 244.5l4 30q11 83 55.5 147.5t112.5 103t150.5 58t176.5 19.5q250 0 357.5 -94.5t83.5 -276.5
l-2 -16h-369q13 104 -96 104q-48 0 -77.5 -22.5t-29.5 -60.5q0 -31 25.5 -47.5t85.5 -20.5q81 -7 144 -20t122 -38t95.5 -61t54.5 -93t8 -130l-4 -31q-21 -154 -155.5 -245t-356.5 -91q-252 0 -364.5 94.5t-90.5 266.5l2 16h375q-6 -45 20 -69.5t84 -24.5z" />
    <glyph glyph-name="Ymacron" unicode="&#x232;" horiz-adv-x="1310" 
d="M813 492l-63 -492h-390l64 492l-307 1105h426l139 -626l303 626h426zM453 1720l30 226h656l-31 -226h-655z" />
    <glyph glyph-name="ymacron" unicode="&#x233;" horiz-adv-x="1167" 
d="M541 451l258 634h409l-514 -1024l-196 -471h-451l238 471l-244 1024h410zM317 1239l43 328h656l-43 -328h-656z" />
    <glyph glyph-name="dotlessj" unicode="&#x237;" horiz-adv-x="573" 
d="M0 31l139 1054h377l-143 -1095q-58 -428 -490 -428q-128 0 -178 28l41 308q9 -4 39 -8.5t53 -4.5q71 0 111.5 30.5t50.5 115.5z" />
    <glyph glyph-name="circumflex" unicode="&#x2c6;" horiz-adv-x="1024" 
d="M436 1208h-327l327 389h369l225 -389h-328l-112 150z" />
    <glyph glyph-name="caron" unicode="&#x2c7;" horiz-adv-x="1024" 
d="M160 1597h327l113 -151l154 151h327l-327 -389h-369z" />
    <glyph glyph-name="breve" unicode="&#x2d8;" horiz-adv-x="1024" 
d="M565 1180q-111 0 -187 31.5t-112.5 87t-49 132t4.5 166.5h266q-10 -77 22.5 -106t92.5 -29q135 0 152 135h266q-10 -93 -39.5 -167t-83 -131t-137.5 -88t-195 -31z" />
    <glyph glyph-name="dotaccent" unicode="&#x2d9;" horiz-adv-x="1024" 
d="M815 1597l-51 -389h-389l51 389h389z" />
    <glyph glyph-name="ring" unicode="&#x2da;" horiz-adv-x="1024" 
d="M569 1180q-87 0 -143.5 55.5t-56.5 140.5q0 106 74 178t178 72q87 0 143.5 -55.5t56.5 -140.5q0 -106 -74 -178t-178 -72zM608 1503q-48 0 -81 -30.5t-33 -79.5q0 -40 25 -65t63 -25q48 0 81 30.5t33 79.5q0 40 -25 65t-63 25z" />
    <glyph glyph-name="ogonek" unicode="&#x2db;" horiz-adv-x="1232" 
d="M504 0q-27 -12 -43 -20.5t-40 -25.5t-36 -37.5t-12 -45.5t19.5 -40t51.5 -15q41 0 76 20l53 -225q-36 -22 -99 -37.5t-128 -15.5q-123 0 -192.5 48t-69.5 142q0 75 34 143.5t89.5 119t120.5 86.5t133 55z" />
    <glyph glyph-name="tilde" unicode="&#x2dc;" horiz-adv-x="1024" 
d="M815 1597h246q-23 -182 -103.5 -271t-189.5 -89q-57 0 -117.5 26t-111.5 52t-84 26q-64 0 -72 -71h-246q25 182 104.5 271t188.5 89q57 0 118 -26t112.5 -52t84.5 -26q62 0 70 71z" />
    <glyph glyph-name="hungarumlaut" unicode="&#x2dd;" horiz-adv-x="1024" 
d="M836 1597h331l-278 -389h-291zM426 1597h332l-219 -389h-291z" />
    <glyph glyph-name="Bdotaccent" unicode="&#x1e02;" horiz-adv-x="1320" 
d="M934 1946l-31 -226h-307l31 226h307zM211 1597h563q84 0 148.5 -8t134.5 -36t112.5 -75.5t63 -132t4.5 -200.5l-6 -45q-24 -183 -168 -275q74 -44 108 -117.5t23 -191.5l-4 -41q-9 -87 -34.5 -158t-60.5 -119.5t-84.5 -85t-99.5 -57.5t-111 -34t-113 -17t-112 -4h-573z
M670 647h-195l-41 -311h195q156 0 170 145l2 23q14 143 -131 143zM725 1262h-168l-37 -279h168q141 0 152 127l2 23q7 76 -26.5 102.5t-90.5 26.5z" />
    <glyph glyph-name="bdotaccent" unicode="&#x1e03;" horiz-adv-x="1198" 
d="M598 1946l-31 -226h-307l31 226h307zM592 1638l-84 -634q117 110 301 110q186 0 266 -141t47 -391l-10 -78q-16 -120 -50 -215t-88.5 -167.5t-135 -111.5t-181.5 -39q-215 0 -299 154l-39 -125h-339l59 307l176 1331h377zM469 707l-43 -328q43 -84 135 -84q76 0 119 51.5
t57 157.5l11 78q27 209 -119 209q-92 0 -160 -84z" />
    <glyph glyph-name="Ddotaccent" unicode="&#x1e0a;" horiz-adv-x="1372" 
d="M965 1946l-31 -226h-307l30 226h308zM1313 840l-10 -78q-28 -211 -82 -353t-147.5 -235t-226.5 -133.5t-323 -40.5h-522l209 1597h502q255 0 396.5 -74.5t191 -239.5t12.5 -443zM434 336h113q79 0 136.5 19t94.5 50.5t63 88t40 117t26 151.5l11 78q18 138 6 232
t-78.5 142t-196.5 48h-92z" />
    <glyph glyph-name="ddotaccent" unicode="&#x1e0b;" horiz-adv-x="1218" 
d="M1237 1946l-31 -226h-307l31 226h307zM500 1114q109 0 168.5 -30t101.5 -80l84 634h377l-176 -1331l-19 -307h-340v133q-59 -79 -150 -120.5t-198 -41.5q-186 0 -266 141.5t-47 391.5l10 78q16 120 50 215t88.5 167t135 111t181.5 39zM688 379l43 328q-43 84 -135 84
q-76 0 -119 -51.5t-57 -157.5l-10 -78q-14 -105 14.5 -157t103.5 -52q92 0 160 84z" />
    <glyph glyph-name="Fdotaccent" unicode="&#x1e1e;" horiz-adv-x="1146" 
d="M211 1597h1003l-43 -335h-614l-37 -279h512l-45 -336h-512l-84 -647h-389zM913 1946l-30 -226h-308l31 226h307z" />
    <glyph glyph-name="fdotaccent" unicode="&#x1e1f;" horiz-adv-x="860" 
d="M629 1198l-17 -113h219l-43 -327h-219l-98 -758h-377l99 758h-164l43 327h164l20 154q58 428 492 428q126 0 178 -29l-41 -307q-30 12 -92 12q-73 0 -113.5 -30t-50.5 -115zM811 1946l-31 -226h-307l31 226h307z" />
    <glyph glyph-name="Mdotaccent" unicode="&#x1e40;" horiz-adv-x="1822" 
d="M1362 922l-350 -922h-402l-108 922l-31 -308l-80 -614h-389l209 1597h580l108 -921l350 921h580l-209 -1597h-389l80 614zM1221 1946l-31 -226h-307l30 226h308z" />
    <glyph glyph-name="mdotaccent" unicode="&#x1e41;" horiz-adv-x="1802" 
d="M1212 1597l-51 -389h-389l51 389h389zM1612 0h-377l88 676q15 115 -90 115q-83 0 -143 -74l-95 -717h-377l89 676q15 115 -91 115q-83 0 -143 -74l-94 -717h-377l102 778l19 307h340v-133q139 162 350 162q203 0 262 -166q136 166 355 166q86 0 147 -30t90.5 -81.5
t41.5 -120t-1 -145.5z" />
    <glyph glyph-name="Pdotaccent" unicode="&#x1e56;" horiz-adv-x="1269" 
d="M913 1946l-30 -226h-308l31 226h307zM463 549l-72 -549h-389l209 1597h551q92 0 163.5 -9t148.5 -40t123 -83t69 -146t6 -221l-6 -45q-12 -92 -40 -167t-65 -126.5t-87.5 -90t-101 -61.5t-113 -36.5t-116.5 -18t-118 -4.5h-162zM506 885h178q32 0 60.5 7.5t57 26t48 55.5
t24.5 89l3 22q9 103 -31.5 140t-110.5 37h-178z" />
    <glyph glyph-name="pdotaccent" unicode="&#x1e57;" horiz-adv-x="1198" 
d="M928 1597l-51 -389h-390l52 389h389zM322 -410h-377l157 1188l19 307h340v-133q59 79 150 120.5t198 41.5q186 0 266 -141t47 -391l-10 -78q-16 -120 -50 -215t-88.5 -167.5t-135 -111.5t-181.5 -39q-108 0 -168 30.5t-102 80.5zM469 707l-43 -328q43 -84 135 -84
q76 0 119 51.5t57 157.5l11 78q27 209 -119 209q-92 0 -160 -84z" />
    <glyph glyph-name="Tdotaccent" unicode="&#x1e6a;" horiz-adv-x="1167" 
d="M844 1262l-166 -1262h-389l166 1262h-359l43 335h1106l-43 -335h-358zM893 1946l-31 -226h-307l31 226h307z" />
    <glyph glyph-name="tdotaccent" unicode="&#x1e6b;" horiz-adv-x="901" 
d="M612 1085h260l-43 -327h-260l-41 -318q-11 -86 21 -115.5t104 -29.5q23 0 56 4.5t41 7.5l-39 -307q-58 -29 -187 -29q-207 0 -307.5 100.5t-71.5 327.5l48 359h-164l43 327h164l40 308h377zM659 1700l-30 -225h-307l30 225h307z" />
    <glyph glyph-name="Wgrave" unicode="&#x1e80;" horiz-adv-x="1945" 
d="M1071 0l-49 1151l-350 -1151h-494l-45 1597h406l-17 -1060l320 1060h479l41 -1060l262 1060h406l-463 -1597h-496zM811 1946h395l78 -226h-373z" />
    <glyph glyph-name="wgrave" unicode="&#x1e81;" horiz-adv-x="1597" 
d="M788 696l-213 -696h-471l-32 1085h368l-37 -675l211 675h451l35 -675l139 675h369l-316 -1085h-471zM494 1597h413l135 -389h-372z" />
    <glyph glyph-name="Wacute" unicode="&#x1e82;" horiz-adv-x="1945" 
d="M1071 0l-49 1151l-350 -1151h-494l-45 1597h406l-17 -1060l320 1060h479l41 -1060l262 1060h406l-463 -1597h-496zM1051 1946h395l-162 -226h-373z" />
    <glyph glyph-name="wacute" unicode="&#x1e83;" horiz-adv-x="1597" 
d="M788 696l-213 -696h-471l-32 1085h368l-37 -675l211 675h451l35 -675l139 675h369l-316 -1085h-471zM907 1597h414l-279 -389h-372z" />
    <glyph glyph-name="Wdieresis" unicode="&#x1e84;" horiz-adv-x="1945" 
d="M1071 0l-49 1151l-350 -1151h-494l-45 1597h406l-17 -1060l320 1060h479l41 -1060l262 1060h406l-463 -1597h-496zM1466 1946l-30 -226h-308l31 226h307zM1098 1946l-31 -226h-307l31 226h307z" />
    <glyph glyph-name="wdieresis" unicode="&#x1e85;" horiz-adv-x="1597" 
d="M788 696l-213 -696h-471l-32 1085h368l-37 -675l211 675h451l35 -675l139 675h369l-316 -1085h-471zM1337 1597l-51 -389h-389l51 389h389zM866 1597l-51 -389h-389l51 389h389z" />
    <glyph glyph-name="Eszett" unicode="&#x1e9e;" horiz-adv-x="1679" 
d="M645 950l262 340h-30q-164 0 -253.5 -56t-101.5 -155l-141 -1079h-389l143 1090q33 261 223.5 398.5t563.5 137.5q268 0 467 -76l-35 -266l-250 -321l29 -5q264 -38 378 -150.5t88 -338.5l-4 -37q-25 -226 -174.5 -343.5t-427.5 -117.5q-110 0 -190.5 18.5t-141 59
t-91.5 105t-40.5 157t11.5 215.5l4 27h389q-32 -246 106 -246h21q54 0 94.5 41.5t46.5 102.5l2 20q7 65 -34 109t-146 55l-416 49z" />
    <glyph glyph-name="Ygrave" unicode="&#x1ef2;" horiz-adv-x="1310" 
d="M813 492l-63 -492h-390l64 492l-307 1105h426l139 -626l303 626h426zM494 1946h395l78 -226h-373z" />
    <glyph glyph-name="ygrave" unicode="&#x1ef3;" horiz-adv-x="1167" 
d="M541 451l258 634h409l-514 -1024l-196 -471h-451l238 471l-244 1024h410zM279 1597h413l135 -389h-372z" />
    <glyph glyph-name="enspace" unicode="&#x2002;" horiz-adv-x="1024" 
 />
    <glyph glyph-name="emspace" unicode="&#x2003;" horiz-adv-x="2048" 
 />
    <glyph glyph-name="threeperemspace" unicode="&#x2004;" horiz-adv-x="681" 
 />
    <glyph glyph-name="fourperemspace" unicode="&#x2005;" horiz-adv-x="512" 
 />
    <glyph glyph-name="sixperemspace" unicode="&#x2006;" horiz-adv-x="342" 
 />
    <glyph glyph-name="figurespace" unicode="&#x2007;" horiz-adv-x="1228" 
 />
    <glyph glyph-name="punctuationspace" unicode="&#x2008;" horiz-adv-x="368" 
 />
    <glyph glyph-name="thinspace" unicode="&#x2009;" horiz-adv-x="307" 
 />
    <glyph glyph-name="hairspace" unicode="&#x200a;" horiz-adv-x="102" 
 />
    <glyph glyph-name="zerowidthspace" unicode="&#x200b;" horiz-adv-x="0" 
 />
    <glyph glyph-name="figuredash" unicode="&#x2012;" horiz-adv-x="1228" 
d="M53 553l43 328h1065l-43 -328h-1065z" />
    <glyph glyph-name="endash" unicode="&#x2013;" horiz-adv-x="1024" 
d="M53 553l43 328h860l-43 -328h-860z" />
    <glyph glyph-name="emdash" unicode="&#x2014;" horiz-adv-x="2048" 
d="M53 553l43 328h1884l-43 -328h-1884z" />
    <glyph glyph-name="uni2015" unicode="&#x2015;" horiz-adv-x="2457" 
d="M53 553l43 328h2294l-43 -328h-2294z" />
    <glyph glyph-name="doublebar" unicode="&#x2016;" horiz-adv-x="1024" 
d="M-31 -246l258 1966h369l-258 -1966h-369zM420 -246l258 1966h369l-259 -1966h-368z" />
    <glyph glyph-name="quoteleft" unicode="&#x2018;" horiz-adv-x="573" 
d="M117 963l41 307q26 192 137 290.5t303 98.5l-25 -184q-154 0 -211 -123h195l-51 -389h-389z" />
    <glyph glyph-name="quoteright" unicode="&#x2019;" horiz-adv-x="573" 
d="M590 1597l-41 -307q-25 -192 -136.5 -290.5t-303.5 -98.5l24 184q155 0 209 123h-192l51 389h389z" />
    <glyph glyph-name="quotesinglbase" unicode="&#x201a;" horiz-adv-x="573" 
d="M432 389l-41 -307q-26 -192 -137 -290.5t-303 -98.5l24 184q152 0 209 123h-192l51 389h389z" />
    <glyph glyph-name="reversequoteleft" unicode="&#x201b;" horiz-adv-x="573" 
d="M201 1597h389l-51 -389h-195q22 -123 178 -123l-24 -184q-192 0 -277.5 98.5t-60.5 290.5z" />
    <glyph glyph-name="quotedblleft" unicode="&#x201c;" horiz-adv-x="1064" 
d="M117 963l41 307q26 192 137 290.5t303 98.5l-25 -184q-154 0 -211 -123h195l-51 -389h-389zM608 963l41 307q26 192 137.5 290.5t303.5 98.5l-25 -184q-154 0 -211 -123h195l-52 -389h-389z" />
    <glyph glyph-name="quotedblright" unicode="&#x201d;" horiz-adv-x="1064" 
d="M1081 1597l-41 -307q-25 -192 -136.5 -290.5t-303.5 -98.5l25 184q155 0 209 123h-193l51 389h389zM590 1597l-41 -307q-25 -192 -136.5 -290.5t-303.5 -98.5l24 184q155 0 209 123h-192l51 389h389z" />
    <glyph glyph-name="quotedblbase" unicode="&#x201e;" horiz-adv-x="1064" 
d="M924 389l-41 -307q-26 -192 -137.5 -290.5t-303.5 -98.5l25 184q152 0 209 123h-193l52 389h389zM432 389l-41 -307q-26 -192 -137 -290.5t-303 -98.5l24 184q152 0 209 123h-192l51 389h389z" />
    <glyph glyph-name="reversequotedblleft" unicode="&#x201f;" horiz-adv-x="1064" 
d="M692 1597h389l-51 -389h-194q22 -123 178 -123l-25 -184q-192 0 -277.5 98.5t-60.5 290.5zM201 1597h389l-51 -389h-195q22 -123 178 -123l-24 -184q-192 0 -277.5 98.5t-60.5 290.5z" />
    <glyph glyph-name="dagger" unicode="&#x2020;" horiz-adv-x="860" 
d="M342 881l45 266h184l-24 -266l-45 -267h-185zM887 1362l-27 -205l-264 10l22 185zM442 1638h205l-45 -266h-184zM102 1157l27 205l264 -10l-22 -185z" />
    <glyph glyph-name="daggerdbl" unicode="&#x2021;" horiz-adv-x="860" 
d="M279 389l45 266h184l-25 -266l-47 -266h-184zM37 666l26 204l267 -10l-25 -184zM887 1362l-27 -205l-264 10l22 185zM442 1638h205l-45 -266h-184zM102 1157l27 205l264 -10l-22 -185zM565 1014l-28 -133h-185l8 133l27 133h184zM821 870l-26 -204l-265 10l25 184z" />
    <glyph glyph-name="bullet" unicode="&#x2022;" horiz-adv-x="942" 
d="M858 1065l-92 -696h-696l92 696h696z" />
    <glyph glyph-name="ellipsis" unicode="&#x2026;" horiz-adv-x="2048" 
d="M514 389l-51 -389h-389l51 389h389zM1825 389l-51 -389h-390l52 389h389zM1169 389l-51 -389h-389l51 389h389z" />
    <glyph glyph-name="perthousand" unicode="&#x2030;" horiz-adv-x="2908" 
d="M909 1204q-26 -188 -149.5 -292.5t-304.5 -104.5t-278 104.5t-71 292.5l3 25q26 188 149.5 292.5t304.5 104.5q87 0 166 -29q83 -34 160.5 -45.5t216.5 -11.5q129 0 257 21.5t200 44.5l-23 -172l-786 -1434h-328l686 1251q-58 -10 -119 -10q-32 0 -78 4zM2007 393
q24 188 148 293t305 105t277.5 -105t72.5 -293l-4 -24q-24 -188 -148 -293t-305 -105t-277.5 105t-72.5 293zM1147 393q24 188 147.5 293t304.5 105t278 -105t73 -293l-4 -24q-24 -188 -148 -293t-305 -105t-277.5 105t-72.5 293zM635 1229q8 52 -19.5 85.5t-83.5 33.5h-12
q-55 0 -91 -33t-44 -86l-2 -25q-6 -53 20.5 -86t81.5 -33h13q56 0 92.5 33.5t42.5 85.5zM1419 369q-6 -52 21.5 -85.5t83.5 -33.5h12q56 0 91.5 33.5t41.5 85.5l4 24q6 53 -21.5 86t-82.5 33h-13q-56 0 -91.5 -33.5t-41.5 -85.5zM2279 369q-6 -52 21.5 -85.5t83.5 -33.5h12
q56 0 91.5 33.5t41.5 85.5l4 24q6 53 -21.5 86t-82.5 33h-12q-56 0 -91.5 -33.5t-41.5 -85.5z" />
    <glyph glyph-name="tripleprime" unicode="&#x2034;" horiz-adv-x="1392" 
d="M190 1597h369l-108 -696h-295zM1051 1597h368l-149 -696h-295zM641 1597h328l-109 -696h-295z" />
    <glyph glyph-name="guilsinglleft" unicode="&#x2039;" horiz-adv-x="655" 
d="M606 1178l-43 -328l-219 -154l178 -153l-43 -328l-411 297l49 369z" />
    <glyph glyph-name="guilsinglright" unicode="&#x203a;" horiz-adv-x="655" 
d="M113 850l43 328l411 -297l-49 -369l-489 -297l43 328l219 153z" />
    <glyph glyph-name="interrobang" unicode="&#x203d;" horiz-adv-x="1044" 
d="M608 492h-178l88 788q-41 -21 -64.5 -70t-33.5 -145h-340l4 37q30 267 159.5 395.5t377.5 128.5q456 0 456 -356q0 -80 -21 -147.5t-56.5 -116t-79 -92t-91 -87t-90 -89t-78 -109t-53.5 -137.5zM657 389l-51 -389h-389l51 389h389zM616 991q4 6 19 29t22 33.5t19 32
t17.5 37t10.5 35.5t5 38q0 57 -47 84z" />
    <glyph glyph-name="fraction" unicode="&#x2044;" horiz-adv-x="409" 
d="M-334 0h-307l1389 1597h307z" />
    <glyph glyph-name="uni2070" unicode="&#x2070;" 
d="M670 1374l-47 -354q-14 -107 -92 -173.5t-205 -66.5q-130 0 -206.5 68.5t-62.5 171.5l47 354q14 108 92 174t205 66q130 0 206.5 -68t62.5 -172zM362 1028l44 338q3 21 -15 23q-19 2 -25 -18q-1 -2 -1 -5l-43 -338q-3 -20 14 -23t24 16q2 3 2 7z" />
    <glyph glyph-name="uni2074" unicode="&#x2074;" 
d="M565 799h-270l16 129h-272l24 190l351 479h256l-58 -436h33l-31 -233h-32zM297 1157h45l14 82z" />
    <glyph glyph-name="uni2075" unicode="&#x2075;" 
d="M61 1055h271l-4 -39q-1 -8 5.5 -12t14 0t8.5 12l6 55q3 27 -26 27h-2q-14 0 -27 -8l-223 81l72 426h530l-31 -233h-307l-8 -53q20 20 94 20q213 0 193 -258l-2 -26q-21 -267 -297 -267q-146 0 -214.5 65t-54.5 191z" />
    <glyph glyph-name="uni2076" unicode="&#x2076;" 
d="M653 1614l-30 -238q-144 0 -203 -41q-32 -23 -47 -59q37 27 88 27q91 0 133 -63.5t31 -174.5l-2 -21q-12 -120 -83 -192t-216 -72q-139 0 -211 75t-52 224l5 31q29 230 155 367q124 137 432 137zM344 1079q-6 0 -14 -8l-6 -55q-1 -8 5.5 -12t14 0t8.5 12l4 41
q2 22 -12 22z" />
    <glyph glyph-name="uni2077" unicode="&#x2077;" 
d="M82 1311l37 286h586l-23 -167l-328 -631h-297l361 567l-94 -2l-7 -53h-235z" />
    <glyph glyph-name="uni2078" unicode="&#x2078;" 
d="M328 780q-80 0 -138 25.5t-85.5 64.5t-39 76.5t-8.5 71.5l2 26q4 62 36 106t79 64q-71 49 -63 156l2 27q2 27 9.5 53t27.5 57t50 53.5t82 38t119 15.5t117.5 -15.5t78.5 -38.5t45 -53.5t21.5 -57t2.5 -52.5l-2 -27q-8 -102 -109 -162q78 -56 70 -164l-2 -26
q-2 -27 -10.5 -55.5t-30 -62.5t-53 -59.5t-84 -43t-117.5 -17.5zM362 1075q1 9 -5.5 12t-14 0t-8.5 -12l-6 -59q-1 -8 5.5 -12t14 0t8.5 12zM395 1380q1 8 -5.5 12t-14 0t-8.5 -12l-7 -59q-1 -9 6 -12t14.5 0t8.5 12z" />
    <glyph glyph-name="uni2079" unicode="&#x2079;" 
d="M68 780l30 238q148 0 207 41q33 23 47 59q-36 -26 -88 -26q-91 0 -133 63t-31 174l2 21q12 120 83 192t216 72q139 0 211 -75t52 -224l-5 -31q-29 -229 -155 -366q-125 -138 -436 -138zM381 1315q6 0 14 8l6 55q1 8 -5.5 12t-14 0t-8.5 -12l-4 -41q-2 -22 12 -22z" />
    <glyph glyph-name="uni207A" unicode="&#x207a;" 
d="M283 1470h233l-20 -155h155l-30 -234h-156l-21 -155h-233l20 155h-155l30 234h156z" />
    <glyph glyph-name="uni207B" unicode="&#x207b;" 
d="M76 1081l30 234h545l-30 -234h-545z" />
    <glyph glyph-name="uni207C" unicode="&#x207c;" 
d="M96 1237l31 233h545l-31 -233h-545zM55 926l31 233h545l-31 -233h-545z" />
    <glyph glyph-name="uni207D" unicode="&#x207d;" horiz-adv-x="409" 
d="M63 1174l3 26q11 140 62.5 241t113.5 156h270q-61 -58 -115.5 -167t-64.5 -230l-2 -26q-8 -115 17 -213t65 -162h-260q-37 54 -67 158.5t-22 216.5z" />
    <glyph glyph-name="uni207E" unicode="&#x207e;" horiz-adv-x="409" 
d="M455 1223l-2 -27q-11 -140 -63 -240.5t-114 -156.5h-270q61 58 115.5 167t64.5 230l2 27q8 115 -17 212.5t-65 161.5h261q37 -54 66.5 -158t21.5 -216z" />
    <glyph glyph-name="uni2080" unicode="&#x2080;" 
d="M563 575l-47 -354q-14 -106 -92 -172.5t-205 -66.5q-130 0 -206 68t-62 171l47 354q14 108 92 174t205 66q130 0 206 -68t62 -172zM256 229l43 338q3 21 -15 23q-19 2 -25 -18l-1 -5l-43 -338q-3 -21 15 -23q19 -2 25 18q1 2 1 5z" />
    <glyph glyph-name="uni2081" unicode="&#x2081;" 
d="M485 0h-542l30 231h138l30 242l-59 -37l-107 191l269 168h211l-74 -564h135z" />
    <glyph glyph-name="uni2082" unicode="&#x2082;" 
d="M512 231l-31 -231h-553l23 170l305 307q23 23 25 43l8 62q1 8 -6 12t-14.5 0.5t-8.5 -12.5l-6 -50h-256l2 21q13 137 84.5 199.5t210.5 62.5q67 0 117.5 -16.5t78.5 -41t45 -57t21.5 -61t1.5 -55.5l-4 -37q-7 -59 -33 -101t-82 -98l-116 -117h188z" />
    <glyph glyph-name="uni2083" unicode="&#x2083;" 
d="M225 256l-4 -39q-1 -9 6 -12t14.5 0t8.5 12l4 39q3 35 -27 35h-86l29 217h82q28 0 31 24l6 50q1 8 -6 12t-14.5 0.5t-8.5 -12.5l-6 -50h-256l2 21q13 136 85.5 199t209.5 63q67 0 117.5 -15.5t78.5 -38.5t44.5 -53.5t21 -57t2.5 -52.5l-2 -27q-9 -114 -108 -161
q77 -55 69 -164l-2 -27q-3 -35 -17.5 -71.5t-45.5 -76t-91 -64.5t-141 -25q-146 0 -214 65t-54 191l2 18h270z" />
    <glyph glyph-name="uni2084" unicode="&#x2084;" 
d="M459 0h-271l17 129h-273l25 190l350 480h256l-57 -437h33l-31 -233h-33zM190 358h46l14 82z" />
    <glyph glyph-name="uni2085" unicode="&#x2085;" 
d="M-45 256h270l-4 -39q-1 -9 6 -12t14.5 0t8.5 12l6 55q3 27 -27 27h-2q-13 0 -26 -8l-224 82l72 426h531l-31 -234h-307l-9 -53q20 20 95 20q212 0 192 -258l-2 -26q-21 -266 -297 -266q-146 0 -214 65t-54 191z" />
    <glyph glyph-name="uni2086" unicode="&#x2086;" 
d="M547 815l-31 -237q-144 0 -203 -41q-32 -22 -47 -60q38 27 88 27q91 0 133 -63.5t31 -174.5l-2 -20q-12 -120 -83 -192t-216 -72q-139 0 -210.5 75t-51.5 224l4 30q29 229 156 367q124 137 432 137zM238 281q-6 0 -15 -9l-6 -55q-1 -9 6 -12t14.5 0t8.5 12l4 41
q2 23 -12 23z" />
    <glyph glyph-name="uni2087" unicode="&#x2087;" 
d="M-25 512l37 287h586l-23 -168l-327 -631h-297l360 567l-94 -2l-6 -53h-236z" />
    <glyph glyph-name="uni2088" unicode="&#x2088;" 
d="M221 -18q-65 0 -115.5 17t-79.5 43t-47.5 59t-24 62.5t-3.5 55.5l2 27q4 62 36 106t79 64q-72 50 -64 155l2 27q2 27 9.5 53t28 57t50.5 53.5t82 38t119 15.5t117.5 -15.5t78.5 -38.5t44.5 -53.5t21 -57t2.5 -52.5l-2 -27q-4 -56 -32 -94t-76 -67q77 -55 69 -164l-2 -27
q-3 -35 -17.5 -71.5t-45.5 -76t-91 -64.5t-141 -25zM256 276q1 8 -6 12t-14.5 0.5t-8.5 -12.5l-6 -59q-1 -9 6 -12t14.5 0t8.5 12zM289 582q1 8 -6 12t-14.5 0.5t-8.5 -12.5l-6 -60q-1 -8 6 -12t14.5 0t8.5 12z" />
    <glyph glyph-name="uni2089" unicode="&#x2089;" 
d="M-39 -18l31 237q148 0 207 41q33 23 47 59q-36 -26 -88 -26q-91 0 -133 63t-31 174l2 21q12 120 83 192t216 72q139 0 210.5 -75t51.5 -224l-4 -31q-29 -228 -156 -366q-124 -137 -436 -137zM274 516q7 0 15 8l6 56q1 9 -6 12.5t-14.5 -0.5t-8.5 -12l-4 -41
q-2 -23 12 -23z" />
    <glyph glyph-name="uni208A" unicode="&#x208a;" 
d="M176 672h234l-21 -156h156l-31 -233h-156l-20 -156h-234l21 156h-156l31 233h156z" />
    <glyph glyph-name="uni208B" unicode="&#x208b;" 
d="M-31 283l31 233h545l-31 -233h-545z" />
    <glyph glyph-name="uni208C" unicode="&#x208c;" 
d="M-10 438l30 234h545l-30 -234h-545zM-51 127l31 233h544l-30 -233h-545z" />
    <glyph glyph-name="uni208D" unicode="&#x208d;" horiz-adv-x="409" 
d="M-43 375l2 26q11 140 62.5 241.5t113.5 156.5h271q-61 -58 -116 -167.5t-65 -230.5l-2 -26q-8 -115 17 -213t65 -162h-260q-37 54 -66.5 158.5t-21.5 216.5z" />
    <glyph glyph-name="uni208E" unicode="&#x208e;" horiz-adv-x="409" 
d="M348 424l-2 -27q-11 -140 -62.5 -241t-113.5 -156h-270q61 58 115.5 167t64.5 230l2 27q8 115 -17 213t-65 162h260q37 -54 66.5 -158.5t21.5 -216.5z" />
    <glyph glyph-name="Euro" unicode="&#x20ac;" horiz-adv-x="1228" 
d="M174 614h-133l43 328h131q62 353 208.5 518.5t381.5 165.5q239 0 335 -123.5t60 -398.5l-10 -80h-328q20 138 4.5 202t-71.5 64h-21q-61 0 -99.5 -87.5t-66.5 -260.5h400l-207 -328h-234q-13 -154 4 -230.5t74 -76.5h21q103 0 129 205h327l-2 -18q-30 -277 -152.5 -400
t-359.5 -123q-239 0 -348 155t-86 488z" />
    <glyph glyph-name="ruble" unicode="&#x20bd;" horiz-adv-x="1228" 
d="M524 549l-8 -62h369l-45 -335h-369l-18 -152h-390l19 152h-133l45 335h133l8 62h-133l43 336h133l94 712h428q92 0 163.5 -9t148.5 -40t123 -83t69 -146t6 -221l-6 -45q-12 -92 -40 -167t-65 -126.5t-87.5 -90t-101 -61.5t-113 -36.5t-116.5 -18t-118 -4.5h-39zM567 885
h56q32 0 60.5 7.5t57 26t48 55.5t24.5 89l2 22q9 103 -31 140t-110 37h-56z" />
    <glyph glyph-name="numero" unicode="&#x2116;" horiz-adv-x="2334" 
d="M1419 1597l-209 -1597h-409l-326 881l-31 -308l-73 -573h-369l209 1597h410l325 -880l29 307l76 573h368zM1436 352l37 281h765l-36 -281h-766zM1892 770q-194 0 -294.5 109t-75.5 290l8 60q26 187 135.5 293t300.5 106q194 0 295 -109t76 -290l-8 -60
q-26 -186 -136 -292.5t-301 -106.5zM1946 1348q-38 0 -60 -27t-31 -92l-8 -60q-9 -62 6.5 -90t59.5 -28q38 0 59.5 26.5t30.5 91.5l8 60q9 62 -6 90.5t-59 28.5z" />
    <glyph glyph-name="published" unicode="&#x2117;" horiz-adv-x="1884" 
d="M115 799q0 168 65.5 321.5t176 264t264 176t321.5 65.5t321.5 -65.5t264 -176t176 -264t65.5 -321.5t-65.5 -321.5t-176 -264.5t-264 -176.5t-321.5 -65.5t-321.5 65.5t-264 176.5t-176 264.5t-65.5 321.5zM238 799q0 -143 55.5 -273.5t150 -225t225 -150.5t273.5 -56
q191 0 353.5 94.5t257 257t94.5 353.5q0 143 -56 273.5t-150.5 225t-225 150t-273.5 55.5t-273.5 -55.5t-225 -150t-150 -225t-55.5 -273.5zM879 606v-289h-336v963h536q53 0 99.5 -8t93 -30.5t79.5 -57.5t53.5 -94t20.5 -136v-22q0 -77 -20.5 -136t-53.5 -94t-79.5 -57.5
t-93 -30.5t-99.5 -8h-200zM879 850h120q88 0 88 88v10q0 88 -88 88h-120v-186z" />
    <glyph glyph-name="servicemark" unicode="&#x2120;" horiz-adv-x="1167" 
d="M213 1300q-99 13 -142.5 50t-43.5 123v8q0 82 53.5 130t155.5 48q108 0 159 -52t51 -157v-14h-143q0 49 -15 72.5t-52 23.5h-9q-24 0 -38.5 -13.5t-14.5 -31.5v-4q0 -26 20 -39t66 -21q100 -13 145.5 -49.5t45.5 -120.5v-10q0 -84 -55.5 -131t-159.5 -47q-213 0 -213 209
v4h143q0 -88 70 -88h8q28 0 42.5 14.5t14.5 34.5v4q0 25 -18 37.5t-70 19.5zM944 1386l-76 -301h-151l-76 301l4 -116v-185h-145v553h217l76 -299l75 299h217v-553h-145v185z" />
    <glyph glyph-name="trademark" unicode="&#x2122;" horiz-adv-x="1167" 
d="M311 1513v-428h-145v428h-133v125h413v-125h-135zM944 1386l-76 -301h-151l-76 301l4 -116v-185h-145v553h217l76 -299l75 299h217v-553h-145v185z" />
    <glyph glyph-name="uni2153" unicode="&#x2153;" horiz-adv-x="1638" 
d="M592 799h-543l31 231h137l31 242l-60 -37l-106 190l268 168h211l-74 -563h136zM281 0h-308l1389 1597h307zM1249 256l-4 -39q-1 -9 6 -12.5t14.5 0.5t8.5 12l4 39q3 35 -27 35h-86l29 217h82q28 0 31 24l6 50q1 8 -6 12t-14.5 0t-8.5 -12l-6 -50h-256l2 21
q13 136 85.5 199t209.5 63q67 0 117.5 -15.5t78.5 -38.5t44.5 -53.5t21 -57t2.5 -52.5l-2 -27q-9 -114 -108 -161q77 -55 69 -164l-2 -27q-3 -35 -17.5 -71.5t-45.5 -76t-91 -64.5t-141 -25q-146 0 -214 65t-54 191l2 18h270z" />
    <glyph glyph-name="uni2154" unicode="&#x2154;" horiz-adv-x="1638" 
d="M618 1030l-30 -231h-553l22 170l305 307q23 23 25 43l8 61q1 8 -5.5 12t-14 0t-8.5 -12l-7 -49h-256l2 21q13 137 84.5 199.5t210.5 62.5q67 0 117.5 -16.5t79 -41.5t45.5 -57.5t21.5 -61t1.5 -55.5l-4 -36q-7 -59 -33 -101t-82 -98l-117 -117h188zM281 0h-308l1389 1597
h307zM1249 256l-4 -39q-1 -9 6 -12.5t14.5 0.5t8.5 12l4 39q3 35 -27 35h-86l29 217h82q28 0 31 24l6 50q1 8 -6 12t-14.5 0t-8.5 -12l-6 -50h-256l2 21q13 136 85.5 199t209.5 63q67 0 117.5 -15.5t78.5 -38.5t44.5 -53.5t21 -57t2.5 -52.5l-2 -27q-9 -114 -108 -161
q77 -55 69 -164l-2 -27q-3 -35 -17.5 -71.5t-45.5 -76t-91 -64.5t-141 -25q-146 0 -214 65t-54 191l2 18h270z" />
    <glyph glyph-name="uni2155" unicode="&#x2155;" horiz-adv-x="1638" 
d="M592 799h-543l31 231h137l31 242l-60 -37l-106 190l268 168h211l-74 -563h136zM281 0h-308l1389 1597h307zM979 256h270l-4 -39q-1 -9 6 -12.5t14.5 0.5t8.5 12l6 55q3 27 -27 27h-2q-13 0 -26 -8l-224 82l72 426h531l-31 -234h-307l-9 -53q20 20 95 20q212 0 192 -258
l-2 -26q-21 -266 -297 -266q-146 0 -214 65t-54 191z" />
    <glyph glyph-name="uni2156" unicode="&#x2156;" horiz-adv-x="1638" 
d="M618 1030l-30 -231h-553l22 170l305 307q23 23 25 43l8 61q1 8 -5.5 12t-14 0t-8.5 -12l-7 -49h-256l2 21q13 137 84.5 199.5t210.5 62.5q67 0 117.5 -16.5t79 -41.5t45.5 -57.5t21.5 -61t1.5 -55.5l-4 -36q-7 -59 -33 -101t-82 -98l-117 -117h188zM281 0h-308l1389 1597
h307zM979 256h270l-4 -39q-1 -9 6 -12.5t14.5 0.5t8.5 12l6 55q3 27 -27 27h-2q-13 0 -26 -8l-224 82l72 426h531l-31 -234h-307l-9 -53q20 20 95 20q212 0 192 -258l-2 -26q-21 -266 -297 -266q-146 0 -214 65t-54 191z" />
    <glyph glyph-name="uni2157" unicode="&#x2157;" horiz-adv-x="1638" 
d="M332 1055l-4 -39q-1 -8 5.5 -12t14 0t8.5 12l4 39q3 35 -26 35h-86l28 217h82q28 0 31 24l6 49q1 8 -5.5 12t-14 0t-8.5 -12l-7 -49h-256l2 21q13 136 85.5 199t209.5 63q67 0 117.5 -15.5t78.5 -38.5t45 -53.5t21.5 -57t2.5 -52.5l-2 -27q-9 -114 -109 -162
q78 -56 70 -164l-2 -26q-2 -27 -10.5 -55.5t-30 -62.5t-53 -59.5t-84 -43t-117.5 -17.5q-146 0 -214.5 65t-54.5 191l2 19h271zM281 0h-308l1389 1597h307zM979 256h270l-4 -39q-1 -9 6 -12.5t14.5 0.5t8.5 12l6 55q3 27 -27 27h-2q-13 0 -26 -8l-224 82l72 426h531
l-31 -234h-307l-9 -53q20 20 95 20q212 0 192 -258l-2 -26q-21 -266 -297 -266q-146 0 -214 65t-54 191z" />
    <glyph glyph-name="uni2158" unicode="&#x2158;" horiz-adv-x="1638" 
d="M565 799h-270l16 129h-272l24 190l351 479h256l-58 -436h33l-31 -233h-32zM297 1157h45l14 82zM281 0h-308l1389 1597h307zM979 256h270l-4 -39q-1 -9 6 -12.5t14.5 0.5t8.5 12l6 55q3 27 -27 27h-2q-13 0 -26 -8l-224 82l72 426h531l-31 -234h-307l-9 -53q20 20 95 20
q212 0 192 -258l-2 -26q-21 -266 -297 -266q-146 0 -214 65t-54 191z" />
    <glyph glyph-name="uni2159" unicode="&#x2159;" horiz-adv-x="1638" 
d="M592 799h-543l31 231h137l31 242l-60 -37l-106 190l268 168h211l-74 -563h136zM281 0h-308l1389 1597h307zM1571 815l-31 -237q-144 0 -203 -41q-32 -22 -47 -60q38 27 88 27q91 0 133 -63.5t31 -174.5l-2 -20q-12 -120 -83 -192t-216 -72q-139 0 -210.5 75t-51.5 224
l4 30q29 229 156 367q124 137 432 137zM1262 281q-6 0 -15 -9l-6 -55q-1 -9 6 -12.5t14.5 0.5t8.5 12l4 41q2 23 -12 23z" />
    <glyph glyph-name="uni215A" unicode="&#x215a;" horiz-adv-x="1638" 
d="M61 1055h271l-4 -39q-1 -8 5.5 -12t14 0t8.5 12l6 55q3 27 -26 27h-2q-14 0 -27 -8l-223 81l72 426h530l-31 -233h-307l-8 -53q20 20 94 20q213 0 193 -258l-2 -26q-21 -267 -297 -267q-146 0 -214.5 65t-54.5 191zM281 0h-308l1389 1597h307zM1571 815l-31 -237
q-144 0 -203 -41q-32 -22 -47 -60q38 27 88 27q91 0 133 -63.5t31 -174.5l-2 -20q-12 -120 -83 -192t-216 -72q-139 0 -210.5 75t-51.5 224l4 30q29 229 156 367q124 137 432 137zM1262 281q-6 0 -15 -9l-6 -55q-1 -9 6 -12.5t14.5 0.5t8.5 12l4 41q2 23 -12 23z" />
    <glyph glyph-name="uni215B" unicode="&#x215b;" horiz-adv-x="1638" 
d="M592 799h-543l31 231h137l31 242l-60 -37l-106 190l268 168h211l-74 -563h136zM281 0h-308l1389 1597h307zM1245 -18q-65 0 -115.5 17t-79.5 43t-47.5 59t-24 62.5t-3.5 55.5l2 27q4 62 36 106t79 64q-72 50 -64 155l2 27q2 27 9.5 53t28 57t50.5 53.5t82 38t119 15.5
t117.5 -15.5t78.5 -38.5t44.5 -53.5t21 -57t2.5 -52.5l-2 -27q-4 -56 -32 -94t-76 -67q77 -55 69 -164l-2 -27q-3 -35 -17.5 -71.5t-45.5 -76t-91 -64.5t-141 -25zM1280 276q1 9 -6 12.5t-14.5 -0.5t-8.5 -12l-6 -59q-1 -9 6 -12.5t14.5 0.5t8.5 12zM1313 582q1 8 -6 12
t-14.5 0t-8.5 -12l-6 -60q-1 -8 6 -12t14.5 0t8.5 12z" />
    <glyph glyph-name="uni215C" unicode="&#x215c;" horiz-adv-x="1638" 
d="M332 1055l-4 -39q-1 -8 5.5 -12t14 0t8.5 12l4 39q3 35 -26 35h-86l28 217h82q28 0 31 24l6 49q1 8 -5.5 12t-14 0t-8.5 -12l-7 -49h-256l2 21q13 136 85.5 199t209.5 63q67 0 117.5 -15.5t78.5 -38.5t45 -53.5t21.5 -57t2.5 -52.5l-2 -27q-9 -114 -109 -162
q78 -56 70 -164l-2 -26q-2 -27 -10.5 -55.5t-30 -62.5t-53 -59.5t-84 -43t-117.5 -17.5q-146 0 -214.5 65t-54.5 191l2 19h271zM281 0h-308l1389 1597h307zM1245 -18q-65 0 -115.5 17t-79.5 43t-47.5 59t-24 62.5t-3.5 55.5l2 27q4 62 36 106t79 64q-72 50 -64 155l2 27
q2 27 9.5 53t28 57t50.5 53.5t82 38t119 15.5t117.5 -15.5t78.5 -38.5t44.5 -53.5t21 -57t2.5 -52.5l-2 -27q-4 -56 -32 -94t-76 -67q77 -55 69 -164l-2 -27q-3 -35 -17.5 -71.5t-45.5 -76t-91 -64.5t-141 -25zM1280 276q1 9 -6 12.5t-14.5 -0.5t-8.5 -12l-6 -59
q-1 -9 6 -12.5t14.5 0.5t8.5 12zM1313 582q1 8 -6 12t-14.5 0t-8.5 -12l-6 -60q-1 -8 6 -12t14.5 0t8.5 12z" />
    <glyph glyph-name="uni215D" unicode="&#x215d;" horiz-adv-x="1638" 
d="M61 1055h271l-4 -39q-1 -8 5.5 -12t14 0t8.5 12l6 55q3 27 -26 27h-2q-14 0 -27 -8l-223 81l72 426h530l-31 -233h-307l-8 -53q20 20 94 20q213 0 193 -258l-2 -26q-21 -267 -297 -267q-146 0 -214.5 65t-54.5 191zM281 0h-308l1389 1597h307zM1245 -18q-65 0 -115.5 17
t-79.5 43t-47.5 59t-24 62.5t-3.5 55.5l2 27q4 62 36 106t79 64q-72 50 -64 155l2 27q2 27 9.5 53t28 57t50.5 53.5t82 38t119 15.5t117.5 -15.5t78.5 -38.5t44.5 -53.5t21 -57t2.5 -52.5l-2 -27q-4 -56 -32 -94t-76 -67q77 -55 69 -164l-2 -27q-3 -35 -17.5 -71.5
t-45.5 -76t-91 -64.5t-141 -25zM1280 276q1 9 -6 12.5t-14.5 -0.5t-8.5 -12l-6 -59q-1 -9 6 -12.5t14.5 0.5t8.5 12zM1313 582q1 8 -6 12t-14.5 0t-8.5 -12l-6 -60q-1 -8 6 -12t14.5 0t8.5 12z" />
    <glyph glyph-name="uni215E" unicode="&#x215e;" horiz-adv-x="1638" 
d="M82 1311l37 286h586l-23 -167l-328 -631h-297l361 567l-94 -2l-7 -53h-235zM281 0h-308l1389 1597h307zM1245 -18q-65 0 -115.5 17t-79.5 43t-47.5 59t-24 62.5t-3.5 55.5l2 27q4 62 36 106t79 64q-72 50 -64 155l2 27q2 27 9.5 53t28 57t50.5 53.5t82 38t119 15.5
t117.5 -15.5t78.5 -38.5t44.5 -53.5t21 -57t2.5 -52.5l-2 -27q-4 -56 -32 -94t-76 -67q77 -55 69 -164l-2 -27q-3 -35 -17.5 -71.5t-45.5 -76t-91 -64.5t-141 -25zM1280 276q1 9 -6 12.5t-14.5 -0.5t-8.5 -12l-6 -59q-1 -9 6 -12.5t14.5 0.5t8.5 12zM1313 582q1 8 -6 12
t-14.5 0t-8.5 -12l-6 -60q-1 -8 6 -12t14.5 0t8.5 12z" />
    <glyph glyph-name="uni215F" unicode="&#x215f;" horiz-adv-x="1024" 
d="M592 799h-543l31 231h137l31 242l-60 -37l-106 190l268 168h211l-74 -563h136zM281 0h-308l1389 1597h307z" />
    <glyph glyph-name="arrowleft" unicode="&#x2190;" horiz-adv-x="1884" 
d="M913 1597h473l-630 -630h985v-336h-985l630 -631h-473l-798 799z" />
    <glyph glyph-name="arrowup" unicode="&#x2191;" horiz-adv-x="1884" 
d="M143 354v473l799 799l799 -799v-473l-631 631v-985h-336v985z" />
    <glyph glyph-name="arrowright" unicode="&#x2192;" horiz-adv-x="1884" 
d="M498 1597h473l798 -798l-798 -799h-473l630 631h-985v336h985z" />
    <glyph glyph-name="arrowdown" unicode="&#x2193;" horiz-adv-x="1884" 
d="M143 770v473l631 -631v985h336v-985l631 631v-473l-799 -799z" />
    <glyph glyph-name="uni2196" unicode="&#x2196;" horiz-adv-x="1884" 
d="M479 0h-336v1597h1598v-335h-1026l1057 -1055l-238 -238l-1055 1057v-1026z" />
    <glyph glyph-name="uni2197" unicode="&#x2197;" horiz-adv-x="1884" 
d="M143 1262v335h1598v-1597h-336v1026l-1055 -1057l-237 238l1056 1055h-1026z" />
    <glyph glyph-name="uni2198" unicode="&#x2198;" horiz-adv-x="1884" 
d="M143 0v336h1026l-1056 1055l237 237l1055 -1057v1026h336v-1597h-1598z" />
    <glyph glyph-name="uni2199" unicode="&#x2199;" horiz-adv-x="1884" 
d="M1741 336v-336h-1598v1597h336v-1026l1055 1057l238 -237l-1057 -1055h1026z" />
    <glyph glyph-name="minus" unicode="&#x2212;" horiz-adv-x="1228" 
d="M63 631l46 336h1065l-46 -336h-1065z" />
    <glyph glyph-name="approxequal" unicode="&#x2248;" horiz-adv-x="1228" 
d="M383 782q71 0 136.5 -20.5t106.5 -45t91.5 -45t95.5 -20.5q97 0 186 94l152 -174q-69 -93 -161 -149.5t-195 -56.5q-71 0 -137 20.5t-107.5 45t-92.5 45t-96 20.5q-91 0 -186 -95l-151 174q71 93 163 150t195 57zM442 1233q71 0 136.5 -20.5t106.5 -45t91.5 -45
t95.5 -20.5q98 0 187 94l151 -174q-69 -93 -161 -150t-195 -57q-71 0 -137 20.5t-107 45t-92 45t-96 20.5q-92 0 -186 -94l-152 174q71 93 163 150t195 57z" />
    <glyph glyph-name="notequal" unicode="&#x2260;" horiz-adv-x="1228" 
d="M94 856l43 336h629l141 201h258l-141 -201h178l-43 -336h-371l-81 -115h436l-43 -335h-629l-141 -201h-258l141 201h-178l43 335h371l81 115h-436z" />
    <glyph glyph-name="equivalence" unicode="&#x2261;" horiz-adv-x="1228" 
d="M123 1081l45 336h1065l-45 -336h-1065zM4 180l45 336h1065l-45 -336h-1065zM63 631l46 336h1065l-46 -336h-1065z" />
    <glyph glyph-name="lessequal" unicode="&#x2264;" horiz-adv-x="1228" 
d="M1186 1073l-506 -131l473 -131l-49 -373l-1024 320l49 368l1106 320zM1094 360l-29 -208l-1022 319l27 209z" />
    <glyph glyph-name="greaterequal" unicode="&#x2265;" horiz-adv-x="1228" 
d="M88 811l506 131l-473 131l49 373l1024 -320l-49 -368l-1106 -320zM0 152l29 208l1106 320l-27 -209z" />
    <glyph glyph-name="squaremultiply" unicode="&#x22a0;" horiz-adv-x="1884" 
d="M1741 0h-1598v1597h1598v-1597zM1409 1266h-934v-934h934v934zM743 362l-237 238l199 199l-199 198l237 238l199 -199l199 199l237 -238l-198 -198l198 -199l-237 -238l-199 199z" />
    <glyph glyph-name="house" unicode="&#x2302;" horiz-adv-x="1740" 
d="M1597 0h-1454v922l727 696l727 -696v-922z" />
    <glyph glyph-name="blacksquare" unicode="&#x25a0;" horiz-adv-x="1884" 
d="M1741 0h-1598v1597h1598v-1597z" />
    <glyph glyph-name="blacksquare" unicode="&#xe740;" horiz-adv-x="1884" 
d="M1741 0h-1598v1597h1598v-1597z" />
    <glyph glyph-name="whitesquare" unicode="&#x25a1;" horiz-adv-x="1884" 
d="M1741 0h-1598v1597h1598v-1597zM1409 1266h-934v-934h934v934z" />
    <glyph glyph-name="blacksmallsquare" unicode="&#x25aa;" horiz-adv-x="1392" 
d="M1229 0h-1086v1085h1086v-1085z" />
    <glyph glyph-name="whitesmallsquare" unicode="&#x25ab;" horiz-adv-x="1392" 
d="M143 1085h1086v-1085h-1086v1085zM897 754h-422v-422h422v422z" />
    <glyph glyph-name="triagup" unicode="&#x25b2;" horiz-adv-x="1904" 
d="M1137 1626l643 -1626h-373l-455 1190l-454 -1190h-373l643 1626h369z" />
    <glyph glyph-name="triagrt" unicode="&#x25ba;" horiz-adv-x="1904" 
d="M1790 983v-369l-1626 -643v373l1190 455l-1190 454v373z" />
    <glyph glyph-name="triagdn" unicode="&#x25bc;" horiz-adv-x="1904" 
d="M768 -29l-643 1626h373l454 -1189l455 1189h373l-643 -1626h-369z" />
    <glyph glyph-name="triaglf" unicode="&#x25c4;" horiz-adv-x="1904" 
d="M115 983l1626 643v-373l-1190 -454l1190 -455v-373l-1626 643v369z" />
    <glyph glyph-name="whitecircle" unicode="&#x25cb;" horiz-adv-x="1884" 
d="M115 799q0 168 65.5 321.5t176 264t264 176t321.5 65.5t321.5 -65.5t264 -176t176 -264t65.5 -321.5t-65.5 -321.5t-176 -264.5t-264 -176.5t-321.5 -65.5t-321.5 65.5t-264 176.5t-176 264.5t-65.5 321.5zM446 799q0 -135 66.5 -249t180.5 -180.5t249 -66.5t249 66.5
t180.5 180.5t66.5 249t-66.5 249t-180.5 180t-249 66t-249 -66t-180.5 -180t-66.5 -249z" />
    <glyph glyph-name="whitecircle" unicode="&#x25ef;" horiz-adv-x="1884" 
d="M115 799q0 168 65.5 321.5t176 264t264 176t321.5 65.5t321.5 -65.5t264 -176t176 -264t65.5 -321.5t-65.5 -321.5t-176 -264.5t-264 -176.5t-321.5 -65.5t-321.5 65.5t-264 176.5t-176 264.5t-65.5 321.5zM446 799q0 -135 66.5 -249t180.5 -180.5t249 -66.5t249 66.5
t180.5 180.5t66.5 249t-66.5 249t-180.5 180t-249 66t-249 -66t-180.5 -180t-66.5 -249z" />
    <glyph glyph-name="blackcircle" unicode="&#x25cf;" horiz-adv-x="1884" 
d="M115 799q0 168 65.5 321.5t176 264t264 176t321.5 65.5t321.5 -65.5t264 -176t176 -264t65.5 -321.5t-65.5 -321.5t-176 -264.5t-264 -176.5t-321.5 -65.5t-321.5 65.5t-264 176.5t-176 264.5t-65.5 321.5z" />
    <glyph glyph-name="uni25E2" unicode="&#x25e2;" horiz-adv-x="1904" 
d="M1876 129l-129 -131l-131 -129l-1604 694l262 264l1164 -520l-520 1163l264 263z" />
    <glyph glyph-name="uni25E3" unicode="&#x25e3;" horiz-adv-x="1904" 
d="M158 -2l-129 131l694 1604l264 -263l-520 -1163l1163 520l262 -264l-1603 -694z" />
    <glyph glyph-name="uni25E4" unicode="&#x25e4;" horiz-adv-x="1904" 
d="M29 1473l129 131l131 129l1603 -695l-262 -264l-1163 520l520 -1163l-264 -262z" />
    <glyph glyph-name="uni25E5" unicode="&#x25e5;" horiz-adv-x="1904" 
d="M1747 1604l129 -131l-694 -1604l-264 262l520 1163l-1164 -520l-262 264l1604 695z" />
    <glyph glyph-name="uni2605" unicode="&#x2605;" horiz-adv-x="1802" 
d="M901 369l-532 -389l202 628l-532 387h659l203 627l203 -627h659l-532 -387l203 -628z" />
    <glyph glyph-name="ballotboxwithx" unicode="&#x2612;" horiz-adv-x="1392" 
d="M143 1085h1086v-1085h-1086v1085zM897 754h-422v-422h422v422zM815 672v-258h-258v258h258z" />
    <glyph glyph-name="uni263C" unicode="&#x263c;" horiz-adv-x="1966" 
d="M1067 391l-86 -414l-86 414q0 -80 -59 -135q-17 -16 -61 -45.5t-61.5 -53.5t-17.5 -61q0 -19 6 -37t12 -26l7 -8q-45 13 -69.5 48t-24.5 79q0 61 43 104q41 41 62.5 97t21.5 98l-353 -232l232 352q-53 -53 -135 -53q-19 0 -64.5 8.5t-62.5 8.5q-31 0 -55 -10t-36 -24.5
t-19.5 -29.5t-8.5 -25l-2 -10q-17 31 -17 58q0 59 42.5 100t103.5 41q42 0 89.5 17.5t74.5 35t32 25.5l-413 86l413 86q-80 0 -135 59q-16 18 -37.5 48.5t-34 47t-35.5 30t-52 13.5q-19 0 -37 -6t-26 -12l-9 -6q13 45 48 69.5t79 24.5q61 0 104 -43q41 -41 97 -62.5
t98 -21.5l-232 352l353 -231q-54 54 -54 135q0 19 8.5 64.5t8.5 62.5q0 31 -10 55t-24.5 36t-29 19.5t-24.5 8.5l-10 2q29 16 57 16q59 0 100 -42t41 -103q0 -42 17.5 -89.5t35 -75t25.5 -32.5l86 414l86 -414q0 80 59 135q17 16 61 45.5t61.5 53.5t17.5 61q0 19 -6 37
t-12 26l-7 9q45 -13 69.5 -48t24.5 -79q0 -62 -43 -105q-41 -41 -62.5 -96.5t-21.5 -97.5l353 231l-232 -352q53 53 135 53q19 0 64.5 -8t62.5 -8q31 0 55 10t36 24.5t19.5 29t8.5 24.5l2 10q17 -31 17 -57q0 -59 -42.5 -100t-103.5 -41q-42 0 -89.5 -17.5t-74.5 -35
t-32 -25.5l413 -86l-413 -86q79 0 135 -60q16 -18 37.5 -48.5t34 -47t35.5 -30t52 -13.5q19 0 37 6t26 12l9 7q-13 -45 -48.5 -70t-78.5 -25q-61 0 -104 43q-41 41 -97 62.5t-98 21.5l232 -352l-353 232q54 -54 54 -136q0 -19 -8.5 -64.5t-8.5 -62.5q0 -31 10 -55
t24.5 -35.5t29 -19t24.5 -8.5l10 -2q-31 -17 -57 -17q-59 0 -100 42.5t-41 103.5q0 42 -17.5 89.5t-35 74.5t-25.5 32z" />
    <glyph glyph-name="uni263E" unicode="&#x263e;" horiz-adv-x="1966" 
d="M1278 1491q-181 0 -333.5 -92.5t-241.5 -252t-89 -347.5q0 -141 52.5 -269.5t141.5 -221t212 -147.5t258 -55q99 0 197 31q-218 -157 -492 -157q-167 0 -318.5 65t-261 174.5t-174.5 261t-65 318.5t65 318.5t174.5 261t261 174.5t318.5 65q268 0 492 -158
q-109 31 -197 31z" />
    <glyph glyph-name="spade" unicode="&#x2660;" horiz-adv-x="1843" 
d="M924 1618q66 -99 199 -238t278 -233q60 -39 104 -73t90.5 -79t75.5 -90t47.5 -102t18.5 -119q0 -150 -105 -253t-256 -103q-142 0 -246 93.5t-163 235.5l-6 -2q17 -210 54 -356.5t113 -298.5h-413q76 152 113.5 299t54.5 356l-6 2q-27 -67 -65.5 -124t-89 -104
t-116.5 -74t-139 -27q-151 0 -256 103t-105 253q0 62 18.5 119t47.5 102t75.5 90t90.5 79t104 73q146 95 279 233.5t199 237.5h4z" />
    <glyph glyph-name="club" unicode="&#x2663;" horiz-adv-x="1843" 
d="M715 0q76 152 113.5 299t54.5 356l-6 2q-27 -67 -65.5 -124t-89 -104t-116.5 -74t-139 -27q-151 0 -256 103t-105 253q0 161 99 265t258 104q84 0 172 -47l4 4q-78 118 -78 239q0 154 103.5 261.5t257.5 107.5t257 -107.5t103 -261.5q0 -121 -78 -239l4 -4q88 47 172 47
q159 0 258 -104t99 -265q0 -150 -105 -253t-256 -103q-142 0 -246 93.5t-163 235.5l-6 -2q17 -210 54 -356.5t113 -298.5h-413z" />
    <glyph glyph-name="heart" unicode="&#x2665;" horiz-adv-x="1843" 
d="M924 -20h-4q-59 88 -193.5 259t-284.5 341q-64 73 -114 136.5t-105 148.5t-86 170t-31 161q0 185 107 303.5t285 118.5q92 0 163.5 -25.5t120.5 -73t80.5 -100.5t55.5 -123h8q24 70 55.5 123t80.5 100.5t120.5 73t163.5 25.5q178 0 284.5 -118.5t106.5 -303.5
q0 -76 -31 -161t-86 -170t-105 -148.5t-114 -136.5q-149 -169 -283.5 -340t-193.5 -260z" />
    <glyph glyph-name="diamond" unicode="&#x2666;" horiz-adv-x="1843" 
d="M1673 799q-218 -170 -415 -386t-334 -433h-4q-137 217 -334.5 433t-415.5 386q218 170 415.5 386t334.5 433h4q137 -217 334 -433t415 -386z" />
    <glyph glyph-name="uni267B" unicode="&#x267b;" horiz-adv-x="1966" 
d="M1767 545l2 -4l-196 -342q-41 -60 -60 -77q-44 -38 -120 -38h-117v-100l-232 278l232 277v-101h297q34 0 66.5 11t54.5 27t39.5 31.5t25.5 26.5zM381 250h-4l-197 344q-23 42 -31.5 65.5t-5.5 63t29 82.5l57 100l-86 49l357 64l121 -340l-84 49q-144 -246 -148 -256
q-27 -46 -29 -101.5t10 -87.5zM827 1595v2h396q37 -1 56 -3t46 -11t47 -29t39 -53l57 -100l88 49l-124 -340l-355 64l84 49l-147 256q-27 47 -74 76t-80 35zM410 1225l137 243q21 38 69 64q63 34 131.5 30.5t126.5 -33t80 -69.5l-237 -411zM913 84h-276q-43 0 -90 27
q-45 26 -76 70.5t-42.5 91.5t-9.5 91.5t19 73.5h475v-354zM1651 1079l141 -239q20 -36 20 -90q1 -99 -78 -178.5t-151 -79.5l-237 411z" />
    <glyph glyph-name="uni267C" unicode="&#x267c;" horiz-adv-x="1966" 
d="M598 1321l-106 -188l237 -138l184 320q-17 30 -62 52.5t-98 25.5t-102 -23q-37 -21 -53 -49zM807 1421v-2q4 0 11 -1.5t26.5 -7.5t36.5 -14.5t37.5 -26.5t33.5 -40l115 -199l-66 -38l275 -50l96 265l-67 -39l-45 78q-28 49 -60 62t-86 13h-307zM659 248h215v274h-368
q-13 -22 -15 -57t7.5 -71.5t33.5 -71t58 -54.5q36 -20 69 -20zM467 377h2q-5 10 -10.5 27.5t-5 63t21.5 81.5l115 199l65 -39l-94 264l-276 -49l67 -39l-45 -78q-20 -34 -22.5 -65t4 -48.5t24.5 -50.5zM1563 834l-109 186l-237 -137l184 -320q57 0 118 61.5t60 139.5
q0 42 -16 70zM1546 602l-2 2q-2 -3 -6.5 -8.5t-19.5 -20t-31.5 -25t-42 -19.5t-51.5 -9h-230v78l-180 -215l180 -215v78h90q57 0 85 21.5t55 66.5zM131 799q0 221 108.5 407.5t295 295t407.5 108.5t407.5 -108.5t295 -295t108.5 -407.5t-108.5 -407.5t-295 -295
t-407.5 -108.5t-407.5 108.5t-295 295t-108.5 407.5z" />
    <glyph glyph-name="uni267D" unicode="&#x267d;" horiz-adv-x="1966" 
d="M492 1133l106 188q16 28 53 49q49 26 102 23t98 -25.5t62 -52.5l-184 -320zM807 1419v2h307q54 0 86 -13t60 -62l45 -78l67 39l-96 -265l-275 50l66 38l-115 199q-21 36 -57 58.5t-62 26.5zM874 248h-215q-33 0 -69 20q-34 20 -58 54.5t-33.5 71t-7.5 71.5t15 57h368
v-274zM469 377h-2l-154 266q-18 33 -24.5 50.5t-4 48.5t22.5 65l45 78l-67 39l276 49l94 -264l-65 39l-115 -199q-21 -36 -22.5 -79t7.5 -68zM1454 1020l109 -186q16 -28 16 -70q1 -78 -60 -139.5t-118 -61.5l-184 320zM1544 604l2 -2l-153 -266q-18 -30 -31 -46t-41 -29
t-68 -13h-90v-78l-180 215l180 215v-78h230q42 0 79.5 20.5t54.5 41.5zM123 799q0 167 65 318.5t174.5 261t261 174.5t318.5 65t318.5 -65t261 -174.5t174.5 -261t65 -318.5t-65 -318.5t-174.5 -261t-261 -174.5t-318.5 -65t-318.5 65t-261 174.5t-174.5 261t-65 318.5z
M201 799q0 -202 99 -372.5t269.5 -270t372.5 -99.5t372.5 99.5t269.5 270t99 372.5q0 151 -58.5 288.5t-157.5 236.5t-236.5 157.5t-288.5 58.5t-288.5 -58.5t-236.5 -157.5t-157.5 -236.5t-58.5 -288.5z" />
    <glyph glyph-name="mediumwhitecircle" unicode="&#x26aa;" horiz-adv-x="1372" 
d="M115 543q0 155 76.5 286.5t208 208t286.5 76.5t286.5 -76.5t208 -208t76.5 -286.5q0 -116 -45.5 -222t-121.5 -182.5t-182 -122t-222 -45.5t-222 45.5t-182 122t-121.5 182.5t-45.5 222zM446 543q0 -100 70 -170t170 -70t170 70t70 170t-70 169.5t-170 69.5t-170 -69.5
t-70 -169.5z" />
    <glyph glyph-name="mediumblackcircle" unicode="&#x26ab;" horiz-adv-x="1372" 
d="M115 543q0 155 76.5 286.5t208 208t286.5 76.5t286.5 -76.5t208 -208t76.5 -286.5q0 -116 -45.5 -222t-121.5 -182.5t-182 -122t-222 -45.5t-222 45.5t-182 122t-121.5 182.5t-45.5 222z" />
    <glyph glyph-name="anglebracketleft" unicode="&#x3008;" horiz-adv-x="778" 
d="M879 1720l-461 -983l203 -983h-392l-202 983l460 983h392z" />
    <glyph glyph-name="anglebracketright" unicode="&#x3009;" horiz-adv-x="778" 
d="M-106 -246l458 983l-202 983h391l202 -983l-460 -983h-389z" />
    <glyph glyph-name="fi" unicode="&#xe38c;" horiz-adv-x="1433" 
d="M629 1198l-17 -113h219l-43 -327h-219l-98 -758h-377l99 758h-164l43 327h164l20 154q58 428 492 428q126 0 178 -29l-41 -307q-30 12 -92 12q-73 0 -113.5 -30t-50.5 -115zM858 0l141 1085h377l-141 -1085h-377zM1450 1597l-51 -389h-389l51 389h389z" />
    <glyph glyph-name="fi" unicode="&#xfb01;" horiz-adv-x="1433" 
d="M629 1198l-17 -113h219l-43 -327h-219l-98 -758h-377l99 758h-164l43 327h164l20 154q58 428 492 428q126 0 178 -29l-41 -307q-30 12 -92 12q-73 0 -113.5 -30t-50.5 -115zM858 0l141 1085h377l-141 -1085h-377zM1450 1597l-51 -389h-389l51 389h389z" />
    <glyph glyph-name="fl" unicode="&#xe38d;" horiz-adv-x="1433" 
d="M629 1198l-17 -113h219l-43 -327h-219l-98 -758h-377l99 758h-164l43 327h164l20 154q58 428 492 428q126 0 178 -29l-41 -307q-30 12 -92 12q-73 0 -113.5 -30t-50.5 -115zM858 0l215 1638h377l-215 -1638h-377z" />
    <glyph glyph-name="fl" unicode="&#xfb02;" horiz-adv-x="1433" 
d="M629 1198l-17 -113h219l-43 -327h-219l-98 -758h-377l99 758h-164l43 327h164l20 154q58 428 492 428q126 0 178 -29l-41 -307q-30 12 -92 12q-73 0 -113.5 -30t-50.5 -115zM858 0l215 1638h377l-215 -1638h-377z" />
    <glyph glyph-name="invertedbreve" unicode="&#xe411;" horiz-adv-x="1024" 
d="M625 1626q89 0 156 -20.5t107.5 -57.5t63.5 -89t25 -115.5t-8 -135.5h-267q5 41 -2 68.5t-24.5 41.5t-38.5 19.5t-49 5.5q-135 0 -152 -135h-266q22 194 131 306t324 112z" />
    <glyph glyph-name="doublegrave" unicode="&#xe412;" horiz-adv-x="1024" 
d="M74 1597h332l135 -389h-291zM483 1597h332l76 -389h-291z" />
    <glyph glyph-name="caronSlovak" unicode="&#xe413;" horiz-adv-x="1024" 
d="M729 1638h215l-108 -430h-164z" />
    <glyph glyph-name="commaaccent" unicode="&#xe414;" horiz-adv-x="1232" 
d="M563 -82l-16 -123q-18 -144 -104.5 -205t-258.5 -61l17 123q140 0 188 61h-180l27 205h327z" />
    <glyph glyph-name="commaaccent" unicode="&#xf6c3;" horiz-adv-x="1232" 
d="M563 -82l-16 -123q-18 -144 -104.5 -205t-258.5 -61l17 123q140 0 188 61h-180l27 205h327z" />
    <glyph glyph-name="dotbelow" unicode="&#xe415;" horiz-adv-x="1232" 
d="M563 -82l-43 -328h-327l43 328h327z" />
    <glyph glyph-name="altcedilla" unicode="&#xe416;" horiz-adv-x="1232" 
d="M444 -238q3 22 -17.5 33.5t-66.5 11.5q-26 0 -57.5 -5t-38.5 -9l15 111q73 20 145 20q106 0 165 -45t48 -135q-25 -186 -281 -186q-73 0 -132 16t-89 37l76 141q51 -35 137 -35q93 0 96 45z" />
    <glyph glyph-name="grave.cap" unicode="&#xe421;" horiz-adv-x="1024" 
d="M350 1946h395l78 -226h-372z" />
    <glyph glyph-name="acute.cap" unicode="&#xe422;" horiz-adv-x="1024" 
d="M590 1946h395l-162 -226h-372z" />
    <glyph glyph-name="circumflex.cap" unicode="&#xe423;" horiz-adv-x="1024" 
d="M514 1720h-338l297 226h389l236 -226h-338l-113 80z" />
    <glyph glyph-name="tilde.cap" unicode="&#xe424;" horiz-adv-x="1024" 
d="M872 1946h195q-19 -136 -91 -197t-169 -61q-57 0 -115.5 23.5t-106 47t-77.5 23.5q-68 0 -76 -62h-194q19 136 91 197t169 61q57 0 115.5 -23.5t106 -47t77.5 -23.5q67 0 75 62z" />
    <glyph glyph-name="macron.cap" unicode="&#xe425;" horiz-adv-x="1024" 
d="M309 1720l31 226h655l-30 -226h-656z" />
    <glyph glyph-name="breve.cap" unicode="&#xe426;" horiz-adv-x="1024" 
d="M633 1688q-118 0 -197 20.5t-116 58t-48 80.5t-4 99h256q-5 -31 27.5 -46.5t107.5 -15.5q143 0 152 62h256q-6 -44 -20.5 -79.5t-46 -70t-78 -57.5t-120.5 -37t-169 -14z" />
    <glyph glyph-name="invertedbreve.cap" unicode="&#xe427;" horiz-adv-x="1024" 
d="M672 1978q118 0 197 -20.5t115.5 -58t47.5 -80.5t4 -99h-256q5 31 -27.5 46.5t-107.5 15.5q-142 0 -151 -62h-256q6 44 20.5 79.5t46 70t78 57.5t120.5 37t169 14z" />
    <glyph glyph-name="dotaccent.cap" unicode="&#xe428;" horiz-adv-x="1024" 
d="M821 1946l-30 -226h-308l31 226h307z" />
    <glyph glyph-name="dieresis.cap" unicode="&#xe429;" horiz-adv-x="1024" 
d="M637 1946l-31 -226h-307l31 226h307zM1006 1946l-31 -226h-307l30 226h308z" />
    <glyph glyph-name="ring.cap" unicode="&#xe42a;" horiz-adv-x="1024" 
d="M616 1528q-87 0 -143.5 55.5t-56.5 140.5q0 106 74 178t178 72q87 0 143.5 -55.5t56.5 -140.5q0 -106 -74 -178t-178 -72zM655 1851q-48 0 -81 -30.5t-33 -79.5q0 -40 25 -65t63 -25q48 0 81 30.5t33 79.5q0 40 -25 65t-63 25z" />
    <glyph glyph-name="hungarumlaut.cap" unicode="&#xe42b;" horiz-adv-x="1024" 
d="M406 1946h354l-142 -226h-331zM795 1946h354l-162 -226h-332z" />
    <glyph glyph-name="doublegrave.cap" unicode="&#xe42c;" horiz-adv-x="1024" 
d="M575 1946h355l57 -226h-332zM186 1946h355l77 -226h-331z" />
    <glyph glyph-name="caron.cap" unicode="&#xe42d;" horiz-adv-x="1024" 
d="M207 1946h338l110 -82l136 82h337l-297 -226h-389z" />
    <glyph glyph-name="commaaccent.cap" unicode="&#xe42e;" horiz-adv-x="1024" 
d="M483 1720l6 41q29 226 336 226l-10 -82q-66 0 -107.5 -13t-66.5 -49h166l-16 -123h-308z" />
    <glyph glyph-name="exclamdown.cap" unicode="&#xe441;" horiz-adv-x="573" 
d="M422 0h-471l248 1106h266zM150 1208l51 389h389l-51 -389h-389z" />
    <glyph glyph-name="questiondown.cap" unicode="&#xe444;" horiz-adv-x="1044" 
d="M451 303q62 0 97 54.5t44 174.5h381l-4 -38q-28 -267 -157.5 -395t-381.5 -128q-129 0 -221.5 29.5t-141.5 81.5t-70.5 112t-21.5 132q0 83 21.5 151.5t57.5 117.5t80 92.5t92 86t90 87.5t77 108t51 137h267q-4 -112 -42 -212t-88.5 -169t-100 -127t-84 -110.5
t-34.5 -94.5q0 -41 22 -65.5t67 -24.5zM395 1208l51 389h390l-52 -389h-389z" />
    <glyph glyph-name="guilsinglleft.cap" unicode="&#xe451;" horiz-adv-x="655" 
d="M621 1280l-43 -328l-220 -153l179 -154l-43 -328l-412 297l49 369z" />
    <glyph glyph-name="guilsinglright.cap" unicode="&#xe452;" horiz-adv-x="655" 
d="M127 952l43 328l412 -297l-50 -369l-489 -297l43 328l219 154z" />
    <glyph glyph-name="guillemotleft.cap" unicode="&#xe453;" horiz-adv-x="1187" 
d="M621 1280l-43 -328l-220 -153l179 -154l-43 -328l-412 297l49 369zM1153 1280l-43 -328l-219 -153l178 -154l-43 -328l-412 297l50 369z" />
    <glyph glyph-name="guillemotright.cap" unicode="&#xe454;" horiz-adv-x="1187" 
d="M659 952l43 328l412 -297l-49 -369l-490 -297l43 328l220 154zM127 952l43 328l412 -297l-50 -369l-489 -297l43 328l219 154z" />
    <glyph glyph-name="slash.cap" unicode="&#xe461;" horiz-adv-x="819" 
d="M297 0h-369l602 1597h369z" />
    <glyph glyph-name="backslash.cap" unicode="&#xe462;" horiz-adv-x="819" 
d="M137 1597h369l184 -1597h-368z" />
    <glyph glyph-name="bar.cap" unicode="&#xe463;" horiz-adv-x="573" 
d="M2 0l209 1597h369l-209 -1597h-369z" />
    <glyph glyph-name="doublebar.cap" unicode="&#xe464;" horiz-adv-x="1024" 
d="M2 0l209 1597h369l-209 -1597h-369zM453 0l209 1597h368l-209 -1597h-368z" />
    <glyph glyph-name="brokenbar.cap" unicode="&#xe465;" horiz-adv-x="573" 
d="M111 840l100 757h369l-101 -757h-368zM2 0l98 758h369l-98 -758h-369z" />
    <glyph glyph-name="bullet.cap" unicode="&#xe466;" horiz-adv-x="942" 
d="M868 1147l-92 -696h-696l92 696h696z" />
    <glyph glyph-name="onethirdemdash" unicode="&#xe471;" horiz-adv-x="681" 
d="M571 553h-518l43 328h518z" />
    <glyph glyph-name="threequarteremdash" unicode="&#xe472;" horiz-adv-x="1536" 
d="M53 553l43 328h1372l-43 -328h-1372z" />
    <glyph glyph-name="periodcentered.cap" unicode="&#xe481;" horiz-adv-x="573" 
d="M510 993l-51 -389h-389l51 389h389z" />
    <glyph glyph-name="hyphen.cap" unicode="&#xe482;" horiz-adv-x="655" 
d="M63 635l43 328h574l-43 -328h-574z" />
    <glyph glyph-name="onethirdemdash.cap" unicode="&#xe483;" horiz-adv-x="681" 
d="M582 635h-519l43 328h519z" />
    <glyph glyph-name="endash.cap" unicode="&#xe484;" horiz-adv-x="1024" 
d="M63 635l43 328h861l-43 -328h-861z" />
    <glyph glyph-name="threequarteremdash.cap" unicode="&#xe485;" horiz-adv-x="1536" 
d="M63 635l43 328h1373l-43 -328h-1373z" />
    <glyph glyph-name="emdash.cap" unicode="&#xe486;" horiz-adv-x="2048" 
d="M63 635l43 328h1885l-43 -328h-1885z" />
    <glyph glyph-name="figuredash.cap" unicode="&#xe487;" horiz-adv-x="1228" 
d="M63 635l43 328h1065l-43 -328h-1065z" />
    <glyph glyph-name="uni2015.cap" unicode="&#xe488;" horiz-adv-x="2457" 
d="M63 635l43 328h2294l-43 -328h-2294z" />
    <glyph glyph-name="parenleft.cap" unicode="&#xe491;" horiz-adv-x="778" 
d="M82 768l6 59q26 250 121 448.5t229 321.5h387q-130 -138 -232.5 -343.5t-125.5 -426.5l-6 -59q-22 -214 27.5 -416.5t127.5 -351.5h-387q-81 130 -126 334t-21 434z" />
    <glyph glyph-name="parenright.cap" unicode="&#xe492;" horiz-adv-x="778" 
d="M705 829l-7 -59q-26 -250 -121 -448.5t-229 -321.5h-387q130 138 232.5 343.5t125.5 426.5l7 59q22 214 -27.5 416t-128.5 352h387q81 -130 126.5 -334t21.5 -434z" />
    <glyph glyph-name="bracketleft.cap" unicode="&#xe493;" horiz-adv-x="778" 
d="M221 1597h604l-43 -327h-227l-123 -942h227l-43 -328h-604z" />
    <glyph glyph-name="bracketright.cap" unicode="&#xe494;" horiz-adv-x="778" 
d="M565 0h-604l43 328h227l123 942h-227l43 327h604z" />
    <glyph glyph-name="braceleft.cap" unicode="&#xe495;" horiz-adv-x="778" 
d="M825 1597l-43 -327q-75 0 -115.5 -39.5t-50.5 -124.5l-8 -62q-23 -174 -159 -245q117 -74 94 -246l-11 -78q-7 -76 24 -111.5t103 -35.5l-43 -328h-61q-226 0 -332 91t-78 298l11 82q10 85 -20 124.5t-105 39.5l43 328q75 0 116.5 39.5t51.5 123.5l10 82
q28 207 157.5 298t354.5 91h61z" />
    <glyph glyph-name="braceright.cap" unicode="&#xe496;" horiz-adv-x="778" 
d="M127 1270l43 327h61q226 0 332 -91t78 -298l-10 -82q-11 -85 18.5 -124t104.5 -39l-43 -328q-75 0 -115.5 -39.5t-50.5 -124.5l-10 -82q-28 -207 -157.5 -298t-354.5 -91h-62l43 328q71 0 111 35.5t53 111.5l10 78q23 171 158 246q-115 71 -92 245l8 62q10 85 -20 124.5
t-105 39.5z" />
    <glyph glyph-name="anglebracketleft.cap" unicode="&#xe497;" horiz-adv-x="778" 
d="M821 1597l-385 -798l176 -799h-391l-176 799l385 798h391z" />
    <glyph glyph-name="anglebracketright.cap" unicode="&#xe498;" horiz-adv-x="778" 
d="M350 799l-176 798h391l176 -798l-385 -799h-391z" />
    <glyph glyph-name="lowline" unicode="&#xe511;" horiz-adv-x="655" 
d="M-18 0l43 328h491l-43 -328h-491z" />
    <glyph glyph-name="underscoremonospace" unicode="&#xe512;" horiz-adv-x="1228" 
d="M-74 -410l43 328h1065l-43 -328h-1065z" />
    <glyph glyph-name="underscoremonospace" unicode="&#xff3f;" horiz-adv-x="1228" 
d="M-74 -410l43 328h1065l-43 -328h-1065z" />
    <glyph glyph-name="at.cap" unicode="&#xe513;" horiz-adv-x="2048" 
d="M954 8h13q189 0 374.5 58.5t333.5 169.5l115 -189q-362 -280 -829 -280q-229 0 -410.5 65t-303.5 188t-174.5 312t-23.5 426l10 82q24 190 92 350.5t170.5 277.5t234.5 199.5t284.5 123t318.5 40.5q161 0 299 -27t255 -88.5t194.5 -153.5t111.5 -229t11 -307l-9 -61
q-19 -144 -62.5 -255t-102 -182.5t-137 -117t-162.5 -64t-183 -18.5h-252l-6 112q-114 -141 -287 -141q-180 0 -263.5 128.5t-53.5 344.5l10 74q30 219 140 346t288 127q185 0 262 -143l37 114h297l-55 -274l-59 -447q169 10 240.5 95.5t99.5 300.5l8 61q7 70 7 129
t-15 108.5t-34 90t-50.5 72.5t-65 56.5t-76.5 42.5t-85.5 30.5t-92.5 20t-97.5 10.5t-99.5 3h-12q-165 0 -308 -46.5t-257.5 -137t-190 -235t-98.5 -330.5l-10 -82q-23 -187 13 -331t124.5 -235t220 -137.5t301.5 -46.5zM971 588q85 0 145 76l39 290q-13 27 -50 51.5
t-87 24.5q-67 0 -103.5 -46t-48.5 -138l-10 -74q-13 -96 15.5 -140t99.5 -44z" />
    <glyph glyph-name="five.OP" unicode="&#xe540;" 
d="M190 1470h234v-155h156v-234h-156v-155h-234v155h-155v234h155v155z" />
    <glyph glyph-name="six.OP" unicode="&#xe551;" 
d="M35 1081v234h545v-234h-545z" />
    <glyph glyph-name="seven.OP" unicode="&#xe552;" 
d="M35 1237v233h545v-233h-545zM35 926v233h545v-233h-545z" />
    <glyph glyph-name="zero.inf" unicode="&#xe571;" 
d="M563 575l-47 -354q-14 -106 -92 -172.5t-205 -66.5q-130 0 -206 68t-62 171l47 354q14 108 92 174t205 66q130 0 206 -68t62 -172zM256 229l43 338q3 21 -15 23q-19 2 -25 -18l-1 -5l-43 -338q-3 -21 15 -23q19 -2 25 18q1 2 1 5z" />
    <glyph glyph-name="one.inf" unicode="&#xe572;" 
d="M485 0h-542l30 231h138l30 242l-59 -37l-107 191l269 168h211l-74 -564h135z" />
    <glyph glyph-name="two.inf" unicode="&#xe573;" 
d="M512 231l-31 -231h-553l23 170l305 307q23 23 25 43l8 62q1 8 -6 12t-14.5 0.5t-8.5 -12.5l-6 -50h-256l2 21q13 137 84.5 199.5t210.5 62.5q67 0 117.5 -16.5t78.5 -41t45 -57t21.5 -61t1.5 -55.5l-4 -37q-7 -59 -33 -101t-82 -98l-116 -117h188z" />
    <glyph glyph-name="three.inf" unicode="&#xe574;" 
d="M225 256l-4 -39q-1 -9 6 -12t14.5 0t8.5 12l4 39q3 35 -27 35h-86l29 217h82q28 0 31 24l6 50q1 8 -6 12t-14.5 0.5t-8.5 -12.5l-6 -50h-256l2 21q13 136 85.5 199t209.5 63q67 0 117.5 -15.5t78.5 -38.5t44.5 -53.5t21 -57t2.5 -52.5l-2 -27q-9 -114 -108 -161
q77 -55 69 -164l-2 -27q-3 -35 -17.5 -71.5t-45.5 -76t-91 -64.5t-141 -25q-146 0 -214 65t-54 191l2 18h270z" />
    <glyph glyph-name="four.inf" unicode="&#xe575;" 
d="M459 0h-271l17 129h-273l25 190l350 480h256l-57 -437h33l-31 -233h-33zM190 358h46l14 82z" />
    <glyph glyph-name="five.inf" unicode="&#xe576;" 
d="M-45 256h270l-4 -39q-1 -9 6 -12t14.5 0t8.5 12l6 55q3 27 -27 27h-2q-13 0 -26 -8l-224 82l72 426h531l-31 -234h-307l-9 -53q20 20 95 20q212 0 192 -258l-2 -26q-21 -266 -297 -266q-146 0 -214 65t-54 191z" />
    <glyph glyph-name="six.inf" unicode="&#xe577;" 
d="M547 815l-31 -237q-144 0 -203 -41q-32 -22 -47 -60q38 27 88 27q91 0 133 -63.5t31 -174.5l-2 -20q-12 -120 -83 -192t-216 -72q-139 0 -210.5 75t-51.5 224l4 30q29 229 156 367q124 137 432 137zM238 281q-6 0 -15 -9l-6 -55q-1 -9 6 -12t14.5 0t8.5 12l4 41
q2 23 -12 23z" />
    <glyph glyph-name="seven.inf" unicode="&#xe578;" 
d="M-25 512l37 287h586l-23 -168l-327 -631h-297l360 567l-94 -2l-6 -53h-236z" />
    <glyph glyph-name="eight.inf" unicode="&#xe579;" 
d="M221 -18q-65 0 -115.5 17t-79.5 43t-47.5 59t-24 62.5t-3.5 55.5l2 27q4 62 36 106t79 64q-72 50 -64 155l2 27q2 27 9.5 53t28 57t50.5 53.5t82 38t119 15.5t117.5 -15.5t78.5 -38.5t44.5 -53.5t21 -57t2.5 -52.5l-2 -27q-4 -56 -32 -94t-76 -67q77 -55 69 -164l-2 -27
q-3 -35 -17.5 -71.5t-45.5 -76t-91 -64.5t-141 -25zM256 276q1 8 -6 12t-14.5 0.5t-8.5 -12.5l-6 -59q-1 -9 6 -12t14.5 0t8.5 12zM289 582q1 8 -6 12t-14.5 0.5t-8.5 -12.5l-6 -60q-1 -8 6 -12t14.5 0t8.5 12z" />
    <glyph glyph-name="nine.inf" unicode="&#xe57a;" 
d="M-39 -18l31 237q148 0 207 41q33 23 47 59q-36 -26 -88 -26q-91 0 -133 63t-31 174l2 21q12 120 83 192t216 72q139 0 210.5 -75t51.5 -224l-4 -31q-29 -228 -156 -366q-124 -137 -436 -137zM274 516q7 0 15 8l6 56q1 9 -6 12.5t-14.5 -0.5t-8.5 -12l-4 -41
q-2 -23 12 -23z" />
    <glyph glyph-name="plus.inf" unicode="&#xe57b;" 
d="M176 672h234l-21 -156h156l-31 -233h-156l-20 -156h-234l21 156h-156l31 233h156z" />
    <glyph glyph-name="minus.inf" unicode="&#xe57c;" 
d="M-31 283l31 233h545l-31 -233h-545z" />
    <glyph glyph-name="equal.inf" unicode="&#xe57d;" 
d="M-10 438l30 234h545l-30 -234h-545zM-51 127l31 233h544l-30 -233h-545z" />
    <glyph glyph-name="parenleft.inf" unicode="&#xe57e;" horiz-adv-x="409" 
d="M-43 375l2 26q11 140 62.5 241.5t113.5 156.5h271q-61 -58 -116 -167.5t-65 -230.5l-2 -26q-8 -115 17 -213t65 -162h-260q-37 54 -66.5 158.5t-21.5 216.5z" />
    <glyph glyph-name="parenright.inf" unicode="&#xe57f;" horiz-adv-x="409" 
d="M348 424l-2 -27q-11 -140 -62.5 -241t-113.5 -156h-270q61 58 115.5 167t64.5 230l2 27q8 115 -17 213t-65 162h260q37 -54 66.5 -158.5t21.5 -216.5z" />
    <glyph glyph-name="Anocross" unicode="&#xe731;" horiz-adv-x="1331" 
d="M508 1597h532l172 -1597h-415l-82 1147l-379 -1147h-418z" />
    <glyph glyph-name="idotaccent" unicode="&#xe785;" horiz-adv-x="573" 
d="M-2 0l141 1085h377l-141 -1085h-377zM590 1597l-51 -389h-389l51 389h389z" />
    <glyph glyph-name="interrobangdown" unicode="&#xe935;" horiz-adv-x="1044" 
d="M-82 -102q0 81 21.5 147.5t57 113t79 86t90.5 76t88.5 74t75 88.5t47.5 111h190l-75 -678q74 53 86 207h340l-5 -33q-33 -272 -157.5 -400t-386.5 -128q-99 0 -177.5 18.5t-129 50t-84 75t-47 91t-13.5 101.5zM328 696l51 389h389l-51 -389h-389zM397 213
q-28 -39 -43 -64.5t-29 -69.5t-14 -91q0 -62 39 -82z" />
    <glyph glyph-name="interrobangdown.cap" unicode="&#xe99b;" horiz-adv-x="1044" 
d="M444 1106h179l-88 -789q41 21 64.5 70t33.5 145h340l-4 -36q-30 -267 -159.5 -396t-377.5 -129q-457 0 -457 357q0 80 21 147.5t56.5 116t79 92t91 87t90 89t78 109t53.5 137.5zM395 1208l51 389h390l-52 -389h-389zM391 317l45 289q-3 -4 -19 -28.5t-22 -34t-18.5 -32
t-17.5 -37t-10 -35t-5 -38.5q0 -57 47 -84z" />
    <glyph glyph-name="registered.cap" unicode="&#xe99c;" horiz-adv-x="1884" 
d="M115 799q0 168 65.5 321.5t176 264t264 176t321.5 65.5t321.5 -65.5t264 -176t176 -264t65.5 -321.5t-65.5 -321.5t-176 -264.5t-264 -176.5t-321.5 -65.5t-321.5 65.5t-264 176.5t-176 264.5t-65.5 321.5zM238 799q0 -143 55.5 -273.5t150 -225t225 -150.5t273.5 -56
q191 0 353.5 94.5t257 257t94.5 353.5q0 143 -56 273.5t-150.5 225t-225 150t-273.5 55.5t-273.5 -55.5t-225 -150t-150 -225t-55.5 -273.5zM838 606v-289h-336v963h536q53 0 99.5 -8t93 -30.5t79.5 -57.5t53.5 -94t20.5 -136v-22q0 -201 -135 -279l135 -336h-354l-86 289
h-106zM838 850h120q89 0 89 88v10q0 88 -89 88h-120v-186z" />
    <glyph glyph-name="period.T" unicode="&#xf182;" 
d="M453 389l-52 -389h-389l51 389h390z" />
    <glyph glyph-name="comma.T" unicode="&#xf183;" 
d="M453 389l-41 -307q-26 -192 -137.5 -290.5t-303.5 -98.5l25 184q152 0 209 123h-193l51 389h390z" />
    <glyph glyph-name="colon.T" unicode="&#xf184;" 
d="M453 389l-52 -389h-389l51 389h390zM530 993l-51 -389h-389l51 389h389z" />
    <glyph glyph-name="semicolon.T" unicode="&#xf185;" 
d="M453 389l-41 -307q-26 -192 -137.5 -290.5t-303.5 -98.5l25 184q152 0 209 123h-193l51 389h390zM530 993l-51 -389h-389l51 389h389z" />
    <glyph glyph-name="onesixteenth" unicode="&#xf215;" horiz-adv-x="2252" 
d="M592 799h-543l31 231h137l31 242l-60 -37l-106 190l268 168h211l-74 -563h136zM281 0h-308l1389 1597h307zM1509 0h-542l30 231h138l30 242l-59 -37l-107 191l269 168h211l-74 -564h135zM2185 815l-31 -237q-143 0 -202 -41q-32 -22 -47 -60q37 27 88 27q91 0 133 -63.5
t31 -174.5l-3 -20q-12 -120 -83 -192t-216 -72q-139 0 -210.5 75t-51.5 224l4 30q29 229 156 367q124 137 432 137zM1876 281q-5 0 -14 -9l-7 -55q-1 -9 6 -12.5t14.5 0.5t8.5 12l4 41q2 23 -12 23z" />
    <glyph glyph-name="threesixteenths" unicode="&#xf216;" horiz-adv-x="2252" 
d="M332 1055l-4 -39q-1 -8 5.5 -12t14 0t8.5 12l4 39q3 35 -26 35h-86l28 217h82q28 0 31 24l6 49q1 8 -5.5 12t-14 0t-8.5 -12l-7 -49h-256l2 21q13 136 85.5 199t209.5 63q67 0 117.5 -15.5t78.5 -38.5t45 -53.5t21.5 -57t2.5 -52.5l-2 -27q-9 -114 -109 -162
q78 -56 70 -164l-2 -26q-2 -27 -10.5 -55.5t-30 -62.5t-53 -59.5t-84 -43t-117.5 -17.5q-146 0 -214.5 65t-54.5 191l2 19h271zM281 0h-308l1389 1597h307zM1509 0h-542l30 231h138l30 242l-59 -37l-107 191l269 168h211l-74 -564h135zM2185 815l-31 -237q-143 0 -202 -41
q-32 -22 -47 -60q37 27 88 27q91 0 133 -63.5t31 -174.5l-3 -20q-12 -120 -83 -192t-216 -72q-139 0 -210.5 75t-51.5 224l4 30q29 229 156 367q124 137 432 137zM1876 281q-5 0 -14 -9l-7 -55q-1 -9 6 -12.5t14.5 0.5t8.5 12l4 41q2 23 -12 23z" />
    <glyph glyph-name="fivesixteenths" unicode="&#xf217;" horiz-adv-x="2252" 
d="M61 1055h271l-4 -39q-1 -8 5.5 -12t14 0t8.5 12l6 55q3 27 -26 27h-2q-14 0 -27 -8l-223 81l72 426h530l-31 -233h-307l-8 -53q20 20 94 20q213 0 193 -258l-2 -26q-21 -267 -297 -267q-146 0 -214.5 65t-54.5 191zM281 0h-308l1389 1597h307zM1509 0h-542l30 231h138
l30 242l-59 -37l-107 191l269 168h211l-74 -564h135zM2185 815l-31 -237q-143 0 -202 -41q-32 -22 -47 -60q37 27 88 27q91 0 133 -63.5t31 -174.5l-3 -20q-12 -120 -83 -192t-216 -72q-139 0 -210.5 75t-51.5 224l4 30q29 229 156 367q124 137 432 137zM1876 281
q-5 0 -14 -9l-7 -55q-1 -9 6 -12.5t14.5 0.5t8.5 12l4 41q2 23 -12 23z" />
    <glyph glyph-name="sevensixteenths" unicode="&#xf218;" horiz-adv-x="2252" 
d="M82 1311l37 286h586l-23 -167l-328 -631h-297l361 567l-94 -2l-7 -53h-235zM281 0h-308l1389 1597h307zM1509 0h-542l30 231h138l30 242l-59 -37l-107 191l269 168h211l-74 -564h135zM2185 815l-31 -237q-143 0 -202 -41q-32 -22 -47 -60q37 27 88 27q91 0 133 -63.5
t31 -174.5l-3 -20q-12 -120 -83 -192t-216 -72q-139 0 -210.5 75t-51.5 224l4 30q29 229 156 367q124 137 432 137zM1876 281q-5 0 -14 -9l-7 -55q-1 -9 6 -12.5t14.5 0.5t8.5 12l4 41q2 23 -12 23z" />
    <glyph glyph-name="ninesixteenths" unicode="&#xf219;" horiz-adv-x="2252" 
d="M68 780l30 238q148 0 207 41q33 23 47 59q-36 -26 -88 -26q-91 0 -133 63t-31 174l2 21q12 120 83 192t216 72q139 0 211 -75t52 -224l-5 -31q-29 -229 -155 -366q-125 -138 -436 -138zM381 1315q6 0 14 8l6 55q1 8 -5.5 12t-14 0t-8.5 -12l-4 -41q-2 -22 12 -22zM281 0
h-308l1389 1597h307zM1509 0h-542l30 231h138l30 242l-59 -37l-107 191l269 168h211l-74 -564h135zM2185 815l-31 -237q-143 0 -202 -41q-32 -22 -47 -60q37 27 88 27q91 0 133 -63.5t31 -174.5l-3 -20q-12 -120 -83 -192t-216 -72q-139 0 -210.5 75t-51.5 224l4 30
q29 229 156 367q124 137 432 137zM1876 281q-5 0 -14 -9l-7 -55q-1 -9 6 -12.5t14.5 0.5t8.5 12l4 41q2 23 -12 23z" />
    <glyph glyph-name="elevensixteenths" unicode="&#xf220;" horiz-adv-x="2867" 
d="M592 799h-543l31 231h137l31 242l-60 -37l-106 190l268 168h211l-74 -563h136zM1206 799h-542l30 231h137l31 242l-59 -37l-107 190l269 168h211l-74 -563h135zM895 0h-307l1388 1597h308zM2124 0h-543l31 231h137l31 242l-60 -37l-106 191l268 168h211l-74 -564h135z
M2800 815l-31 -237q-144 0 -203 -41q-32 -22 -47 -60q37 27 88 27q91 0 133 -63.5t31 -174.5l-2 -20q-12 -120 -83 -192t-216 -72q-139 0 -210.5 75t-51.5 224l4 30q29 230 155 367q124 137 433 137zM2490 281q-5 0 -14 -9l-6 -55q-1 -8 6 -11.5t14.5 -0.5t8.5 12l4 41
q2 23 -13 23z" />
    <glyph glyph-name="thirteensixteenths" unicode="&#xf221;" horiz-adv-x="2867" 
d="M592 799h-543l31 231h137l31 242l-60 -37l-106 190l268 168h211l-74 -563h136zM946 1055l-4 -39q-1 -8 6 -12t14.5 0t8.5 12l4 39q3 35 -27 35h-86l29 217h82q28 0 31 24l6 49q1 8 -6 12t-14.5 0t-8.5 -12l-6 -49h-256l2 21q13 136 85.5 199t209.5 63q67 0 117.5 -15.5
t78.5 -38.5t44.5 -53.5t21 -57t2.5 -52.5l-2 -27q-9 -114 -109 -162q78 -56 70 -164l-2 -26q-2 -27 -10.5 -55.5t-30 -62.5t-53 -59.5t-84 -43t-117.5 -17.5q-146 0 -214 65t-54 191l2 19h270zM895 0h-307l1388 1597h308zM2124 0h-543l31 231h137l31 242l-60 -37l-106 191
l268 168h211l-74 -564h135zM2800 815l-31 -237q-144 0 -203 -41q-32 -22 -47 -60q37 27 88 27q91 0 133 -63.5t31 -174.5l-2 -20q-12 -120 -83 -192t-216 -72q-139 0 -210.5 75t-51.5 224l4 30q29 230 155 367q124 137 433 137zM2490 281q-5 0 -14 -9l-6 -55q-1 -8 6 -11.5
t14.5 -0.5t8.5 12l4 41q2 23 -13 23z" />
    <glyph glyph-name="fifteensixteenths" unicode="&#xf222;" horiz-adv-x="2867" 
d="M592 799h-543l31 231h137l31 242l-60 -37l-106 190l268 168h211l-74 -563h136zM676 1055h270l-4 -39q-1 -8 6 -12t14.5 0t8.5 12l6 55q3 27 -27 27h-2q-13 0 -26 -8l-224 81l72 426h530l-30 -233h-307l-9 -53q20 20 95 20q212 0 192 -258l-2 -26q-21 -267 -297 -267
q-146 0 -214 65t-54 191zM895 0h-307l1388 1597h308zM2124 0h-543l31 231h137l31 242l-60 -37l-106 191l268 168h211l-74 -564h135zM2800 815l-31 -237q-144 0 -203 -41q-32 -22 -47 -60q37 27 88 27q91 0 133 -63.5t31 -174.5l-2 -20q-12 -120 -83 -192t-216 -72
q-139 0 -210.5 75t-51.5 224l4 30q29 230 155 367q124 137 433 137zM2490 281q-5 0 -14 -9l-6 -55q-1 -8 6 -11.5t14.5 -0.5t8.5 12l4 41q2 23 -13 23z" />
    </font>
</defs>
</svg>
