<?xml version="1.0" standalone="no"?>
<!DOCTYPE svg PUBLIC "-//W3C//DTD SVG 1.1//EN" "http://www.w3.org/Graphics/SVG/1.1/DTD/svg11.dtd" >
<svg xmlns="http://www.w3.org/2000/svg" xmlns:xlink="http://www.w3.org/1999/xlink" version="1.1">
<metadata>
Created by FontForge 20170731 at Thu Jan 27 16:36:06 2022
 By Aleksey,,,
Copyright (c) 2014, Cooper Hewitt Smithsonian Design Museum (cooperhewitt.org)
</metadata>
<defs>
<font id="CooperHewitt-SemiboldItalic" horiz-adv-x="614" >
  <font-face 
    font-family="Cooper Hewitt"
    font-weight="710"
    font-style="italic"
    font-stretch="normal"
    units-per-em="2048"
    panose-1="0 0 0 0 0 0 0 0 0 0"
    ascent="1536"
    descent="-512"
    x-height="1085"
    cap-height="1597"
    bbox="-588 -457 2796 1978"
    underline-thickness="40"
    underline-position="-224"
    unicode-range="U+0020-F222"
  />
<missing-glyph horiz-adv-x="1974" 
d="M188 0v1597h1598v-1597h-1598zM987 707l-571 -572h1143zM416 1462l571 -571l572 571h-1143zM895 799l-563 563v-1126zM1079 799l563 -563v1126z" />
    <glyph glyph-name=".notdef" horiz-adv-x="1974" 
d="M188 0v1597h1598v-1597h-1598zM987 707l-571 -572h1143zM416 1462l571 -571l572 571h-1143zM895 799l-563 563v-1126zM1079 799l563 -563v1126z" />
    <glyph glyph-name=".null" horiz-adv-x="0" 
 />
    <glyph glyph-name="nonmarkingreturn" horiz-adv-x="682" 
 />
    <glyph glyph-name="space" unicode=" " horiz-adv-x="409" 
 />
    <glyph glyph-name="exclam" unicode="!" horiz-adv-x="512" 
d="M199 1597h331l-225 -1155h-184zM340 289l-39 -289h-291l39 289h291z" />
    <glyph glyph-name="quotedbl" unicode="&#x22;" horiz-adv-x="845" 
d="M219 1597h266l-100 -626h-205zM578 1597h264l-125 -626h-203z" />
    <glyph glyph-name="numbersign" unicode="#" horiz-adv-x="1228" 
d="M176 942l31 234h190l140 421h237l-139 -421h209l139 421h238l-140 -421h148l-31 -234h-192l-93 -287h148l-31 -233h-192l-138 -422h-237l137 422h-209l-137 -422h-238l138 422h-146l31 233h190l93 287h-146zM559 942l-92 -287h209l92 287h-209z" />
    <glyph glyph-name="dollar" unicode="$" horiz-adv-x="1228" 
d="M1065 1720l-102 -278q226 -105 192 -414l-2 -18h-266q15 114 -21 174l-104 -285q181 -42 267 -140.5t67 -234.5l-6 -45q-51 -373 -527 -373q-58 0 -94 5l-86 -234h-209l102 281q-229 104 -198 387l2 18h268q-18 -94 23 -153l112 307q-189 51 -265.5 142.5t-57.5 223.5
l6 45q24 177 159.5 272t348.5 95q50 0 96 -6l86 231h209zM821 522q0 56 -33.5 90.5t-111.5 59.5l-127 -344h33q239 0 239 194zM428 1081q0 -52 32 -86t107 -57l123 334h-35q-102 0 -164.5 -50t-62.5 -141z" />
    <glyph glyph-name="percent" unicode="%" horiz-adv-x="1972" 
d="M1458 -27q-84 0 -150 22.5t-107 59.5t-65.5 87.5t-31.5 104t0 111.5l2 17q21 163 131 270t270 107q105 0 181 -33.5t115 -90t53.5 -122.5t5.5 -139l-2 -17q-21 -163 -131.5 -270t-270.5 -107zM473 1053h12q76 0 126.5 46t60.5 128l2 16q8 73 -29.5 123.5t-118.5 50.5h-12
q-76 0 -126 -46t-60 -128l-2 -16q-8 -73 29 -123.5t118 -50.5zM1456 180h12q76 0 126.5 46t60.5 128l2 17q8 73 -29.5 123.5t-118.5 50.5h-12q-76 0 -126 -46t-60 -128l-2 -17q-8 -73 29 -123.5t118 -50.5zM475 846q-84 0 -150 22.5t-107 59.5t-65.5 87.5t-31.5 104t0 111.5
l2 16q21 163 131 270t270 107q84 0 183 -31q54 -18 88.5 -27.5t99.5 -18.5t139 -9q118 0 260.5 22.5t198.5 43.5l-18 -144l-803 -1460h-238l737 1341q-80 -20 -180 -20q-66 0 -110 8q3 -51 -2 -90l-2 -16q-21 -163 -131.5 -270t-270.5 -107z" />
    <glyph glyph-name="ampersand" unicode="&#x26;" horiz-adv-x="1394" 
d="M461 -27q-236 0 -356 123t-97 332l2 18q32 276 291 426q-65 94 -92 179t-14 198l2 19q19 157 130.5 256.5t311.5 99.5q220 0 319.5 -101t81.5 -261l-2 -19q-7 -60 -30 -112t-53 -90.5t-81 -79.5t-94.5 -69t-113.5 -69l260 -352q85 141 110 324l2 14h281
q-35 -309 -244 -543l197 -266h-328l-72 98q-164 -125 -411 -125zM487 207h11q67 0 132 19.5t109 52.5l-303 411q-130 -71 -151 -231l-2 -17q-12 -105 40.5 -170t163.5 -65zM465 1260l-2 -19q-14 -125 67 -235q63 36 94.5 56t68 50.5t53.5 61.5t22 69l2 17q8 62 -24 97.5
t-101 35.5h-20q-69 0 -111.5 -36.5t-48.5 -96.5z" />
    <glyph glyph-name="quotesingle" unicode="'" horiz-adv-x="512" 
d="M219 1597h291l-125 -626h-205z" />
    <glyph glyph-name="parenleft" unicode="(" horiz-adv-x="716" 
d="M80 715l6 45q24 177 67.5 326t103.5 264.5t119 199.5t136 170h297q-181 -202 -297.5 -429.5t-157.5 -530.5l-6 -45q-20 -125 -13 -249t24 -224t50 -195.5t65 -163.5t69 -129h-279q-120 183 -173 415.5t-11 545.5z" />
    <glyph glyph-name="parenright" unicode=")" horiz-adv-x="716" 
d="M629 760l-6 -45q-20 -143 -53.5 -269.5t-72.5 -222t-91 -184.5t-100 -153.5t-109 -131.5h-297q86 96 153 190.5t130 212t106.5 258.5t64.5 300l6 45q12 112 13.5 209t-12.5 192t-33.5 173t-48 152t-55.5 129t-58 105h278q45 -68 79.5 -139t64.5 -162t43 -188t15.5 -218.5
t-17.5 -252.5z" />
    <glyph glyph-name="asterisk" unicode="*" horiz-adv-x="829" 
d="M451 1638h157l-47 -280h-137zM80 1288l72 152l251 -97l-61 -131zM260 872l-117 95l203 221l103 -82zM854 1440l31 -152l-283 -76l-24 131zM739 967l-141 -95l-127 234l123 82z" />
    <glyph glyph-name="plus" unicode="+" horiz-adv-x="1228" 
d="M565 1323h242l-53 -403h403l-33 -242h-401l-55 -404h-242l53 404h-403l33 242h401z" />
    <glyph glyph-name="comma" unicode="," horiz-adv-x="512" 
d="M340 289l-31 -228q-46 -337 -358 -337l18 139q144 0 189 137h-148l39 289h291z" />
    <glyph glyph-name="hyphen" unicode="-" horiz-adv-x="706" 
d="M59 600l31 234h543l-31 -234h-543z" />
    <glyph glyph-name="period" unicode="." horiz-adv-x="512" 
d="M340 289l-39 -289h-291l39 289h291z" />
    <glyph glyph-name="slash" unicode="/" horiz-adv-x="794" 
d="M889 1720l-727 -1966h-262l727 1966h262z" />
    <glyph glyph-name="zero" unicode="0" horiz-adv-x="1228" 
d="M1176 1143l-91 -688q-30 -235 -161 -358.5t-383 -123.5q-261 0 -385 133t-95 349l91 688q30 235 160.5 358t383.5 123q261 0 385 -132.5t95 -348.5zM422 1141l-90 -686q-31 -242 209 -242h12q122 0 183.5 57t78.5 187l90 686q31 241 -209 241h-12q-122 0 -183.5 -56.5
t-78.5 -186.5z" />
    <glyph glyph-name="one" unicode="1" horiz-adv-x="1228" 
d="M1042 0h-1015l30 240h373l133 1015l-313 -194l-111 201l545 340h195l-179 -1362h373z" />
    <glyph glyph-name="two" unicode="2" horiz-adv-x="1228" 
d="M565 240h498l-31 -240h-1036l22 170l730 696q74 70 111.5 130t47.5 137l2 16q14 117 -45.5 176t-169.5 59h-16q-117 0 -184.5 -76t-87.5 -243h-271l6 45q33 252 166 383t389 131q133 0 235.5 -38.5t159.5 -102.5t81 -142.5t12 -164.5l-6 -46q-17 -118 -68 -202t-162 -189
l-530 -501z" />
    <glyph glyph-name="three" unicode="3" horiz-adv-x="1228" 
d="M322 512q-19 -155 41.5 -227t181.5 -72h16q103 0 176.5 60.5t87.5 179.5l2 16q13 113 -41 170t-165 57h-222l33 238h213q237 0 262 199l2 16q14 117 -44 176t-167 59h-16q-120 0 -188 -76t-88 -243h-271l6 45q33 251 168 382.5t391 131.5q134 0 235 -37t157.5 -100.5
t80 -142.5t11.5 -168l-6 -46q-17 -122 -92.5 -207t-184.5 -110q112 -36 165 -129.5t34 -230.5l-6 -45q-12 -85 -51.5 -161t-106 -138.5t-168.5 -99t-227 -36.5q-270 0 -397 132t-99 358l6 49h271z" />
    <glyph glyph-name="four" unicode="4" horiz-adv-x="1228" 
d="M866 0h-270l49 373h-639l25 192l788 1032h256l-129 -987h203l-33 -237h-201zM750 1139l-406 -531l131 2h201l51 389z" />
    <glyph glyph-name="five" unicode="5" horiz-adv-x="1228" 
d="M51 512h271q-19 -155 41.5 -227t181.5 -72h16q106 0 180.5 69t92.5 210l2 16q18 141 -48 212t-184 71h-16q-84 0 -157.5 -37.5t-117.5 -112.5l-221 78l154 878h985l-31 -239h-758l-73 -424q106 96 286 96q113 0 204.5 -35t152.5 -99.5t87.5 -160.5t10.5 -213l-6 -45
q-33 -240 -177.5 -372t-385.5 -132q-270 0 -397 132t-99 358z" />
    <glyph glyph-name="six" unicode="6" horiz-adv-x="1228" 
d="M1180 1624l-31 -244q-178 -7 -317.5 -55t-253.5 -162q-117 -120 -168 -274q114 117 297 117q206 0 322 -129.5t85 -362.5l-6 -45q-32 -241 -177.5 -368.5t-387.5 -127.5q-271 0 -396 166.5t-86 452.5l7 45q56 405 317 684q158 168 348 234t447 69zM625 768h-11
q-79 0 -150 -40t-122 -114q-16 -66 -16 -135q0 -137 60.5 -201.5t162.5 -64.5h12q112 0 187 72t90 198l2 17q17 128 -43.5 198t-171.5 70z" />
    <glyph glyph-name="seven" unicode="7" horiz-adv-x="1228" 
d="M121 1024l76 573h1060l-20 -161l-770 -1436h-291l746 1362l-207 -4h-309l-46 -334h-239z" />
    <glyph glyph-name="eight" unicode="8" horiz-adv-x="1228" 
d="M524 -27q-131 0 -231.5 36.5t-158 99t-82 142t-11.5 169.5l6 45q18 130 90 221t195 127q-89 31 -144.5 128.5t-37.5 225.5l6 45q9 67 32 125t66.5 111.5t104 92t148.5 61t195 22.5t193.5 -24.5t144 -66.5t93.5 -99.5t48 -122.5t3 -135l-6 -46q-17 -123 -90.5 -207
t-186.5 -110q111 -35 164.5 -134.5t34.5 -236.5l-6 -45q-12 -84 -53 -159t-110 -135t-174 -95t-233 -35zM614 696h-30q-106 0 -179.5 -61t-87.5 -178l-2 -17q-13 -109 52 -168t176 -59h20q102 0 175 61t87 179l2 16q13 104 -45.5 165.5t-167.5 61.5zM698 1384h-16
q-112 0 -179.5 -55t-80.5 -162l-2 -16q-13 -103 46 -160t159 -57h28q229 0 254 199l2 16q14 117 -44 176t-167 59z" />
    <glyph glyph-name="nine" unicode="9" horiz-adv-x="1228" 
d="M55 -27l31 244q178 7 317.5 55t253.5 162q117 120 168 275q-114 -117 -297 -117q-100 0 -181 32.5t-137.5 93.5t-80.5 156t-8 213l6 46q32 240 177 365.5t388 125.5q271 0 396 -166t86 -452l-7 -45q-56 -406 -317 -685q-158 -168 -348 -234t-447 -69zM610 829h11
q79 0 150 40t122 114q16 66 16 135q0 137 -60.5 201.5t-162.5 64.5h-12q-112 0 -187 -72t-90 -198l-2 -16q-17 -128 43.5 -198.5t171.5 -70.5z" />
    <glyph glyph-name="colon" unicode=":" horiz-adv-x="512" 
d="M340 289l-39 -289h-291l39 289h291zM424 942l-39 -289h-291l39 289h291z" />
    <glyph glyph-name="semicolon" unicode=";" horiz-adv-x="512" 
d="M424 942l-39 -289h-291l39 289h291zM340 289l-31 -228q-46 -337 -358 -337l18 139q144 0 189 137h-148l39 289h291z" />
    <glyph glyph-name="less" unicode="&#x3c;" horiz-adv-x="1228" 
d="M109 930l1105 440l-36 -274l-801 -305l721 -306l-33 -258l-991 441z" />
    <glyph glyph-name="equal" unicode="=" horiz-adv-x="1228" 
d="M104 895l33 242h1049l-33 -242h-1049zM47 461l33 241h1048l-32 -241h-1049z" />
    <glyph glyph-name="greater" unicode="&#x3e;" horiz-adv-x="1228" 
d="M1122 668l-1106 -441l37 275l801 305l-721 305l33 258l991 -440z" />
    <glyph glyph-name="question" unicode="?" horiz-adv-x="991" 
d="M594 1386q-107 0 -163.5 -81.5t-78.5 -253.5h-268l4 30q18 132 51 227.5t90.5 169t147.5 110t213 36.5q420 0 420 -377q0 -76 -23.5 -144t-62.5 -120.5t-86 -102t-96 -98t-91 -98t-72.5 -112t-39.5 -130.5h-185q0 84 28 167.5t70.5 147.5t92 130t92 118t70.5 109t28 105
q0 84 -31 125.5t-110 41.5zM573 289l-38 -289h-291l39 289h290z" />
    <glyph glyph-name="at" unicode="@" horiz-adv-x="2009" 
d="M901 -254h21q185 0 375 61.5t321 163.5l92 -147q-352 -260 -807 -260q-167 0 -312 42t-259 126.5t-190 202.5t-106 278t-5 346l10 78q31 233 128.5 420.5t242.5 311t329.5 189.5t391.5 66q156 0 289.5 -29.5t243.5 -94t183 -158.5t103 -230t8 -303l-10 -78
q-19 -144 -63 -252t-103 -175t-139 -108.5t-163 -57t-184 -15.5h-165l-5 129q-38 -64 -122 -110t-177 -46q-82 0 -146 25t-104 69.5t-65 106t-28 134t6 153.5l6 45q14 103 48.5 189t88.5 152.5t134.5 104t178.5 37.5q194 0 273 -166l39 139h208l-53 -286l-65 -498
q87 0 150.5 18.5t118 65.5t89.5 132.5t51 213.5l10 78q18 141 -8 252t-84 181.5t-146.5 116.5t-185.5 64.5t-210 18.5h-21q-234 0 -419 -90t-307.5 -273t-156.5 -442l-10 -78q-26 -197 13 -353t132 -256t228.5 -152t306.5 -52zM1130 426l48 356q-23 45 -75 82t-122 37
q-197 0 -236 -270l-6 -45q-18 -125 25 -202t147 -77q70 0 127 36t92 83z" />
    <glyph glyph-name="A" unicode="A" horiz-adv-x="1292" 
d="M567 1606h379l209 -1606h-289l-43 365h-450l-135 -365h-301zM721 1292l-266 -688h350z" />
    <glyph glyph-name="B" unicode="B" horiz-adv-x="1263" 
d="M233 1597h510q100 0 181.5 -24t144 -73.5t90.5 -134t12 -196.5l-6 -45q-15 -114 -79.5 -190.5t-163.5 -108.5q105 -24 161 -116.5t39 -225.5l-6 -47q-16 -120 -66.5 -207.5t-127 -136t-163.5 -70.5t-190 -22h-544zM668 698h-279l-59 -458h245q239 0 265 213l2 16
q30 229 -174 229zM709 1358h-232l-55 -420h244q88 0 149 47.5t74 153.5l2 16q24 203 -182 203z" />
    <glyph glyph-name="C" unicode="C" horiz-adv-x="1310" 
d="M377 836l-10 -78q-38 -285 12 -415t213 -130h20q82 0 138.5 21.5t89.5 67.5t50 100.5t28 136.5h276l-2 -19q-31 -285 -172.5 -416t-425.5 -131q-320 0 -440.5 184t-65.5 601l10 78q55 412 215.5 600t448.5 188q294 0 416 -145t82 -437l-7 -45h-274q27 199 -21.5 293
t-193.5 94h-21q-163 0 -246 -132.5t-120 -415.5z" />
    <glyph glyph-name="D" unicode="D" horiz-adv-x="1341" 
d="M1260 840l-11 -78q-36 -276 -124.5 -443t-236.5 -243t-376 -76h-487l208 1597h449q233 0 370 -73.5t191 -241.5t17 -442zM330 240h182q214 0 318 119t141 403l10 78q36 272 -36 395t-273 123h-195z" />
    <glyph glyph-name="E" unicode="E" horiz-adv-x="1157" 
d="M233 1597h951l-31 -239h-676l-55 -424h571l-30 -238h-574l-59 -456h676l-31 -240h-950z" />
    <glyph glyph-name="F" unicode="F" horiz-adv-x="1101" 
d="M233 1597h936l-30 -239h-662l-55 -424h557l-31 -238h-559l-90 -696h-274z" />
    <glyph glyph-name="G" unicode="G" horiz-adv-x="1359" 
d="M635 -27q-326 0 -463.5 187.5t-83.5 597.5l10 78q55 410 220 599t454 189q588 0 508 -582l-6 -45h-275q27 197 -25.5 292t-199.5 95h-20q-164 0 -252.5 -134t-124.5 -414l-10 -78q-72 -545 266 -545h20q89 0 157 30.5t97 61.5l39 297h-231l30 238h506l-86 -660
q-31 -36 -74.5 -68.5t-107.5 -65.5t-154.5 -53t-193.5 -20z" />
    <glyph glyph-name="H" unicode="H" horiz-adv-x="1341" 
d="M1051 1597h274l-209 -1597h-274l90 696h-543l-90 -696h-274l208 1597h275l-86 -663h543z" />
    <glyph glyph-name="I" unicode="I" horiz-adv-x="544" 
d="M518 1597l-209 -1597h-274l209 1597h274z" />
    <glyph glyph-name="J" unicode="J" horiz-adv-x="1073" 
d="M793 1597h274l-145 -1108q-35 -259 -155 -387.5t-351 -128.5q-251 0 -344 132.5t-58 388.5l6 45h261q-30 -165 7 -245.5t128 -80.5q112 0 162.5 70t72.5 241z" />
    <glyph glyph-name="K" unicode="K" horiz-adv-x="1241" 
d="M508 1597l-92 -700l557 700h325l-540 -649l332 -948h-297l-232 713l-201 -242l-61 -471h-274l208 1597h275z" />
    <glyph glyph-name="L" unicode="L" horiz-adv-x="1046" 
d="M915 0h-890l208 1597h275l-178 -1357h616z" />
    <glyph glyph-name="M" unicode="M" horiz-adv-x="1738" 
d="M1389 1120l-490 -1120h-262l-193 1120l-36 -336l-103 -784h-280l208 1597h400l190 -1142l492 1142h407l-209 -1597h-280l102 784z" />
    <glyph glyph-name="N" unicode="N" horiz-adv-x="1382" 
d="M233 1597h285l447 -1101l34 338l99 763h268l-209 -1597h-285l-446 1102l-35 -338l-98 -764h-268z" />
    <glyph glyph-name="O" unicode="O" horiz-adv-x="1361" 
d="M1280 840l-10 -78q-55 -410 -220 -599.5t-454 -189.5q-214 0 -337 80t-165.5 252.5t-5.5 452.5l10 78q55 410 220 599t454 189q214 0 337 -79.5t165.5 -252t5.5 -452.5zM991 762l10 78q38 284 -13 414t-214 130h-20q-164 0 -252.5 -134t-124.5 -414l-10 -78
q-38 -284 13 -414.5t214 -130.5h20q164 0 252.5 134.5t124.5 414.5z" />
    <glyph glyph-name="P" unicode="P" horiz-adv-x="1224" 
d="M377 596l-78 -596h-274l208 1597h484q81 0 153 -13t142 -47t117 -86.5t69.5 -137.5t7.5 -193l-6 -45q-66 -479 -588 -479h-235zM408 836h239q122 0 190.5 57t86.5 197l2 16q5 52 2.5 91t-17.5 67t-34 46.5t-47 29t-56.5 14.5t-62.5 4h-234z" />
    <glyph glyph-name="Q" unicode="Q" horiz-adv-x="1361" 
d="M918 -205h-220l-45 180q-9 0 -28.5 -1t-28.5 -1q-214 0 -337 80t-165.5 252.5t-5.5 452.5l10 78q55 410 220 599t454 189q214 0 337 -79.5t165.5 -252t5.5 -452.5l-10 -78q-41 -307 -143 -489t-269 -253zM991 762l10 78q38 284 -13 414t-214 130h-20q-164 0 -252.5 -134
t-124.5 -414l-10 -78q-38 -284 13 -414.5t214 -130.5l-74 301h211l64 -246q145 112 196 494z" />
    <glyph glyph-name="R" unicode="R" horiz-adv-x="1251" 
d="M377 596l-78 -596h-274l208 1597h484q81 0 153 -13t142 -47t117 -86.5t69.5 -137.5t7.5 -193l-6 -45q-46 -335 -315 -436l174 -639h-297l-150 596h-235zM408 836h239q122 0 190.5 57t86.5 197l2 16q5 52 2.5 91t-17.5 67t-34 46.5t-47 29t-56.5 14.5t-62.5 4h-234z" />
    <glyph glyph-name="S" unicode="S" horiz-adv-x="1271" 
d="M575 698q-488 88 -436 461l6 45q27 202 179 311t391 109q581 0 508 -541l-6 -45h-275q26 179 -28.5 262.5t-196.5 83.5h-21q-115 0 -189.5 -53t-84.5 -145l-2 -17q-6 -50 2.5 -85.5t39 -67.5t91.5 -55.5t156 -40.5q253 -45 362.5 -164t83.5 -314l-6 -45
q-28 -206 -179.5 -315t-412.5 -109q-278 0 -414.5 132.5t-101.5 388.5l6 45h275q-28 -168 34.5 -247t198.5 -79h20q130 0 207.5 52t89.5 151l2 16q13 105 -52.5 169.5t-246.5 96.5z" />
    <glyph glyph-name="T" unicode="T" horiz-adv-x="1114" 
d="M772 1358l-178 -1358h-275l179 1358h-381l30 239h1037l-31 -239h-381z" />
    <glyph glyph-name="U" unicode="U" horiz-adv-x="1341" 
d="M588 -27q-300 0 -421 131.5t-87 397.5l143 1095h275l-142 -1077q-21 -162 30 -234.5t202 -72.5q154 0 232 69t98 224l143 1091h274l-145 -1112q-24 -181 -91 -292t-192 -165.5t-319 -54.5z" />
    <glyph glyph-name="V" unicode="V" horiz-adv-x="1292" 
d="M735 -8h-381l-209 1605h289l146 -1292l483 1292h301z" />
    <glyph glyph-name="W" unicode="W" horiz-adv-x="1892" 
d="M1108 -8l-92 1294l-432 -1294h-359l-63 1605h284l19 -1237l414 1237h352l88 -1237l346 1237h283l-486 -1605h-354z" />
    <glyph glyph-name="X" unicode="X" horiz-adv-x="1306" 
d="M-55 0l522 823l-313 774h311l221 -557l352 557h330l-526 -788l317 -809h-311l-225 592l-349 -592h-329z" />
    <glyph glyph-name="Y" unicode="Y" horiz-adv-x="1249" 
d="M725 487l-63 -487h-275l64 487l-318 1110h293l199 -772l403 772h305z" />
    <glyph glyph-name="Z" unicode="Z" horiz-adv-x="1202" 
d="M4 188l846 1176l-283 -6h-389l31 239h997l-24 -188l-846 -1176l282 7h431l-31 -240h-1038z" />
    <glyph glyph-name="bracketleft" unicode="[" horiz-adv-x="716" 
d="M250 1720h520l-31 -235h-254l-196 -1495h254l-31 -236h-520z" />
    <glyph glyph-name="backslash" unicode="\" horiz-adv-x="790" 
d="M369 -246l-213 1966h262l213 -1966h-262z" />
    <glyph glyph-name="bracketright" unicode="]" horiz-adv-x="716" 
d="M461 -246h-520l30 236h254l197 1495h-254l31 235h520z" />
    <glyph glyph-name="asciicircum" unicode="^" horiz-adv-x="1228" 
d="M854 1597l303 -1050h-260l-207 760l-403 -760h-273l578 1050h262z" />
    <glyph glyph-name="underscore" unicode="_" horiz-adv-x="655" 
d="M-57 -346l30 233h476l-31 -233h-475z" />
    <glyph glyph-name="grave" unicode="`" horiz-adv-x="1024" 
d="M276 1597h291l140 -366h-267z" />
    <glyph glyph-name="a" unicode="a" horiz-adv-x="1101" 
d="M674 0v125q-65 -75 -146 -113.5t-209 -38.5q-83 0 -147 26.5t-100.5 72.5t-52.5 104.5t-9 124.5l2 18q10 85 42.5 146.5t88.5 100t122.5 60.5t158.5 36l293 45l2 16q12 99 -23 140.5t-137 41.5q-182 0 -201 -178h-254l2 18q7 63 24 114.5t51.5 99.5t84 81t125 52.5
t172.5 19.5q243 0 343.5 -108.5t74.5 -303.5l-51 -393l-21 -307h-235zM412 193q87 0 151 35.5t101 82.5l28 211l-239 -37q-158 -23 -172 -141l-2 -18q-6 -55 28 -94t105 -39z" />
    <glyph glyph-name="b" unicode="b" horiz-adv-x="1153" 
d="M498 1638l-86 -649q49 51 124 87t169 36q200 0 290.5 -151.5t57.5 -397.5l-6 -45q-17 -121 -51.5 -217.5t-90 -171.5t-137.5 -115.5t-186 -40.5q-219 0 -308 168l-38 -141h-236l57 307l174 1331h267zM326 334q24 -51 72 -90t122 -39q110 0 175.5 81t86.5 230l6 45
q21 148 -26.5 234t-159.5 86q-125 0 -221 -121z" />
    <glyph glyph-name="c" unicode="c" horiz-adv-x="1075" 
d="M313 569l-6 -45q-21 -149 24.5 -234t151.5 -85q98 0 153 51.5t66 138.5h252l-2 -18q-10 -85 -42.5 -156.5t-88.5 -128t-144 -88t-200 -31.5q-121 0 -212.5 42.5t-144 117t-72.5 174t-5 215.5l6 45q76 545 520 545q227 0 339.5 -110.5t88.5 -284.5l-6 -45h-252
q10 96 -33 152.5t-143 56.5q-101 0 -164.5 -78.5t-85.5 -233.5z" />
    <glyph glyph-name="d" unicode="d" horiz-adv-x="1165" 
d="M399 -27q-200 0 -290.5 151.5t-57.5 397.5l6 45q17 121 51.5 217.5t90 171.5t137.5 115.5t186 40.5q191 0 287 -133l86 659h266l-176 -1331l-20 -307h-236v141q-54 -76 -142 -122t-188 -46zM584 881q-110 0 -175.5 -81.5t-86.5 -230.5l-7 -45q-21 -148 27 -233.5
t160 -85.5q125 0 221 121l55 426q-24 51 -72 90t-122 39z" />
    <glyph glyph-name="e" unicode="e" horiz-adv-x="1132" 
d="M1014 444h-719q-10 -130 48 -197t175 -67q106 0 165 49.5t67 118.5h251l-2 -18q-18 -158 -143.5 -257.5t-343.5 -99.5q-109 0 -195.5 28t-142 77.5t-91 118.5t-43 151t2.5 174l6 45q16 117 55.5 213.5t103.5 172t160.5 117.5t217.5 42q127 0 221 -41.5t147 -117
t72 -178.5t2 -228zM575 905q-102 0 -168 -68.5t-88 -195.5h455q14 123 -38 193.5t-161 70.5z" />
    <glyph glyph-name="f" unicode="f" horiz-adv-x="821" 
d="M545 1272l-25 -187h260l-30 -233h-261l-110 -852h-266l110 852h-166l31 233h166l29 222q13 100 49 170.5t93 111t126 58.5t158 18q52 0 99.5 -9.5t63.5 -17.5l-28 -221q-12 5 -48.5 11t-70.5 6q-78 0 -122.5 -34.5t-57.5 -127.5z" />
    <glyph glyph-name="g" unicode="g" horiz-adv-x="1153" 
d="M674 10l20 156q-49 -51 -124 -87t-169 -36q-128 0 -215.5 67.5t-122 183.5t-14.5 263l6 45q32 235 148.5 372.5t312.5 137.5q218 0 307 -168l39 141h236l-58 -307l-102 -784q-28 -216 -149 -323t-355 -107q-130 0 -224 32t-144 87.5t-68.5 123.5t-7.5 148l6 45h250
q-25 -217 188 -217q119 0 172 52.5t68 174.5zM725 395l47 357q-24 51 -72 90t-122 39q-220 0 -259 -277l-6 -45q-19 -134 30 -209.5t161 -75.5q125 0 221 121z" />
    <glyph glyph-name="h" unicode="h" horiz-adv-x="1153" 
d="M18 0l215 1638h267l-86 -651q122 125 319 125q119 0 195 -49.5t102.5 -133t11.5 -194.5l-96 -735h-266l92 700q11 84 -29 132.5t-129 48.5q-134 0 -231 -129l-98 -752h-267z" />
    <glyph glyph-name="i" unicode="i" horiz-adv-x="512" 
d="M23 0l141 1085h266l-141 -1085h-266zM506 1563l-39 -289h-291l39 289h291z" />
    <glyph glyph-name="j" unicode="j" horiz-adv-x="516" 
d="M16 -43l148 1128h266l-151 -1163q-13 -100 -49 -170.5t-93 -111t-126 -58.5t-158 -18q-52 0 -100 9t-64 17l28 222q12 -5 48.5 -11t70.5 -6q78 0 122.5 34.5t57.5 127.5zM506 1563l-39 -289h-291l39 289h291z" />
    <glyph glyph-name="k" unicode="k" horiz-adv-x="1112" 
d="M10 0l215 1638h267l-127 -962l413 409h332l-420 -405l279 -680h-303l-185 477l-164 -158l-41 -319h-266z" />
    <glyph glyph-name="l" unicode="l" horiz-adv-x="512" 
d="M23 0l215 1638h266l-215 -1638h-266z" />
    <glyph glyph-name="m" unicode="m" horiz-adv-x="1728" 
d="M1522 0h-267l95 717q11 81 -21 122.5t-119 41.5q-121 0 -206 -113l-101 -768h-266l94 717q11 81 -20.5 122.5t-118.5 41.5q-122 0 -207 -113l-100 -768h-267l103 778l20 307h236v-124q53 61 140 106t194 45q221 0 276 -160q60 67 146.5 113.5t195.5 46.5q90 0 153 -27
t95 -75t43.5 -114t-0.5 -144z" />
    <glyph glyph-name="n" unicode="n" horiz-adv-x="1153" 
d="M946 0h-266l92 700q11 84 -29 132.5t-129 48.5q-134 0 -231 -129l-98 -752h-267l103 778l20 307h236v-141q58 78 149 123t207 45q119 0 195 -49.5t102.5 -133t11.5 -194.5z" />
    <glyph glyph-name="o" unicode="o" horiz-adv-x="1132" 
d="M498 205q221 0 264 311l6 45q21 150 -26.5 235t-163.5 85q-222 0 -265 -312l-6 -45q-21 -150 27 -234.5t164 -84.5zM492 -27q-167 0 -277 74t-151.5 196.5t-20.5 278.5l6 45q76 545 535 545q126 0 220.5 -42.5t148.5 -117t74.5 -174t4.5 -215.5l-6 -45
q-76 -545 -534 -545z" />
    <glyph glyph-name="p" unicode="p" horiz-adv-x="1153" 
d="M705 1112q200 0 290.5 -151.5t57.5 -397.5l-6 -45q-17 -121 -51.5 -217.5t-90 -171.5t-137.5 -115.5t-186 -40.5q-191 0 -287 133l-68 -516h-266l158 1188l20 307h236v-141q54 76 142 122t188 46zM520 205q110 0 175.5 81t86.5 230l6 45q21 148 -26.5 234t-159.5 86
q-125 0 -221 -121l-55 -426q24 -51 72 -90t122 -39z" />
    <glyph glyph-name="q" unicode="q" horiz-adv-x="1163" 
d="M618 -410l68 506q-49 -51 -124 -87t-169 -36q-200 0 -290.5 151.5t-57.5 397.5l6 45q17 121 51.5 217.5t90 171.5t137.5 115.5t186 40.5q218 0 307 -168l39 141h236l-58 -307l-155 -1188h-267zM717 326l55 426q-24 51 -72 90t-122 39q-110 0 -176 -81.5t-87 -230.5
l-6 -45q-21 -148 27 -233.5t160 -85.5q125 0 221 121z" />
    <glyph glyph-name="r" unicode="r" horiz-adv-x="753" 
d="M696 1112l31 -2l-35 -270h-47q-89 0 -159.5 -34t-106.5 -81l-94 -725h-267l103 778l20 307h236v-137q48 73 134.5 118.5t184.5 45.5z" />
    <glyph glyph-name="s" unicode="s" horiz-adv-x="1077" 
d="M469 180q80 0 138.5 36.5t58.5 111.5q0 59 -45.5 88.5t-147.5 40.5q-217 24 -302.5 100t-70.5 223l2 19q17 149 145 231t316 82q236 0 334 -93t78 -269l-2 -19h-260q11 86 -26.5 130t-139.5 44q-74 0 -130.5 -35t-56.5 -106q0 -53 41 -79t148 -36q98 -10 168.5 -31.5
t123.5 -59.5t75.5 -99t13.5 -144l-2 -18q-15 -144 -142.5 -234t-332.5 -90q-239 0 -340.5 93.5t-83.5 255.5l2 18h264q-11 -74 31 -117t143 -43z" />
    <glyph glyph-name="t" unicode="t" horiz-adv-x="862" 
d="M520 1085h301l-30 -233h-302l-61 -467q-12 -101 30 -140.5t124 -39.5q69 0 106 16l-29 -221q-61 -27 -157 -27q-182 0 -276 90t-68 287l65 502h-166l31 233h166l41 308h266z" />
    <glyph glyph-name="u" unicode="u" horiz-adv-x="1153" 
d="M150 1085h266l-92 -700q-11 -84 28.5 -132t128.5 -48q135 0 232 129l98 751h266l-102 -778l-21 -307h-235v141q-58 -78 -149.5 -123t-207.5 -45q-119 0 -195 49.5t-102.5 133t-11.5 194.5z" />
    <glyph glyph-name="v" unicode="v" horiz-adv-x="1101" 
d="M266 0l-196 1085h274l129 -864l356 864h283l-477 -1085h-369z" />
    <glyph glyph-name="w" unicode="w" horiz-adv-x="1536" 
d="M774 819l-289 -819h-338l-59 1085h258l12 -798l289 798h324l80 -798l219 798h262l-344 -1085h-338z" />
    <glyph glyph-name="x" unicode="x" horiz-adv-x="1095" 
d="M80 1085h307l156 -360l245 360h310l-387 -534l245 -551h-301l-159 387l-254 -387h-303l387 563z" />
    <glyph glyph-name="y" unicode="y" horiz-adv-x="1085" 
d="M487 332l336 753h293l-522 -1044l-201 -451h-315l244 451l-259 1044h283z" />
    <glyph glyph-name="z" unicode="z" horiz-adv-x="1001" 
d="M-20 186l604 672l-234 -6h-264l31 233h846l-25 -186l-604 -672l233 6h305l-30 -233h-887z" />
    <glyph glyph-name="braceleft" unicode="{" horiz-adv-x="716" 
d="M770 1720l-31 -235q-86 0 -132.5 -43t-59.5 -144l-43 -331q-12 -94 -48 -148.5t-108 -81.5q117 -60 94 -229l-43 -332q-13 -108 21.5 -147t122.5 -39l-31 -236h-51q-112 0 -192 34t-122 112t-26 194l49 367q12 85 -23 121t-116 36l30 238q86 0 128.5 35.5t54.5 128.5
l47 352q46 348 428 348h51z" />
    <glyph glyph-name="bar" unicode="|" horiz-adv-x="497" 
d="M-16 -246l258 1966h262l-258 -1966h-262z" />
    <glyph glyph-name="braceright" unicode="}" horiz-adv-x="716" 
d="M-59 -246l30 236q86 0 133 42.5t60 143.5l43 332q12 94 47.5 148t107.5 81q-117 60 -94 230l43 331q13 108 -21 147.5t-122 39.5l31 235h51q112 0 192 -34t122 -112t26 -194l-49 -366q-12 -85 23 -121.5t116 -36.5l-31 -238q-86 0 -128 -35t-54 -128l-47 -353
q-46 -348 -428 -348h-51z" />
    <glyph glyph-name="asciitilde" unicode="~" horiz-adv-x="1228" 
d="M375 971q80 0 152.5 -22t117.5 -48t100 -48t103 -22q110 0 211 105l112 -131q-51 -72 -131.5 -128t-177.5 -56q-65 0 -124.5 14.5t-103 34.5t-82.5 40.5t-81 35t-82 14.5q-110 0 -211 -105l-112 131q52 72 132 128.5t177 56.5z" />
    <glyph glyph-name="nbspace" unicode="&#xa0;" horiz-adv-x="409" 
 />
    <glyph glyph-name="exclamdown" unicode="&#xa1;" horiz-adv-x="512" 
d="M266 -410h-332l213 1053h185zM113 797l39 288h290l-39 -288h-290z" />
    <glyph glyph-name="cent" unicode="&#xa2;" horiz-adv-x="1228" 
d="M1055 1720l-103 -274q122 -54 179 -164.5t34 -273.5l-6 -45h-260q17 159 -41 229l-313 -848q16 -2 49 -2q111 0 176.5 56t81.5 198h260l-2 -18q-11 -100 -51 -185.5t-105 -149.5t-159.5 -100.5t-206.5 -36.5q-68 0 -127 9l-88 -238h-209l112 303q-242 149 -180 608l6 46
q46 347 191.5 504t400.5 157q26 0 66 -4l86 229h209zM373 836l-6 -45q-29 -217 14 -324l293 793q-53 -1 -97 -21t-85 -66t-72 -131t-47 -206z" />
    <glyph glyph-name="sterling" unicode="&#xa3;" horiz-adv-x="1228" 
d="M748 1386q-115 0 -170.5 -84.5t-55.5 -230.5q0 -68 15 -192h374l-30 -236h-312q27 -234 15 -405h479l-31 -238h-1036l31 238h321q2 173 -47 405h-221l31 236h149q-10 82 -10 153q0 94 15.5 177t52.5 160.5t92.5 133t142 88.5t195.5 33q501 0 428 -541l-9 -59h-268
q50 362 -151 362z" />
    <glyph glyph-name="yen" unicode="&#xa5;" horiz-adv-x="1228" 
d="M84 750l31 233h200l-186 614h301l195 -755l391 755h301l-348 -614h202l-30 -233h-305l-101 -179h381l-31 -233h-389l-45 -338h-274l43 338h-391l30 233h381l-53 179h-303z" />
    <glyph glyph-name="brokenbar" unicode="&#xa6;" horiz-adv-x="497" 
d="M-16 -246l120 928h263l-121 -928h-262zM504 1720l-121 -927h-262l121 927h262z" />
    <glyph glyph-name="section" unicode="&#xa7;" horiz-adv-x="1101" 
d="M266 1055q-79 79 -63 215l2 18q10 84 50 149.5t102 105.5t138.5 60.5t163.5 20.5q247 0 344.5 -92t77.5 -270l-2 -19h-260q11 85 -29 129.5t-147 44.5q-78 0 -127 -39.5t-49 -97.5q0 -68 43.5 -97.5t151.5 -41.5q216 -24 301.5 -102.5t70.5 -225.5l-2 -18
q-20 -169 -190 -252q79 -79 63 -215l-2 -19q-10 -84 -50 -149.5t-102 -105.5t-138.5 -60.5t-163.5 -20.5q-247 0 -344.5 92t-77.5 271l2 18h260q-11 -85 29 -129.5t147 -44.5q78 0 127 39.5t49 97.5q0 68 -43.5 98t-151.5 42q-216 24 -301.5 102t-70.5 225l2 19
q20 169 190 252zM575 954h-18q-105 0 -161 -48.5t-56 -125.5q0 -137 192 -137h19q105 0 161 48.5t56 125.5q0 137 -193 137z" />
    <glyph glyph-name="dieresis" unicode="&#xa8;" horiz-adv-x="1024" 
d="M557 1563l-39 -289h-291l39 289h291zM967 1563l-39 -289h-291l39 289h291z" />
    <glyph glyph-name="copyright" unicode="&#xa9;" horiz-adv-x="1884" 
d="M117 799q0 168 65.5 320.5t176 263t263 176t320.5 65.5t320.5 -65.5t263 -176t176 -263t65.5 -320.5t-65.5 -320.5t-176 -263.5t-263 -176.5t-320.5 -65.5t-320.5 65.5t-263 176.5t-176 263.5t-65.5 320.5zM223 799q0 -146 57 -279.5t153 -229.5t229.5 -153t279.5 -57
t279.5 57t229.5 153t153 229.5t57 279.5t-57 279.5t-153 229.5t-229.5 153t-279.5 57t-279.5 -57t-229.5 -153t-153 -229.5t-57 -279.5zM948 504q90 0 133 44.5t43 110.5h230v-36q0 -139 -105 -235.5t-307 -96.5q-113 0 -199 38t-137 104.5t-76.5 150.5t-25.5 184v61
q0 100 25.5 184t76.5 151t137 105t199 38q203 0 307.5 -100t104.5 -249v-38h-230q0 78 -43.5 126t-132.5 48q-104 0 -152 -73t-48 -192v-61q0 -118 48 -191t152 -73z" />
    <glyph glyph-name="ordfeminine" unicode="&#xaa;" horiz-adv-x="851" 
d="M588 793v94q-113 -113 -260 -113q-128 0 -185.5 67.5t-46.5 172.5l2 18q7 64 33 111t70.5 76.5t95 46.5t119.5 28l205 31q15 121 -109 121q-63 0 -89.5 -30t-33.5 -81h-221l2 19q6 56 26.5 101.5t58.5 85t103.5 61.5t153.5 22q197 0 278 -77.5t60 -231.5l-39 -293
l-14 -229h-209zM739 391h-702l26 203h703zM410 963q98 0 172 79l18 136l-147 -23q-52 -7 -82 -34t-35 -64l-2 -19q-3 -35 16.5 -55t59.5 -20z" />
    <glyph glyph-name="guillemotleft" unicode="&#xab;" horiz-adv-x="1126" 
d="M586 1128l-33 -249l-277 -193l226 -192l-31 -230l-395 305l33 254zM1073 1128l-33 -249l-276 -193l225 -192l-31 -230l-395 305l33 254z" />
    <glyph glyph-name="logicalnot" unicode="&#xac;" horiz-adv-x="1228" 
d="M109 926l32 241h1049l-100 -757h-242l67 516h-806z" />
    <glyph glyph-name="uni00AD" unicode="&#xad;" horiz-adv-x="706" 
d="M59 600l31 234h543l-31 -234h-543z" />
    <glyph glyph-name="registered" unicode="&#xae;" horiz-adv-x="675" 
d="M35 1362q0 124 89.5 213.5t213.5 89.5t213.5 -89.5t89.5 -213.5t-89.5 -213.5t-213.5 -89.5t-213.5 89.5t-89.5 213.5zM84 1362q0 -104 75 -179t179 -75t179 75t75 179t-75 179t-179 75t-179 -75t-75 -179zM487 1413q0 -75 -59 -102l59 -125h-104l-47 114h-47v-114h-101
v352h177q53 0 87.5 -27t34.5 -86v-12zM387 1421q0 41 -45 41h-53v-86h53q45 0 45 41v4z" />
    <glyph glyph-name="macron" unicode="&#xaf;" horiz-adv-x="1024" 
d="M297 1296l31 236h569l-31 -236h-569z" />
    <glyph glyph-name="degree" unicode="&#xb0;" horiz-adv-x="819" 
d="M504 1624q155 0 237.5 -89t65.5 -230l-2 -17q-18 -147 -116 -233t-234 -86q-155 0 -237.5 89t-65.5 230l2 17q18 147 116 233t234 86zM506 1454h-12q-66 0 -114.5 -39t-57.5 -110l-3 -17q-8 -68 28 -108.5t106 -40.5h12q66 0 114.5 39t57.5 110l2 17q8 68 -27.5 108.5
t-105.5 40.5z" />
    <glyph glyph-name="plusminus" unicode="&#xb1;" horiz-adv-x="1228" 
d="M569 1362h244l-33 -240h404l-33 -241h-401l-33 -240h-244l33 240h-404l33 241h402zM25 295l32 242h1049l-33 -242h-1048z" />
    <glyph glyph-name="twosuperior" unicode="&#xb2;" 
d="M401 969h195l-23 -166h-532l16 119l340 331q52 49 58 95l2 18q4 41 -13.5 62.5t-48.5 21.5h-10q-68 0 -84 -115h-190l2 19q15 133 85.5 197.5t204.5 64.5q72 0 125 -21t79.5 -56t37 -73t6.5 -77l-2 -19q-7 -64 -32.5 -106t-84.5 -101l-202 -196z" />
    <glyph glyph-name="threesuperior" unicode="&#xb3;" 
d="M260 1059q-7 -57 12.5 -81t53.5 -24h10q32 0 55 20t27 58l2 19q9 75 -68 75h-104l22 166h103q75 0 84 70l2 18q4 35 -15 52.5t-49 17.5h-10q-73 0 -84 -115h-190l2 19q15 133 85.5 197.5t204.5 64.5q75 0 128.5 -22.5t79 -58.5t35 -73t5.5 -73l-2 -19q-6 -58 -35.5 -99
t-72.5 -61q37 -17 55.5 -67.5t11.5 -114.5l-2 -18q-4 -38 -21 -74.5t-48.5 -71t-87 -55.5t-127.5 -21q-137 0 -202 63.5t-52 188.5l2 19h190z" />
    <glyph glyph-name="acute" unicode="&#xb4;" horiz-adv-x="1024" 
d="M674 1597h291l-258 -366h-267z" />
    <glyph glyph-name="paragraph" unicode="&#xb6;" horiz-adv-x="1101" 
d="M383 0l80 604q-68 10 -125.5 30.5t-109.5 57.5t-85 88t-47 126.5t-2 166.5l6 45q64 479 588 479h404l-209 -1597h-275l178 1358h-94l-178 -1358h-131zM377 1104l-2 -17q-26 -200 119 -241l65 502q-78 -20 -123.5 -77t-58.5 -167z" />
    <glyph glyph-name="periodcentered" unicode="&#xb7;" horiz-adv-x="512" 
d="M414 862l-39 -289h-291l39 289h291z" />
    <glyph glyph-name="cedilla" unicode="&#xb8;" horiz-adv-x="1232" 
d="M154 -389l57 121q54 -33 147 -33q105 0 105 53q0 49 -94 49q-18 0 -37.5 -2t-29.5 -4l-11 -2l-27 53l80 154h135l-47 -92q82 -7 133 -44t51 -110q0 -90 -71 -141t-189 -51q-135 0 -202 49z" />
    <glyph glyph-name="onesuperior" unicode="&#xb9;" 
d="M580 803h-523l21 166h166l53 399l-119 -74l-76 138l273 170h143l-84 -633h166z" />
    <glyph glyph-name="ordmasculine" unicode="&#xba;" horiz-adv-x="890" 
d="M879 1217l-7 -46q-26 -186 -121.5 -291.5t-271.5 -105.5q-198 0 -290 113.5t-66 294.5l6 45q26 186 121.5 291.5t271.5 105.5q198 0 290.5 -113t66.5 -294zM362 1229l-6 -45q-12 -95 19.5 -151t103.5 -56q73 0 110.5 48t49.5 144l6 45q12 95 -19.5 151t-103.5 56
q-73 0 -110.5 -48t-49.5 -144zM750 391h-713l26 203h713z" />
    <glyph glyph-name="guillemotright" unicode="&#xbb;" horiz-adv-x="1126" 
d="M522 264l33 250l276 193l-225 192l31 229l395 -305l-33 -254zM35 264l33 250l276 193l-225 192l31 229l395 -305l-33 -254z" />
    <glyph glyph-name="onequarter" unicode="&#xbc;" horiz-adv-x="1638" 
d="M580 803h-523l21 166h166l53 399l-119 -74l-76 138l273 170h143l-84 -633h166zM231 0h-204l1388 1597h205zM1438 0h-191l21 162h-299l18 135l375 502h180l-61 -471h73l-22 -166h-74zM1313 498l-129 -172l43 2h63l17 125z" />
    <glyph glyph-name="onehalf" unicode="&#xbd;" horiz-adv-x="1638" 
d="M580 803h-523l21 166h166l53 399l-119 -74l-76 138l273 170h143l-84 -633h166zM231 0h-204l1388 1597h205zM1323 166h195l-23 -166h-532l16 119l340 332q51 48 57 94l2 18q4 41 -13 62.5t-48 21.5h-10q-68 0 -84 -115h-191l2 19q15 133 86 197.5t205 64.5q72 0 125 -21
t79.5 -56t37 -73t6.5 -77l-2 -19q-7 -64 -32.5 -106t-84.5 -101l-203 -196z" />
    <glyph glyph-name="threequarters" unicode="&#xbe;" horiz-adv-x="1638" 
d="M260 1059q-7 -57 12.5 -81t53.5 -24h10q32 0 55 20t27 58l2 19q9 75 -68 75h-104l22 166h103q75 0 84 70l2 18q4 35 -15 52.5t-49 17.5h-10q-73 0 -84 -115h-190l2 19q15 133 85.5 197.5t204.5 64.5q75 0 128.5 -22.5t79 -58.5t35 -73t5.5 -73l-2 -19q-6 -58 -35.5 -99
t-72.5 -61q37 -17 55.5 -67.5t11.5 -114.5l-2 -18q-4 -38 -21 -74.5t-48.5 -71t-87 -55.5t-127.5 -21q-137 0 -202 63.5t-52 188.5l2 19h190zM231 0h-204l1388 1597h205zM1438 0h-191l21 162h-299l18 135l375 502h180l-61 -471h73l-22 -166h-74zM1313 498l-129 -172l43 2h63
l17 125z" />
    <glyph glyph-name="questiondown" unicode="&#xbf;" horiz-adv-x="991" 
d="M350 -201q108 0 163 76.5t77 247.5h268l-4 -31q-71 -530 -500 -530q-219 0 -319.5 86.5t-100.5 265.5q0 74 23.5 139.5t62 115t85 95.5t94.5 89t89 85.5t70 95t35 109.5h185q0 -96 -38 -182.5t-92.5 -150.5t-108.5 -122.5t-92 -122.5t-38 -126q0 -140 141 -140zM358 797
l39 288h291l-39 -288h-291z" />
    <glyph glyph-name="Agrave" unicode="&#xc0;" horiz-adv-x="1292" 
d="M541 1946h280l84 -226h-266zM567 1606h379l209 -1606h-289l-43 365h-450l-135 -365h-301zM721 1292l-266 -688h350z" />
    <glyph glyph-name="Aacute" unicode="&#xc1;" horiz-adv-x="1292" 
d="M784 1946h281l-160 -226h-266zM567 1606h379l209 -1606h-289l-43 365h-450l-135 -365h-301zM721 1292l-266 -688h350z" />
    <glyph glyph-name="Acircumflex" unicode="&#xc2;" horiz-adv-x="1292" 
d="M645 1720h-250l275 226h266l213 -226h-242l-116 107zM567 1606h379l209 -1606h-289l-43 365h-450l-135 -365h-301zM721 1292l-266 -688h350z" />
    <glyph glyph-name="Atilde" unicode="&#xc3;" horiz-adv-x="1292" 
d="M1008 1931h149q-8 -115 -72 -170t-157 -55q-45 0 -88.5 16t-71.5 35t-62 35t-61 16q-34 0 -55.5 -19t-22.5 -54h-149q8 115 72 170t157 55q45 0 88.5 -16t71.5 -35t62 -35t61 -16q34 0 55.5 19t22.5 54zM567 1606h379l209 -1606h-289l-43 365h-450l-135 -365h-301z
M721 1292l-266 -688h350z" />
    <glyph glyph-name="Adieresis" unicode="&#xc4;" horiz-adv-x="1292" 
d="M743 1927l-24 -188h-238l25 188h237zM1092 1927l-25 -188h-238l25 188h238zM567 1606h379l209 -1606h-289l-43 365h-450l-135 -365h-301zM721 1292l-266 -688h350z" />
    <glyph glyph-name="Aring" unicode="&#xc5;" horiz-adv-x="1292" 
d="M567 1606h60q-60 57 -60 145q0 94 67.5 158.5t158.5 64.5q85 0 140.5 -54.5t55.5 -141.5q0 -107 -82 -172h39l209 -1606h-289l-43 365h-450l-135 -365h-301zM721 1292l-266 -688h350zM885 1778q0 43 -25.5 68.5t-66.5 25.5q-50 0 -85.5 -32.5t-35.5 -88.5
q0 -43 25.5 -68.5t66.5 -25.5q50 0 85.5 32.5t35.5 88.5z" />
    <glyph glyph-name="AE" unicode="&#xc6;" horiz-adv-x="1781" 
d="M700 1597h1108l-30 -239h-697l4 -424h533l-31 -238h-500l3 -456h540l-31 -240h-798l2 373h-414l-172 -373h-295zM813 1296l-313 -686h305z" />
    <glyph glyph-name="Ccedilla" unicode="&#xc7;" horiz-adv-x="1310" 
d="M377 836l-10 -78q-38 -285 12 -415t213 -130h20q82 0 138.5 21.5t89.5 67.5t50 100.5t28 136.5h276l-2 -19q-29 -272 -160 -403.5t-389 -141.5l-33 -67q83 -7 134 -44t51 -110q0 -90 -71 -141t-189 -51q-136 0 -203 49l57 121q54 -33 148 -33q104 0 104 53q0 49 -94 49
q-18 0 -37.5 -2t-29.5 -4l-11 -2l-27 53l68 131q-271 22 -372.5 207.5t-49.5 573.5l10 78q55 412 215.5 600t448.5 188q294 0 416 -145t82 -437l-7 -45h-274q27 199 -21.5 293t-193.5 94h-21q-163 0 -246 -132.5t-120 -415.5z" />
    <glyph glyph-name="Egrave" unicode="&#xc8;" horiz-adv-x="1157" 
d="M502 1946h280l84 -226h-266zM233 1597h951l-31 -239h-676l-55 -424h571l-30 -238h-574l-59 -456h676l-31 -240h-950z" />
    <glyph glyph-name="Eacute" unicode="&#xc9;" horiz-adv-x="1157" 
d="M745 1946h281l-160 -226h-266zM233 1597h951l-31 -239h-676l-55 -424h571l-30 -238h-574l-59 -456h676l-31 -240h-950z" />
    <glyph glyph-name="Ecircumflex" unicode="&#xca;" horiz-adv-x="1157" 
d="M606 1720h-250l275 226h266l213 -226h-242l-116 107zM233 1597h951l-31 -239h-676l-55 -424h571l-30 -238h-574l-59 -456h676l-31 -240h-950z" />
    <glyph glyph-name="Edieresis" unicode="&#xcb;" horiz-adv-x="1157" 
d="M705 1927l-25 -188h-238l25 188h238zM1053 1927l-25 -188h-237l24 188h238zM233 1597h951l-31 -239h-676l-55 -424h571l-30 -238h-574l-59 -456h676l-31 -240h-950z" />
    <glyph glyph-name="Igrave" unicode="&#xcc;" horiz-adv-x="544" 
d="M166 1946h280l84 -226h-266zM518 1597l-209 -1597h-274l209 1597h274z" />
    <glyph glyph-name="Iacute" unicode="&#xcd;" horiz-adv-x="544" 
d="M410 1946h280l-160 -226h-266zM518 1597l-209 -1597h-274l209 1597h274z" />
    <glyph glyph-name="Icircumflex" unicode="&#xce;" horiz-adv-x="544" 
d="M270 1720h-250l275 226h266l213 -226h-242l-116 107zM518 1597l-209 -1597h-274l209 1597h274z" />
    <glyph glyph-name="Idieresis" unicode="&#xcf;" horiz-adv-x="544" 
d="M369 1927l-25 -188h-238l25 188h238zM717 1927l-25 -188h-237l24 188h238zM518 1597l-209 -1597h-274l209 1597h274z" />
    <glyph glyph-name="Eth" unicode="&#xd0;" horiz-adv-x="1464" 
d="M1380 840l-10 -78q-36 -276 -124.5 -443t-236.5 -243t-376 -76h-488l93 713h-218l29 209h217l88 675h449q115 0 205.5 -17.5t162.5 -55.5t118.5 -98t74.5 -144t30.5 -194t-14.5 -248zM451 240h182q214 0 318 119t141 403l10 78q36 272 -36 395t-273 123h-195l-57 -436
h370l-28 -209h-371z" />
    <glyph glyph-name="Ntilde" unicode="&#xd1;" horiz-adv-x="1382" 
d="M1053 1931h149q-8 -115 -72 -170t-157 -55q-45 0 -88.5 16t-71.5 35t-62 35t-61 16q-34 0 -55.5 -19t-22.5 -54h-149q8 115 72 170t157 55q45 0 88.5 -16t71.5 -35t62 -35t61 -16q34 0 55.5 19t22.5 54zM233 1597h285l447 -1101l34 338l99 763h268l-209 -1597h-285
l-446 1102l-35 -338l-98 -764h-268z" />
    <glyph glyph-name="Ograve" unicode="&#xd2;" horiz-adv-x="1361" 
d="M575 1946h281l84 -226h-266zM1280 840l-10 -78q-55 -410 -220 -599.5t-454 -189.5q-214 0 -337 80t-165.5 252.5t-5.5 452.5l10 78q55 410 220 599t454 189q214 0 337 -79.5t165.5 -252t5.5 -452.5zM991 762l10 78q38 284 -13 414t-214 130h-20q-164 0 -252.5 -134
t-124.5 -414l-10 -78q-38 -284 13 -414.5t214 -130.5h20q164 0 252.5 134.5t124.5 414.5z" />
    <glyph glyph-name="Oacute" unicode="&#xd3;" horiz-adv-x="1361" 
d="M819 1946h281l-160 -226h-266zM1280 840l-10 -78q-55 -410 -220 -599.5t-454 -189.5q-214 0 -337 80t-165.5 252.5t-5.5 452.5l10 78q55 410 220 599t454 189q214 0 337 -79.5t165.5 -252t5.5 -452.5zM991 762l10 78q38 284 -13 414t-214 130h-20q-164 0 -252.5 -134
t-124.5 -414l-10 -78q-38 -284 13 -414.5t214 -130.5h20q164 0 252.5 134.5t124.5 414.5z" />
    <glyph glyph-name="Ocircumflex" unicode="&#xd4;" horiz-adv-x="1361" 
d="M680 1720h-250l275 226h266l213 -226h-242l-117 107zM1280 840l-10 -78q-55 -410 -220 -599.5t-454 -189.5q-214 0 -337 80t-165.5 252.5t-5.5 452.5l10 78q55 410 220 599t454 189q214 0 337 -79.5t165.5 -252t5.5 -452.5zM991 762l10 78q38 284 -13 414t-214 130h-20
q-164 0 -252.5 -134t-124.5 -414l-10 -78q-38 -284 13 -414.5t214 -130.5h20q164 0 252.5 134.5t124.5 414.5z" />
    <glyph glyph-name="Otilde" unicode="&#xd5;" horiz-adv-x="1361" 
d="M1042 1931h150q-8 -115 -72 -170t-157 -55q-45 0 -88.5 16t-71.5 35t-62 35t-61 16q-34 0 -55.5 -19t-22.5 -54h-149q8 115 72 170t157 55q45 0 88.5 -16t71.5 -35t62 -35t61 -16q34 0 55 19t22 54zM1280 840l-10 -78q-55 -410 -220 -599.5t-454 -189.5q-214 0 -337 80
t-165.5 252.5t-5.5 452.5l10 78q55 410 220 599t454 189q214 0 337 -79.5t165.5 -252t5.5 -452.5zM991 762l10 78q38 284 -13 414t-214 130h-20q-164 0 -252.5 -134t-124.5 -414l-10 -78q-38 -284 13 -414.5t214 -130.5h20q164 0 252.5 134.5t124.5 414.5z" />
    <glyph glyph-name="Odieresis" unicode="&#xd6;" horiz-adv-x="1361" 
d="M778 1927l-24 -188h-238l25 188h237zM1126 1927l-24 -188h-238l25 188h237zM1280 840l-10 -78q-55 -410 -220 -599.5t-454 -189.5q-214 0 -337 80t-165.5 252.5t-5.5 452.5l10 78q55 410 220 599t454 189q214 0 337 -79.5t165.5 -252t5.5 -452.5zM991 762l10 78
q38 284 -13 414t-214 130h-20q-164 0 -252.5 -134t-124.5 -414l-10 -78q-38 -284 13 -414.5t214 -130.5h20q164 0 252.5 134.5t124.5 414.5z" />
    <glyph glyph-name="multiply" unicode="&#xd7;" horiz-adv-x="1228" 
d="M164 248l-150 172l430 379l-329 379l194 172l330 -379l430 379l150 -172l-431 -379l330 -379l-194 -172l-330 379z" />
    <glyph glyph-name="Oslash" unicode="&#xd8;" horiz-adv-x="1351" 
d="M1280 840l-10 -78q-55 -410 -220 -599.5t-454 -189.5q-239 0 -367 101l-55 -74h-186l147 195q-98 171 -47 563l10 78q55 410 220 599t454 189q241 0 367 -100l55 73h186l-147 -194q98 -171 47 -563zM1016 1114l-615 -813q58 -88 193 -88h20q164 0 252.5 134.5
t124.5 414.5l10 78q23 180 15 274zM352 483l615 813q-58 88 -193 88h-20q-164 0 -252.5 -134t-124.5 -414l-10 -78q-23 -180 -15 -275z" />
    <glyph glyph-name="Ugrave" unicode="&#xd9;" horiz-adv-x="1341" 
d="M565 1946h281l84 -226h-266zM588 -27q-300 0 -421 131.5t-87 397.5l143 1095h275l-142 -1077q-21 -162 30 -234.5t202 -72.5q154 0 232 69t98 224l143 1091h274l-145 -1112q-24 -181 -91 -292t-192 -165.5t-319 -54.5z" />
    <glyph glyph-name="Uacute" unicode="&#xda;" horiz-adv-x="1341" 
d="M809 1946h281l-160 -226h-266zM588 -27q-300 0 -421 131.5t-87 397.5l143 1095h275l-142 -1077q-21 -162 30 -234.5t202 -72.5q154 0 232 69t98 224l143 1091h274l-145 -1112q-24 -181 -91 -292t-192 -165.5t-319 -54.5z" />
    <glyph glyph-name="Ucircumflex" unicode="&#xdb;" horiz-adv-x="1341" 
d="M670 1720h-250l274 226h267l213 -226h-242l-117 107zM588 -27q-300 0 -421 131.5t-87 397.5l143 1095h275l-142 -1077q-21 -162 30 -234.5t202 -72.5q154 0 232 69t98 224l143 1091h274l-145 -1112q-24 -181 -91 -292t-192 -165.5t-319 -54.5z" />
    <glyph glyph-name="Udieresis" unicode="&#xdc;" horiz-adv-x="1341" 
d="M768 1927l-25 -188h-237l24 188h238zM1116 1927l-24 -188h-238l25 188h237zM588 -27q-300 0 -421 131.5t-87 397.5l143 1095h275l-142 -1077q-21 -162 30 -234.5t202 -72.5q154 0 232 69t98 224l143 1091h274l-145 -1112q-24 -181 -91 -292t-192 -165.5t-319 -54.5z" />
    <glyph glyph-name="Yacute" unicode="&#xdd;" horiz-adv-x="1249" 
d="M762 1946h280l-159 -226h-267zM725 487l-63 -487h-275l64 487l-318 1110h293l199 -772l403 772h305z" />
    <glyph glyph-name="Thorn" unicode="&#xde;" horiz-adv-x="1224" 
d="M369 539h239q122 0 190.5 57t86.5 197l2 16q5 52 2.5 91t-17.5 67t-34 46.5t-47 29t-56.5 14.5t-62.5 4h-234zM299 0h-274l208 1597h275l-39 -297h209q81 0 153 -13t142 -47t117 -86.5t69.5 -137.5t7.5 -193l-6 -45q-66 -479 -588 -479h-235z" />
    <glyph glyph-name="germandbls" unicode="&#xdf;" horiz-adv-x="1255" 
d="M561 709l23 168q140 72 211 160t71 208q0 84 -50.5 135.5t-139.5 51.5q-109 0 -169 -62t-73 -160l-158 -1210h-266l160 1225q13 97 47.5 175t94 138.5t152 93.5t212.5 33q125 0 219.5 -36t148.5 -98t76.5 -140.5t12.5 -167.5l-3 -19q-17 -140 -84 -230t-192 -161l59 -45
q128 -96 190.5 -200t49.5 -224l-2 -18q-8 -70 -35 -131.5t-73.5 -112t-120 -80t-164.5 -29.5q-387 0 -348 349l2 18h243q-8 -70 21 -115t92 -45q117 0 117 170q0 51 -42 113.5t-120 122.5z" />
    <glyph glyph-name="agrave" unicode="&#xe0;" horiz-adv-x="1101" 
d="M315 1597h291l139 -366h-266zM674 0v125q-65 -75 -146 -113.5t-209 -38.5q-83 0 -147 26.5t-100.5 72.5t-52.5 104.5t-9 124.5l2 18q10 85 42.5 146.5t88.5 100t122.5 60.5t158.5 36l293 45l2 16q12 99 -23 140.5t-137 41.5q-182 0 -201 -178h-254l2 18q7 63 24 114.5
t51.5 99.5t84 81t125 52.5t172.5 19.5q243 0 343.5 -108.5t74.5 -303.5l-51 -393l-21 -307h-235zM412 193q87 0 151 35.5t101 82.5l28 211l-239 -37q-158 -23 -172 -141l-2 -18q-6 -55 28 -94t105 -39z" />
    <glyph glyph-name="aacute" unicode="&#xe1;" horiz-adv-x="1101" 
d="M713 1597h291l-259 -366h-266zM674 0v125q-65 -75 -146 -113.5t-209 -38.5q-83 0 -147 26.5t-100.5 72.5t-52.5 104.5t-9 124.5l2 18q10 85 42.5 146.5t88.5 100t122.5 60.5t158.5 36l293 45l2 16q12 99 -23 140.5t-137 41.5q-182 0 -201 -178h-254l2 18q7 63 24 114.5
t51.5 99.5t84 81t125 52.5t172.5 19.5q243 0 343.5 -108.5t74.5 -303.5l-51 -393l-21 -307h-235zM412 193q87 0 151 35.5t101 82.5l28 211l-239 -37q-158 -23 -172 -141l-2 -18q-6 -55 28 -94t105 -39z" />
    <glyph glyph-name="acircumflex" unicode="&#xe2;" horiz-adv-x="1101" 
d="M1012 1231h-234l-135 188l-184 -188h-246l319 366h254zM674 0v125q-65 -75 -146 -113.5t-209 -38.5q-83 0 -147 26.5t-100.5 72.5t-52.5 104.5t-9 124.5l2 18q10 85 42.5 146.5t88.5 100t122.5 60.5t158.5 36l293 45l2 16q12 99 -23 140.5t-137 41.5q-182 0 -201 -178
h-254l2 18q7 63 24 114.5t51.5 99.5t84 81t125 52.5t172.5 19.5q243 0 343.5 -108.5t74.5 -303.5l-51 -393l-21 -307h-235zM412 193q87 0 151 35.5t101 82.5l28 211l-239 -37q-158 -23 -172 -141l-2 -18q-6 -55 28 -94t105 -39z" />
    <glyph glyph-name="atilde" unicode="&#xe3;" horiz-adv-x="1101" 
d="M778 1485q67 0 78 80h182q-4 -74 -26.5 -131t-58 -91t-78 -51.5t-89.5 -17.5q-42 0 -86 17t-74.5 37t-65.5 37t-62 17q-67 0 -78 -79h-182q4 74 26.5 130.5t57.5 91t77.5 51.5t89.5 17q53 0 108 -27t101.5 -54t79.5 -27zM674 0v125q-65 -75 -146 -113.5t-209 -38.5
q-83 0 -147 26.5t-100.5 72.5t-52.5 104.5t-9 124.5l2 18q10 85 42.5 146.5t88.5 100t122.5 60.5t158.5 36l293 45l2 16q12 99 -23 140.5t-137 41.5q-182 0 -201 -178h-254l2 18q7 63 24 114.5t51.5 99.5t84 81t125 52.5t172.5 19.5q243 0 343.5 -108.5t74.5 -303.5
l-51 -393l-21 -307h-235zM412 193q87 0 151 35.5t101 82.5l28 211l-239 -37q-158 -23 -172 -141l-2 -18q-6 -55 28 -94t105 -39z" />
    <glyph glyph-name="adieresis" unicode="&#xe4;" horiz-adv-x="1101" 
d="M596 1563l-39 -289h-291l39 289h291zM1006 1563l-39 -289h-291l39 289h291zM674 0v125q-65 -75 -146 -113.5t-209 -38.5q-83 0 -147 26.5t-100.5 72.5t-52.5 104.5t-9 124.5l2 18q10 85 42.5 146.5t88.5 100t122.5 60.5t158.5 36l293 45l2 16q12 99 -23 140.5t-137 41.5
q-182 0 -201 -178h-254l2 18q7 63 24 114.5t51.5 99.5t84 81t125 52.5t172.5 19.5q243 0 343.5 -108.5t74.5 -303.5l-51 -393l-21 -307h-235zM412 193q87 0 151 35.5t101 82.5l28 211l-239 -37q-158 -23 -172 -141l-2 -18q-6 -55 28 -94t105 -39z" />
    <glyph glyph-name="aring" unicode="&#xe5;" horiz-adv-x="1101" 
d="M420 1403q0 94 67 158.5t158 64.5q86 0 141.5 -54.5t55.5 -141.5q0 -94 -67.5 -159t-158.5 -65q-85 0 -140.5 55t-55.5 142zM737 1430q0 43 -25.5 68.5t-66.5 25.5q-50 0 -85.5 -32.5t-35.5 -88.5q0 -43 25.5 -68.5t66.5 -25.5q50 0 85.5 32.5t35.5 88.5zM674 0v125
q-65 -75 -146 -113.5t-209 -38.5q-83 0 -147 26.5t-100.5 72.5t-52.5 104.5t-9 124.5l2 18q10 85 42.5 146.5t88.5 100t122.5 60.5t158.5 36l293 45l2 16q12 99 -23 140.5t-137 41.5q-182 0 -201 -178h-254l2 18q7 63 24 114.5t51.5 99.5t84 81t125 52.5t172.5 19.5
q243 0 343.5 -108.5t74.5 -303.5l-51 -393l-21 -307h-235zM412 193q87 0 151 35.5t101 82.5l28 211l-239 -37q-158 -23 -172 -141l-2 -18q-6 -55 28 -94t105 -39z" />
    <glyph glyph-name="ae" unicode="&#xe6;" horiz-adv-x="1767" 
d="M1663 444h-719q-10 -130 48 -197t175 -67q106 0 165 49.5t67 118.5h252l-2 -18q-18 -157 -144 -257t-344 -100q-281 0 -399 174q-83 -74 -196 -124t-247 -50q-83 0 -147 26.5t-100.5 72.5t-52.5 104.5t-9 124.5l2 18q10 85 42.5 146.5t88.5 100t122.5 60.5t158.5 36
l293 45l2 16q12 99 -23 140.5t-137 41.5q-182 0 -201 -178h-254l2 18q7 63 24 114.5t51.5 99.5t84 81t125 52.5t172.5 19.5q263 0 342 -137q115 137 330 137q127 0 221 -41.5t147 -117t72 -178.5t2 -228zM412 193q85 0 157.5 40.5t122.5 94.5q-15 90 0 194l-239 -37
q-158 -23 -172 -141l-2 -18q-6 -55 28 -94t105 -39zM1225 905q-102 0 -168 -68.5t-88 -195.5h454q14 123 -37.5 193.5t-160.5 70.5z" />
    <glyph glyph-name="ccedilla" unicode="&#xe7;" horiz-adv-x="1075" 
d="M313 569l-6 -45q-21 -149 24.5 -234t151.5 -85q98 0 153 51.5t66 138.5h252l-2 -18q-20 -172 -129.5 -282.5t-310.5 -119.5l-33 -67q83 -7 134 -44t51 -110q0 -90 -71 -141t-190 -51q-135 0 -202 49l57 121q54 -33 148 -33q104 0 104 53q0 49 -94 49q-18 0 -37.5 -2
t-30.5 -4l-10 -2l-27 53l70 136q-191 30 -279 178.5t-59 361.5l6 45q76 545 520 545q227 0 339.5 -110.5t88.5 -284.5l-6 -45h-252q10 96 -33 152.5t-143 56.5q-101 0 -164.5 -78.5t-85.5 -233.5z" />
    <glyph glyph-name="egrave" unicode="&#xe8;" horiz-adv-x="1132" 
d="M336 1597h291l139 -366h-266zM1014 444h-719q-10 -130 48 -197t175 -67q106 0 165 49.5t67 118.5h251l-2 -18q-18 -158 -143.5 -257.5t-343.5 -99.5q-109 0 -195.5 28t-142 77.5t-91 118.5t-43 151t2.5 174l6 45q16 117 55.5 213.5t103.5 172t160.5 117.5t217.5 42
q127 0 221 -41.5t147 -117t72 -178.5t2 -228zM575 905q-102 0 -168 -68.5t-88 -195.5h455q14 123 -38 193.5t-161 70.5z" />
    <glyph glyph-name="eacute" unicode="&#xe9;" horiz-adv-x="1132" 
d="M733 1597h291l-258 -366h-266zM1014 444h-719q-10 -130 48 -197t175 -67q106 0 165 49.5t67 118.5h251l-2 -18q-18 -158 -143.5 -257.5t-343.5 -99.5q-109 0 -195.5 28t-142 77.5t-91 118.5t-43 151t2.5 174l6 45q16 117 55.5 213.5t103.5 172t160.5 117.5t217.5 42
q127 0 221 -41.5t147 -117t72 -178.5t2 -228zM575 905q-102 0 -168 -68.5t-88 -195.5h455q14 123 -38 193.5t-161 70.5z" />
    <glyph glyph-name="ecircumflex" unicode="&#xea;" horiz-adv-x="1132" 
d="M1032 1231h-233l-135 188l-185 -188h-246l320 366h254zM1014 444h-719q-10 -130 48 -197t175 -67q106 0 165 49.5t67 118.5h251l-2 -18q-18 -158 -143.5 -257.5t-343.5 -99.5q-109 0 -195.5 28t-142 77.5t-91 118.5t-43 151t2.5 174l6 45q16 117 55.5 213.5t103.5 172
t160.5 117.5t217.5 42q127 0 221 -41.5t147 -117t72 -178.5t2 -228zM575 905q-102 0 -168 -68.5t-88 -195.5h455q14 123 -38 193.5t-161 70.5z" />
    <glyph glyph-name="edieresis" unicode="&#xeb;" horiz-adv-x="1132" 
d="M616 1563l-38 -289h-291l39 289h290zM1026 1563l-39 -289h-291l39 289h291zM1014 444h-719q-10 -130 48 -197t175 -67q106 0 165 49.5t67 118.5h251l-2 -18q-18 -158 -143.5 -257.5t-343.5 -99.5q-109 0 -195.5 28t-142 77.5t-91 118.5t-43 151t2.5 174l6 45
q16 117 55.5 213.5t103.5 172t160.5 117.5t217.5 42q127 0 221 -41.5t147 -117t72 -178.5t2 -228zM575 905q-102 0 -168 -68.5t-88 -195.5h455q14 123 -38 193.5t-161 70.5z" />
    <glyph glyph-name="igrave" unicode="&#xec;" horiz-adv-x="512" 
d="M20 1597h291l140 -366h-267zM23 0l141 1085h266l-141 -1085h-266z" />
    <glyph glyph-name="iacute" unicode="&#xed;" horiz-adv-x="512" 
d="M418 1597h291l-258 -366h-267zM23 0l141 1085h266l-141 -1085h-266z" />
    <glyph glyph-name="icircumflex" unicode="&#xee;" horiz-adv-x="512" 
d="M717 1231h-234l-135 188l-184 -188h-246l320 366h254zM23 0l141 1085h266l-141 -1085h-266z" />
    <glyph glyph-name="idieresis" unicode="&#xef;" horiz-adv-x="512" 
d="M301 1563l-39 -289h-291l39 289h291zM711 1563l-39 -289h-291l39 289h291zM23 0l141 1085h266l-141 -1085h-266z" />
    <glyph glyph-name="eth" unicode="&#xf0;" horiz-adv-x="1132" 
d="M162 1427l31 238q333 -24 524 -137l262 137l-23 -162l-125 -65q282 -282 201 -875l-6 -45q-76 -545 -534 -545q-166 0 -276 74t-152 196.5t-21 278.5l6 45q76 545 535 545q101 0 166 -35q-53 137 -185 221l-383 -200l23 162l215 112q-114 39 -258 55zM498 205
q221 0 264 311l6 45q21 150 -26.5 235t-163.5 85q-222 0 -265 -312l-6 -45q-21 -150 27 -234.5t164 -84.5z" />
    <glyph glyph-name="ntilde" unicode="&#xf1;" horiz-adv-x="1153" 
d="M811 1485q67 0 78 80h182q-4 -74 -26.5 -131t-58 -91t-78 -51.5t-89.5 -17.5q-53 0 -108 27t-101.5 54t-79.5 27q-66 0 -77 -79h-183q4 74 26.5 130.5t58 91t78 51.5t89.5 17q53 0 108 -27t101.5 -54t79.5 -27zM946 0h-266l92 700q11 84 -29 132.5t-129 48.5
q-134 0 -231 -129l-98 -752h-267l103 778l20 307h236v-141q58 78 149 123t207 45q119 0 195 -49.5t102.5 -133t11.5 -194.5z" />
    <glyph glyph-name="ograve" unicode="&#xf2;" horiz-adv-x="1132" 
d="M330 1597h291l139 -366h-266zM498 205q221 0 264 311l6 45q21 150 -26.5 235t-163.5 85q-222 0 -265 -312l-6 -45q-21 -150 27 -234.5t164 -84.5zM492 -27q-167 0 -277 74t-151.5 196.5t-20.5 278.5l6 45q76 545 535 545q126 0 220.5 -42.5t148.5 -117t74.5 -174
t4.5 -215.5l-6 -45q-76 -545 -534 -545z" />
    <glyph glyph-name="oacute" unicode="&#xf3;" horiz-adv-x="1132" 
d="M727 1597h291l-258 -366h-266zM498 205q221 0 264 311l6 45q21 150 -26.5 235t-163.5 85q-222 0 -265 -312l-6 -45q-21 -150 27 -234.5t164 -84.5zM492 -27q-167 0 -277 74t-151.5 196.5t-20.5 278.5l6 45q76 545 535 545q126 0 220.5 -42.5t148.5 -117t74.5 -174
t4.5 -215.5l-6 -45q-76 -545 -534 -545z" />
    <glyph glyph-name="ocircumflex" unicode="&#xf4;" horiz-adv-x="1132" 
d="M1026 1231h-233l-136 188l-184 -188h-246l320 366h254zM498 205q221 0 264 311l6 45q21 150 -26.5 235t-163.5 85q-222 0 -265 -312l-6 -45q-21 -150 27 -234.5t164 -84.5zM492 -27q-167 0 -277 74t-151.5 196.5t-20.5 278.5l6 45q76 545 535 545q126 0 220.5 -42.5
t148.5 -117t74.5 -174t4.5 -215.5l-6 -45q-76 -545 -534 -545z" />
    <glyph glyph-name="otilde" unicode="&#xf5;" horiz-adv-x="1132" 
d="M793 1485q66 0 77 80h183q-4 -74 -26.5 -131t-58 -91t-78 -51.5t-89.5 -17.5q-53 0 -108 27t-101.5 54t-79.5 27q-67 0 -78 -79h-182q4 74 26.5 130.5t58 91t78 51.5t89.5 17q53 0 108 -27t101.5 -54t79.5 -27zM498 205q221 0 264 311l6 45q21 150 -26.5 235t-163.5 85
q-222 0 -265 -312l-6 -45q-21 -150 27 -234.5t164 -84.5zM492 -27q-167 0 -277 74t-151.5 196.5t-20.5 278.5l6 45q76 545 535 545q126 0 220.5 -42.5t148.5 -117t74.5 -174t4.5 -215.5l-6 -45q-76 -545 -534 -545z" />
    <glyph glyph-name="odieresis" unicode="&#xf6;" horiz-adv-x="1132" 
d="M610 1563l-39 -289h-290l38 289h291zM1020 1563l-39 -289h-291l39 289h291zM498 205q221 0 264 311l6 45q21 150 -26.5 235t-163.5 85q-222 0 -265 -312l-6 -45q-21 -150 27 -234.5t164 -84.5zM492 -27q-167 0 -277 74t-151.5 196.5t-20.5 278.5l6 45q76 545 535 545
q126 0 220.5 -42.5t148.5 -117t74.5 -174t4.5 -215.5l-6 -45q-76 -545 -534 -545z" />
    <glyph glyph-name="divide" unicode="&#xf7;" horiz-adv-x="1228" 
d="M76 678l33 242h1048l-33 -242h-1048zM725 512l-37 -289h-291l37 289h291zM838 1374l-39 -289h-291l39 289h291z" />
    <glyph glyph-name="oslash" unicode="&#xf8;" horiz-adv-x="1132" 
d="M145 0h-172l136 154q-97 148 -66 368l6 45q76 545 535 545q179 0 295 -86l51 59h172l-135 -153q94 -142 65 -369l-6 -45q-76 -545 -534 -545q-181 0 -295 84zM498 205q221 0 264 311l6 45q9 83 0 148l-403 -459q51 -45 133 -45zM307 524q-11 -79 -2 -147l404 457
q-47 47 -131 47q-222 0 -265 -312z" />
    <glyph glyph-name="ugrave" unicode="&#xf9;" horiz-adv-x="1153" 
d="M334 1597h291l139 -366h-266zM150 1085h266l-92 -700q-11 -84 28.5 -132t128.5 -48q135 0 232 129l98 751h266l-102 -778l-21 -307h-235v141q-58 -78 -149.5 -123t-207.5 -45q-119 0 -195 49.5t-102.5 133t-11.5 194.5z" />
    <glyph glyph-name="uacute" unicode="&#xfa;" horiz-adv-x="1153" 
d="M731 1597h291l-258 -366h-266zM150 1085h266l-92 -700q-11 -84 28.5 -132t128.5 -48q135 0 232 129l98 751h266l-102 -778l-21 -307h-235v141q-58 -78 -149.5 -123t-207.5 -45q-119 0 -195 49.5t-102.5 133t-11.5 194.5z" />
    <glyph glyph-name="ucircumflex" unicode="&#xfb;" horiz-adv-x="1153" 
d="M1030 1231h-233l-135 188l-185 -188h-246l320 366h254zM150 1085h266l-92 -700q-11 -84 28.5 -132t128.5 -48q135 0 232 129l98 751h266l-102 -778l-21 -307h-235v141q-58 -78 -149.5 -123t-207.5 -45q-119 0 -195 49.5t-102.5 133t-11.5 194.5z" />
    <glyph glyph-name="udieresis" unicode="&#xfc;" horiz-adv-x="1153" 
d="M614 1563l-39 -289h-290l39 289h290zM1024 1563l-39 -289h-291l39 289h291zM150 1085h266l-92 -700q-11 -84 28.5 -132t128.5 -48q135 0 232 129l98 751h266l-102 -778l-21 -307h-235v141q-58 -78 -149.5 -123t-207.5 -45q-119 0 -195 49.5t-102.5 133t-11.5 194.5z" />
    <glyph glyph-name="yacute" unicode="&#xfd;" horiz-adv-x="1085" 
d="M711 1597h290l-258 -366h-266zM487 332l336 753h293l-522 -1044l-201 -451h-315l244 451l-259 1044h283z" />
    <glyph glyph-name="thorn" unicode="&#xfe;" horiz-adv-x="1153" 
d="M231 1638h267l-86 -649q49 51 124 87t169 36q200 0 290.5 -151.5t57.5 -397.5l-6 -45q-17 -121 -51.5 -217.5t-90 -171.5t-137.5 -115.5t-186 -40.5q-191 0 -287 133l-68 -516h-266zM520 205q110 0 175.5 81t86.5 230l6 45q21 148 -26.5 234t-159.5 86q-125 0 -221 -121
l-55 -426q24 -51 72 -90t122 -39z" />
    <glyph glyph-name="ydieresis" unicode="&#xff;" horiz-adv-x="1085" 
d="M594 1563l-39 -289h-291l39 289h291zM1004 1563l-39 -289h-291l39 289h291zM487 332l336 753h293l-522 -1044l-201 -451h-315l244 451l-259 1044h283z" />
    <glyph glyph-name="Amacron" unicode="&#x100;" horiz-adv-x="1292" 
d="M494 1747l22 172h565l-22 -172h-565zM567 1606h379l209 -1606h-289l-43 365h-450l-135 -365h-301zM721 1292l-266 -688h350z" />
    <glyph glyph-name="amacron" unicode="&#x101;" horiz-adv-x="1101" 
d="M336 1296l31 236h569l-31 -236h-569zM674 0v125q-65 -75 -146 -113.5t-209 -38.5q-83 0 -147 26.5t-100.5 72.5t-52.5 104.5t-9 124.5l2 18q10 85 42.5 146.5t88.5 100t122.5 60.5t158.5 36l293 45l2 16q12 99 -23 140.5t-137 41.5q-182 0 -201 -178h-254l2 18
q7 63 24 114.5t51.5 99.5t84 81t125 52.5t172.5 19.5q243 0 343.5 -108.5t74.5 -303.5l-51 -393l-21 -307h-235zM412 193q87 0 151 35.5t101 82.5l28 211l-239 -37q-158 -23 -172 -141l-2 -18q-6 -55 28 -94t105 -39z" />
    <glyph glyph-name="Abreve" unicode="&#x102;" horiz-adv-x="1292" 
d="M768 1692q-99 0 -166.5 19.5t-101 56t-44 79.5t-3.5 99h184q-16 -101 147 -101q161 0 177 101h192q-33 -254 -385 -254zM567 1606h379l209 -1606h-289l-43 365h-450l-135 -365h-301zM721 1292l-266 -688h350z" />
    <glyph glyph-name="abreve" unicode="&#x103;" horiz-adv-x="1101" 
d="M608 1206q-193 0 -267 105t-48 286h190q-12 -93 26.5 -139.5t119.5 -46.5t131.5 46.5t62.5 139.5h203q-20 -181 -122.5 -286t-295.5 -105zM674 0v125q-65 -75 -146 -113.5t-209 -38.5q-83 0 -147 26.5t-100.5 72.5t-52.5 104.5t-9 124.5l2 18q10 85 42.5 146.5t88.5 100
t122.5 60.5t158.5 36l293 45l2 16q12 99 -23 140.5t-137 41.5q-182 0 -201 -178h-254l2 18q7 63 24 114.5t51.5 99.5t84 81t125 52.5t172.5 19.5q243 0 343.5 -108.5t74.5 -303.5l-51 -393l-21 -307h-235zM412 193q87 0 151 35.5t101 82.5l28 211l-239 -37
q-158 -23 -172 -141l-2 -18q-6 -55 28 -94t105 -39z" />
    <glyph glyph-name="Aogonek" unicode="&#x104;" horiz-adv-x="1292" 
d="M567 1606h379l209 -1606q-56 -18 -110 -67.5t-54 -106.5q0 -72 82 -72q59 0 107 25l41 -168q-82 -49 -199 -49q-244 0 -244 192q0 118 92 213l-47 398h-450l-135 -365h-301zM721 1292l-266 -688h350z" />
    <glyph glyph-name="aogonek" unicode="&#x105;" horiz-adv-x="1101" 
d="M909 0q-56 -18 -110 -67.5t-54 -106.5q0 -72 82 -72q59 0 107 25l41 -168q-82 -49 -199 -49q-244 0 -244 192q0 144 142 256v115q-65 -75 -146 -113.5t-209 -38.5q-83 0 -147 26.5t-100.5 72.5t-52.5 104.5t-9 124.5l2 18q10 85 42.5 146.5t88.5 100t122.5 60.5t158.5 36
l293 45l2 16q12 99 -23 140.5t-137 41.5q-182 0 -201 -178h-254l2 18q7 63 24 114.5t51.5 99.5t84 81t125 52.5t172.5 19.5q243 0 343.5 -108.5t74.5 -303.5l-51 -393zM412 193q87 0 151 35.5t101 82.5l28 211l-239 -37q-158 -23 -172 -141l-2 -18q-6 -55 28 -94t105 -39z
" />
    <glyph glyph-name="Cacute" unicode="&#x106;" horiz-adv-x="1310" 
d="M811 1946h281l-160 -226h-266zM377 836l-10 -78q-38 -285 12 -415t213 -130h20q82 0 138.5 21.5t89.5 67.5t50 100.5t28 136.5h276l-2 -19q-31 -285 -172.5 -416t-425.5 -131q-320 0 -440.5 184t-65.5 601l10 78q55 412 215.5 600t448.5 188q294 0 416 -145t82 -437
l-7 -45h-274q27 199 -21.5 293t-193.5 94h-21q-163 0 -246 -132.5t-120 -415.5z" />
    <glyph glyph-name="cacute" unicode="&#x107;" horiz-adv-x="1075" 
d="M715 1597h291l-258 -366h-267zM313 569l-6 -45q-21 -149 24.5 -234t151.5 -85q98 0 153 51.5t66 138.5h252l-2 -18q-10 -85 -42.5 -156.5t-88.5 -128t-144 -88t-200 -31.5q-121 0 -212.5 42.5t-144 117t-72.5 174t-5 215.5l6 45q76 545 520 545q227 0 339.5 -110.5
t88.5 -284.5l-6 -45h-252q10 96 -33 152.5t-143 56.5q-101 0 -164.5 -78.5t-85.5 -233.5z" />
    <glyph glyph-name="Ccircumflex" unicode="&#x108;" horiz-adv-x="1310" 
d="M672 1720h-250l274 226h267l213 -226h-242l-117 107zM377 836l-10 -78q-38 -285 12 -415t213 -130h20q82 0 138.5 21.5t89.5 67.5t50 100.5t28 136.5h276l-2 -19q-31 -285 -172.5 -416t-425.5 -131q-320 0 -440.5 184t-65.5 601l10 78q55 412 215.5 600t448.5 188
q294 0 416 -145t82 -437l-7 -45h-274q27 199 -21.5 293t-193.5 94h-21q-163 0 -246 -132.5t-120 -415.5z" />
    <glyph glyph-name="ccircumflex" unicode="&#x109;" horiz-adv-x="1075" 
d="M1014 1231h-234l-135 188l-184 -188h-246l320 366h253zM313 569l-6 -45q-21 -149 24.5 -234t151.5 -85q98 0 153 51.5t66 138.5h252l-2 -18q-10 -85 -42.5 -156.5t-88.5 -128t-144 -88t-200 -31.5q-121 0 -212.5 42.5t-144 117t-72.5 174t-5 215.5l6 45q76 545 520 545
q227 0 339.5 -110.5t88.5 -284.5l-6 -45h-252q10 96 -33 152.5t-143 56.5q-101 0 -164.5 -78.5t-85.5 -233.5z" />
    <glyph glyph-name="Cdotaccent" unicode="&#x10a;" horiz-adv-x="1310" 
d="M944 1927l-24 -188h-238l25 188h237zM377 836l-10 -78q-38 -285 12 -415t213 -130h20q82 0 138.5 21.5t89.5 67.5t50 100.5t28 136.5h276l-2 -19q-31 -285 -172.5 -416t-425.5 -131q-320 0 -440.5 184t-65.5 601l10 78q55 412 215.5 600t448.5 188q294 0 416 -145
t82 -437l-7 -45h-274q27 199 -21.5 293t-193.5 94h-21q-163 0 -246 -132.5t-120 -415.5z" />
    <glyph glyph-name="cdotaccent" unicode="&#x10b;" horiz-adv-x="1075" 
d="M803 1563l-39 -289h-291l39 289h291zM313 569l-6 -45q-21 -149 24.5 -234t151.5 -85q98 0 153 51.5t66 138.5h252l-2 -18q-10 -85 -42.5 -156.5t-88.5 -128t-144 -88t-200 -31.5q-121 0 -212.5 42.5t-144 117t-72.5 174t-5 215.5l6 45q76 545 520 545q227 0 339.5 -110.5
t88.5 -284.5l-6 -45h-252q10 96 -33 152.5t-143 56.5q-101 0 -164.5 -78.5t-85.5 -233.5z" />
    <glyph glyph-name="Ccaron" unicode="&#x10c;" horiz-adv-x="1310" 
d="M956 1946h250l-274 -226h-266l-213 226h241l117 -107zM377 836l-10 -78q-38 -285 12 -415t213 -130h20q82 0 138.5 21.5t89.5 67.5t50 100.5t28 136.5h276l-2 -19q-31 -285 -172.5 -416t-425.5 -131q-320 0 -440.5 184t-65.5 601l10 78q55 412 215.5 600t448.5 188
q294 0 416 -145t82 -437l-7 -45h-274q27 199 -21.5 293t-193.5 94h-21q-163 0 -246 -132.5t-120 -415.5z" />
    <glyph glyph-name="ccaron" unicode="&#x10d;" horiz-adv-x="1075" 
d="M262 1597h234l135 -188l184 188h246l-320 -366h-254zM313 569l-6 -45q-21 -149 24.5 -234t151.5 -85q98 0 153 51.5t66 138.5h252l-2 -18q-10 -85 -42.5 -156.5t-88.5 -128t-144 -88t-200 -31.5q-121 0 -212.5 42.5t-144 117t-72.5 174t-5 215.5l6 45q76 545 520 545
q227 0 339.5 -110.5t88.5 -284.5l-6 -45h-252q10 96 -33 152.5t-143 56.5q-101 0 -164.5 -78.5t-85.5 -233.5z" />
    <glyph glyph-name="Dcaron" unicode="&#x10e;" horiz-adv-x="1341" 
d="M911 1946h250l-274 -226h-266l-213 226h241l117 -107zM1260 840l-11 -78q-36 -276 -124.5 -443t-236.5 -243t-376 -76h-487l208 1597h449q233 0 370 -73.5t191 -241.5t17 -442zM330 240h182q214 0 318 119t141 403l10 78q36 272 -36 395t-273 123h-195z" />
    <glyph glyph-name="dcaron" unicode="&#x10f;" horiz-adv-x="1165" 
d="M399 -27q-200 0 -290.5 151.5t-57.5 397.5l6 45q17 121 51.5 217.5t90 171.5t137.5 115.5t186 40.5q191 0 287 -133l86 659h266l-176 -1331l-20 -307h-236v141q-54 -76 -142 -122t-188 -46zM584 881q-110 0 -175.5 -81.5t-86.5 -230.5l-7 -45q-21 -148 27 -233.5
t160 -85.5q125 0 221 121l55 426q-24 51 -72 90t-122 39zM1286 1638h174l-100 -407h-127z" />
    <glyph glyph-name="Dcroat" unicode="&#x110;" horiz-adv-x="1464" 
d="M1380 840l-10 -78q-36 -276 -124.5 -443t-236.5 -243t-376 -76h-488l93 713h-218l29 209h217l88 675h449q115 0 205.5 -17.5t162.5 -55.5t118.5 -98t74.5 -144t30.5 -194t-14.5 -248zM451 240h182q214 0 318 119t141 403l10 78q36 272 -36 395t-273 123h-195l-57 -436
h370l-28 -209h-371z" />
    <glyph glyph-name="dcroat" unicode="&#x111;" horiz-adv-x="1165" 
d="M602 1264l27 196h241l25 178h266l-24 -178h155l-26 -196h-154l-127 -957l-20 -307h-236v141q-54 -76 -142 -122t-188 -46q-200 0 -290.5 151.5t-57.5 397.5l6 45q17 121 51.5 217.5t90 171.5t137.5 115.5t186 40.5q191 0 287 -133l37 285h-244zM584 881
q-110 0 -175.5 -81.5t-86.5 -230.5l-7 -45q-21 -148 27 -233.5t160 -85.5q125 0 221 121l55 426q-24 51 -72 90t-122 39z" />
    <glyph glyph-name="Emacron" unicode="&#x112;" horiz-adv-x="1157" 
d="M455 1747l22 172h565l-22 -172h-565zM233 1597h951l-31 -239h-676l-55 -424h571l-30 -238h-574l-59 -456h676l-31 -240h-950z" />
    <glyph glyph-name="emacron" unicode="&#x113;" horiz-adv-x="1132" 
d="M356 1296l31 236h569l-30 -236h-570zM1014 444h-719q-10 -130 48 -197t175 -67q106 0 165 49.5t67 118.5h251l-2 -18q-18 -158 -143.5 -257.5t-343.5 -99.5q-109 0 -195.5 28t-142 77.5t-91 118.5t-43 151t2.5 174l6 45q16 117 55.5 213.5t103.5 172t160.5 117.5
t217.5 42q127 0 221 -41.5t147 -117t72 -178.5t2 -228zM575 905q-102 0 -168 -68.5t-88 -195.5h455q14 123 -38 193.5t-161 70.5z" />
    <glyph glyph-name="Ebreve" unicode="&#x114;" horiz-adv-x="1157" 
d="M729 1692q-99 0 -166.5 19.5t-101 56t-44 79.5t-3.5 99h184q-16 -101 147 -101q161 0 177 101h192q-33 -254 -385 -254zM233 1597h951l-31 -239h-676l-55 -424h571l-30 -238h-574l-59 -456h676l-31 -240h-950z" />
    <glyph glyph-name="ebreve" unicode="&#x115;" horiz-adv-x="1132" 
d="M629 1206q-193 0 -267.5 105t-48.5 286h191q-23 -186 145 -186q82 0 132.5 46.5t62.5 139.5h203q-20 -181 -122.5 -286t-295.5 -105zM1014 444h-719q-10 -130 48 -197t175 -67q106 0 165 49.5t67 118.5h251l-2 -18q-18 -158 -143.5 -257.5t-343.5 -99.5q-109 0 -195.5 28
t-142 77.5t-91 118.5t-43 151t2.5 174l6 45q16 117 55.5 213.5t103.5 172t160.5 117.5t217.5 42q127 0 221 -41.5t147 -117t72 -178.5t2 -228zM575 905q-102 0 -168 -68.5t-88 -195.5h455q14 123 -38 193.5t-161 70.5z" />
    <glyph glyph-name="Edotaccent" unicode="&#x116;" horiz-adv-x="1157" 
d="M879 1927l-25 -188h-238l25 188h238zM233 1597h951l-31 -239h-676l-55 -424h571l-30 -238h-574l-59 -456h676l-31 -240h-950z" />
    <glyph glyph-name="edotaccent" unicode="&#x117;" horiz-adv-x="1132" 
d="M821 1563l-39 -289h-290l38 289h291zM1014 444h-719q-10 -130 48 -197t175 -67q106 0 165 49.5t67 118.5h251l-2 -18q-18 -158 -143.5 -257.5t-343.5 -99.5q-109 0 -195.5 28t-142 77.5t-91 118.5t-43 151t2.5 174l6 45q16 117 55.5 213.5t103.5 172t160.5 117.5
t217.5 42q127 0 221 -41.5t147 -117t72 -178.5t2 -228zM575 905q-102 0 -168 -68.5t-88 -195.5h455q14 123 -38 193.5t-161 70.5z" />
    <glyph glyph-name="Eogonek" unicode="&#x118;" horiz-adv-x="1157" 
d="M233 1597h951l-31 -239h-676l-55 -424h571l-30 -238h-574l-59 -456h676l-31 -240q-56 -18 -110 -67.5t-54 -106.5q0 -72 82 -72q58 0 106 25l41 -168q-82 -49 -198 -49q-244 0 -244 192q0 138 127 246h-700z" />
    <glyph glyph-name="eogonek" unicode="&#x119;" horiz-adv-x="1132" 
d="M1014 444h-719q-10 -130 48 -197t175 -67q106 0 165 49.5t67 118.5h251l-2 -18q-14 -118 -87 -204.5t-203 -125.5q-55 -16 -109.5 -66.5t-54.5 -107.5q0 -72 82 -72q58 0 106 25l41 -168q-82 -49 -199 -49q-243 0 -243 192q0 121 102 223q-115 11 -198.5 57.5t-129.5 120
t-62 166t-1 201.5l6 45q16 117 55.5 213.5t103.5 172t160.5 117.5t217.5 42q127 0 221 -41.5t147 -117t72 -178.5t2 -228zM575 905q-102 0 -168 -68.5t-88 -195.5h455q14 123 -38 193.5t-161 70.5z" />
    <glyph glyph-name="Ecaron" unicode="&#x11a;" horiz-adv-x="1157" 
d="M891 1946h250l-275 -226h-266l-213 226h242l116 -107zM233 1597h951l-31 -239h-676l-55 -424h571l-30 -238h-574l-59 -456h676l-31 -240h-950z" />
    <glyph glyph-name="ecaron" unicode="&#x11b;" horiz-adv-x="1132" 
d="M281 1597h233l135 -188l185 188h245l-319 -366h-254zM1014 444h-719q-10 -130 48 -197t175 -67q106 0 165 49.5t67 118.5h251l-2 -18q-18 -158 -143.5 -257.5t-343.5 -99.5q-109 0 -195.5 28t-142 77.5t-91 118.5t-43 151t2.5 174l6 45q16 117 55.5 213.5t103.5 172
t160.5 117.5t217.5 42q127 0 221 -41.5t147 -117t72 -178.5t2 -228zM575 905q-102 0 -168 -68.5t-88 -195.5h455q14 123 -38 193.5t-161 70.5z" />
    <glyph glyph-name="Gcircumflex" unicode="&#x11c;" horiz-adv-x="1359" 
d="M686 1720h-250l275 226h266l213 -226h-242l-117 107zM635 -27q-326 0 -463.5 187.5t-83.5 597.5l10 78q55 410 220 599t454 189q588 0 508 -582l-6 -45h-275q27 197 -25.5 292t-199.5 95h-20q-164 0 -252.5 -134t-124.5 -414l-10 -78q-72 -545 266 -545h20q89 0 157 30.5
t97 61.5l39 297h-231l30 238h506l-86 -660q-31 -36 -74.5 -68.5t-107.5 -65.5t-154.5 -53t-193.5 -20z" />
    <glyph glyph-name="gcircumflex" unicode="&#x11d;" horiz-adv-x="1153" 
d="M1026 1231h-233l-136 188l-184 -188h-246l320 366h254zM674 10l20 156q-49 -51 -124 -87t-169 -36q-128 0 -215.5 67.5t-122 183.5t-14.5 263l6 45q32 235 148.5 372.5t312.5 137.5q218 0 307 -168l39 141h236l-58 -307l-102 -784q-28 -216 -149 -323t-355 -107
q-130 0 -224 32t-144 87.5t-68.5 123.5t-7.5 148l6 45h250q-25 -217 188 -217q119 0 172 52.5t68 174.5zM725 395l47 357q-24 51 -72 90t-122 39q-220 0 -259 -277l-6 -45q-19 -134 30 -209.5t161 -75.5q125 0 221 121z" />
    <glyph glyph-name="Gbreve" unicode="&#x11e;" horiz-adv-x="1359" 
d="M809 1692q-99 0 -166.5 19.5t-101 56t-44 79.5t-3.5 99h184q-16 -101 147 -101q160 0 176 101h193q-33 -254 -385 -254zM635 -27q-326 0 -463.5 187.5t-83.5 597.5l10 78q55 410 220 599t454 189q588 0 508 -582l-6 -45h-275q27 197 -25.5 292t-199.5 95h-20
q-164 0 -252.5 -134t-124.5 -414l-10 -78q-72 -545 266 -545h20q89 0 157 30.5t97 61.5l39 297h-231l30 238h506l-86 -660q-31 -36 -74.5 -68.5t-107.5 -65.5t-154.5 -53t-193.5 -20z" />
    <glyph glyph-name="gbreve" unicode="&#x11f;" horiz-adv-x="1153" 
d="M623 1206q-193 0 -267.5 105t-48.5 286h191q-23 -186 145 -186q82 0 132.5 46.5t62.5 139.5h202q-20 -181 -122 -286t-295 -105zM674 10l20 156q-49 -51 -124 -87t-169 -36q-128 0 -215.5 67.5t-122 183.5t-14.5 263l6 45q32 235 148.5 372.5t312.5 137.5q218 0 307 -168
l39 141h236l-58 -307l-102 -784q-28 -216 -149 -323t-355 -107q-130 0 -224 32t-144 87.5t-68.5 123.5t-7.5 148l6 45h250q-25 -217 188 -217q119 0 172 52.5t68 174.5zM725 395l47 357q-24 51 -72 90t-122 39q-220 0 -259 -277l-6 -45q-19 -134 30 -209.5t161 -75.5
q125 0 221 121z" />
    <glyph glyph-name="Gdotaccent" unicode="&#x120;" horiz-adv-x="1359" 
d="M958 1927l-24 -188h-238l25 188h237zM635 -27q-326 0 -463.5 187.5t-83.5 597.5l10 78q55 410 220 599t454 189q588 0 508 -582l-6 -45h-275q27 197 -25.5 292t-199.5 95h-20q-164 0 -252.5 -134t-124.5 -414l-10 -78q-72 -545 266 -545h20q89 0 157 30.5t97 61.5l39 297
h-231l30 238h506l-86 -660q-31 -36 -74.5 -68.5t-107.5 -65.5t-154.5 -53t-193.5 -20z" />
    <glyph glyph-name="gdotaccent" unicode="&#x121;" horiz-adv-x="1153" 
d="M809 1563l-39 -289h-291l39 289h291zM674 10l20 156q-49 -51 -124 -87t-169 -36q-128 0 -215.5 67.5t-122 183.5t-14.5 263l6 45q32 235 148.5 372.5t312.5 137.5q218 0 307 -168l39 141h236l-58 -307l-102 -784q-28 -216 -149 -323t-355 -107q-130 0 -224 32t-144 87.5
t-68.5 123.5t-7.5 148l6 45h250q-25 -217 188 -217q119 0 172 52.5t68 174.5zM725 395l47 357q-24 51 -72 90t-122 39q-220 0 -259 -277l-6 -45q-19 -134 30 -209.5t161 -75.5q125 0 221 121z" />
    <glyph glyph-name="Gcommaaccent" unicode="&#x122;" horiz-adv-x="1359" 
d="M719 -96l-14 -115q-17 -129 -93 -187.5t-215 -58.5l15 109q145 0 176 76h-142l23 176h250zM635 -27q-326 0 -463.5 187.5t-83.5 597.5l10 78q55 410 220 599t454 189q588 0 508 -582l-6 -45h-275q27 197 -25.5 292t-199.5 95h-20q-164 0 -252.5 -134t-124.5 -414l-10 -78
q-72 -545 266 -545h20q89 0 157 30.5t97 61.5l39 297h-231l30 238h506l-86 -660q-31 -36 -74.5 -68.5t-107.5 -65.5t-154.5 -53t-193.5 -20z" />
    <glyph glyph-name="gcommaaccent" unicode="&#x123;" horiz-adv-x="1153" 
d="M674 10l20 156q-49 -51 -124 -87t-169 -36q-128 0 -215.5 67.5t-122 183.5t-14.5 263l6 45q32 235 148.5 372.5t312.5 137.5q218 0 307 -168l39 141h236l-58 -307l-102 -784q-28 -216 -149 -323t-355 -107q-130 0 -224 32t-144 87.5t-68.5 123.5t-7.5 148l6 45h250
q-25 -217 188 -217q119 0 172 52.5t68 174.5zM725 395l47 357q-24 51 -72 90t-122 39q-220 0 -259 -277l-6 -45q-19 -134 30 -209.5t161 -75.5q125 0 221 121zM494 1274l14 115q17 129 92 187t215 58l-14 -108q-145 0 -176 -76h141l-23 -176h-249z" />
    <glyph glyph-name="Hcircumflex" unicode="&#x124;" horiz-adv-x="1341" 
d="M670 1720h-250l274 226h267l213 -226h-242l-117 107zM1051 1597h274l-209 -1597h-274l90 696h-543l-90 -696h-274l208 1597h275l-86 -663h543z" />
    <glyph glyph-name="hcircumflex" unicode="&#x125;" horiz-adv-x="1153" 
d="M18 0l215 1638h267l-86 -651q122 125 319 125q119 0 195 -49.5t102.5 -133t11.5 -194.5l-96 -735h-266l92 700q11 84 -29 132.5t-129 48.5q-134 0 -231 -129l-98 -752h-267zM248 1720h-250l274 226h267l213 -226h-242l-117 107z" />
    <glyph glyph-name="Hbar" unicode="&#x126;" horiz-adv-x="1341" 
d="M1051 1597h274l-209 -1597h-274l90 696h-543l-90 -696h-274l208 1597h275l-29 -225h543zM422 934h543l30 229h-542z" />
    <glyph glyph-name="hbar" unicode="&#x127;" horiz-adv-x="1153" 
d="M29 1264l26 196h154l24 178h267l-25 -178h244l-27 -196h-241l-37 -277q122 125 319 125q119 0 195 -49.5t102.5 -133t11.5 -194.5l-96 -735h-266l92 700q11 84 -29 132.5t-129 48.5q-134 0 -231 -129l-98 -752h-267l166 1264h-155z" />
    <glyph glyph-name="Itilde" unicode="&#x128;" horiz-adv-x="544" 
d="M633 1931h149q-8 -115 -72 -170t-157 -55q-45 0 -88.5 16t-71.5 35t-62 35t-61 16q-34 0 -55 -19t-22 -54h-150q8 115 72 170t157 55q45 0 88.5 -16t71.5 -35t62 -35t61 -16q34 0 55.5 19t22.5 54zM518 1597l-209 -1597h-274l209 1597h274z" />
    <glyph glyph-name="itilde" unicode="&#x129;" horiz-adv-x="512" 
d="M483 1485q67 0 78 80h182q-6 -97 -43.5 -164.5t-90.5 -97t-117 -29.5q-53 0 -108 27t-101.5 54t-79.5 27q-67 0 -78 -79h-182q4 74 26.5 130.5t58 91t78 51.5t89.5 17q42 0 86 -17t74.5 -37t65.5 -37t62 -17zM23 0l141 1085h266l-141 -1085h-266z" />
    <glyph glyph-name="Imacron" unicode="&#x12a;" horiz-adv-x="544" 
d="M119 1747l22 172h566l-23 -172h-565zM518 1597l-209 -1597h-274l209 1597h274z" />
    <glyph glyph-name="imacron" unicode="&#x12b;" horiz-adv-x="512" 
d="M41 1296l31 236h569l-31 -236h-569zM23 0l141 1085h266l-141 -1085h-266z" />
    <glyph glyph-name="Ibreve" unicode="&#x12c;" horiz-adv-x="544" 
d="M393 1692q-99 0 -166.5 19.5t-101 56t-44 79.5t-3.5 99h184q-8 -49 28 -75t120 -26q160 0 176 101h192q-33 -254 -385 -254zM518 1597l-209 -1597h-274l209 1597h274z" />
    <glyph glyph-name="ibreve" unicode="&#x12d;" horiz-adv-x="512" 
d="M313 1206q-193 0 -267 105t-48 286h190q-12 -93 26.5 -139.5t119.5 -46.5t131.5 46.5t62.5 139.5h203q-20 -181 -122.5 -286t-295.5 -105zM23 0l141 1085h266l-141 -1085h-266z" />
    <glyph glyph-name="Iogonek" unicode="&#x12e;" horiz-adv-x="544" 
d="M518 1597l-209 -1597q-56 -18 -110 -67.5t-54 -106.5q0 -72 82 -72q59 0 107 25l41 -168q-82 -49 -199 -49q-244 0 -244 192q0 117 99 219l213 1624h274z" />
    <glyph glyph-name="iogonek" unicode="&#x12f;" horiz-adv-x="512" 
d="M289 0q-56 -18 -110 -67.5t-54 -106.5q0 -72 82 -72q58 0 106 25l41 -168q-82 -49 -198 -49q-244 0 -244 192q0 122 106 228l146 1103h266zM506 1563l-39 -289h-291l39 289h291z" />
    <glyph glyph-name="Idotaccent" unicode="&#x130;" horiz-adv-x="544" 
d="M543 1927l-25 -188h-237l24 188h238zM518 1597l-209 -1597h-274l209 1597h274z" />
    <glyph glyph-name="dotlessi" unicode="&#x131;" horiz-adv-x="512" 
d="M23 0l141 1085h266l-141 -1085h-266z" />
    <glyph glyph-name="IJ" unicode="&#x132;" horiz-adv-x="1173" 
d="M735 401l158 1196h274l-161 -1226q-28 -207 -137 -302.5t-275 -95.5q-69 0 -120 11t-66 22l30 227q35 -20 115 -20q77 0 123 44t59 144zM518 1597l-209 -1597h-274l209 1597h274z" />
    <glyph glyph-name="ij" unicode="&#x133;" horiz-adv-x="925" 
d="M23 0l141 1085h266l-141 -1085h-266zM506 1563l-39 -289h-291l39 289h291zM915 1563l-38 -289h-291l39 289h290zM426 -43l147 1128h267l-152 -1163q-13 -100 -49 -170.5t-93 -111t-126 -58.5t-158 -18q-52 0 -100 9t-64 17l29 222q12 -5 48.5 -11t70.5 -6
q78 0 122.5 34.5t57.5 127.5z" />
    <glyph glyph-name="Jcircumflex" unicode="&#x134;" horiz-adv-x="1073" 
d="M793 1597h274l-145 -1108q-35 -259 -155 -387.5t-351 -128.5q-251 0 -344 132.5t-58 388.5l6 45h261q-30 -165 7 -245.5t128 -80.5q112 0 162.5 70t72.5 241zM819 1720h-250l275 226h266l213 -226h-242l-116 107z" />
    <glyph glyph-name="jcircumflex" unicode="&#x135;" horiz-adv-x="516" 
d="M16 -43l148 1128h266l-151 -1163q-13 -100 -49 -170.5t-93 -111t-126 -58.5t-158 -18q-52 0 -100 9t-64 17l28 222q12 -5 48.5 -11t70.5 -6q78 0 122.5 34.5t57.5 127.5zM717 1231h-234l-135 188l-184 -188h-246l320 366h254z" />
    <glyph glyph-name="Kcommaaccent" unicode="&#x136;" horiz-adv-x="1241" 
d="M651 -96l-14 -115q-17 -130 -92.5 -188t-214.5 -58l14 109q145 0 176 76h-141l22 176h250zM508 1597l-92 -700l557 700h325l-540 -649l332 -948h-297l-232 713l-201 -242l-61 -471h-274l208 1597h275z" />
    <glyph glyph-name="kcommaaccent" unicode="&#x137;" horiz-adv-x="1112" 
d="M10 0l215 1638h267l-127 -962l413 409h332l-420 -405l279 -680h-303l-185 477l-164 -158l-41 -319h-266zM565 -96l-14 -115q-17 -130 -92.5 -188t-214.5 -58l14 109q145 0 176 76h-141l22 176h250z" />
    <glyph glyph-name="kgreenlandic" unicode="&#x138;" horiz-adv-x="1112" 
d="M154 1085h264l-53 -409l413 409h332l-420 -405l279 -680h-303l-185 477l-164 -158l-41 -319h-266z" />
    <glyph glyph-name="Lacute" unicode="&#x139;" horiz-adv-x="1046" 
d="M915 0h-890l208 1597h275l-178 -1357h616zM399 1946h281l-160 -226h-266z" />
    <glyph glyph-name="lacute" unicode="&#x13a;" horiz-adv-x="512" 
d="M23 0l215 1638h266l-215 -1638h-266zM393 1946h281l-160 -226h-266z" />
    <glyph glyph-name="Lcommaaccent" unicode="&#x13b;" horiz-adv-x="1046" 
d="M582 -96l-15 -115q-17 -130 -92.5 -188t-214.5 -58l14 109q146 0 177 76h-142l23 176h250zM915 0h-890l208 1597h275l-178 -1357h616z" />
    <glyph glyph-name="lcommaaccent" unicode="&#x13c;" horiz-adv-x="512" 
d="M23 0l215 1638h266l-215 -1638h-266zM266 -96l-14 -115q-17 -130 -92.5 -188t-214.5 -58l14 109q145 0 176 76h-141l22 176h250z" />
    <glyph glyph-name="Lcaron" unicode="&#x13d;" horiz-adv-x="1046" 
d="M915 0h-890l208 1597h275l-178 -1357h616zM768 1638h174l-100 -407h-127z" />
    <glyph glyph-name="lcaron" unicode="&#x13e;" horiz-adv-x="512" 
d="M629 1638h174l-101 -407h-127zM23 0l215 1638h266l-215 -1638h-266z" />
    <glyph glyph-name="Ldot" unicode="&#x13f;" horiz-adv-x="1046" 
d="M915 0h-890l208 1597h275l-178 -1357h616zM950 961l-39 -289h-290l38 289h291z" />
    <glyph glyph-name="ldot" unicode="&#x140;" horiz-adv-x="831" 
d="M23 0l215 1638h266l-215 -1638h-266zM829 862l-38 -291h-291l39 291h290z" />
    <glyph glyph-name="Lslash" unicode="&#x141;" horiz-adv-x="1169" 
d="M-16 434l30 234l236 112l106 817h275l-90 -682l422 197l-31 -233l-422 -197l-57 -442h616l-31 -240h-891l72 547z" />
    <glyph glyph-name="lslash" unicode="&#x142;" horiz-adv-x="749" 
d="M10 436l31 232l201 123l110 847h266l-88 -669l234 143l-31 -231l-233 -144l-97 -737h-266l74 559z" />
    <glyph glyph-name="Nacute" unicode="&#x143;" horiz-adv-x="1382" 
d="M829 1946h281l-160 -226h-266zM233 1597h285l447 -1101l34 338l99 763h268l-209 -1597h-285l-446 1102l-35 -338l-98 -764h-268z" />
    <glyph glyph-name="nacute" unicode="&#x144;" horiz-adv-x="1153" 
d="M745 1597h291l-258 -366h-266zM946 0h-266l92 700q11 84 -29 132.5t-129 48.5q-134 0 -231 -129l-98 -752h-267l103 778l20 307h236v-141q58 78 149 123t207 45q119 0 195 -49.5t102.5 -133t11.5 -194.5z" />
    <glyph glyph-name="Ncommaaccent" unicode="&#x145;" horiz-adv-x="1382" 
d="M702 -96l-14 -115q-17 -130 -92.5 -188t-214.5 -58l14 109q145 0 176 76h-141l23 176h249zM233 1597h285l447 -1101l34 338l99 763h268l-209 -1597h-285l-446 1102l-35 -338l-98 -764h-268z" />
    <glyph glyph-name="ncommaaccent" unicode="&#x146;" horiz-adv-x="1153" 
d="M594 -96l-14 -115q-17 -129 -93 -187.5t-215 -58.5l15 109q145 0 176 76h-141l22 176h250zM946 0h-266l92 700q11 84 -29 132.5t-129 48.5q-134 0 -231 -129l-98 -752h-267l103 778l20 307h236v-141q58 78 149 123t207 45q119 0 195 -49.5t102.5 -133t11.5 -194.5z" />
    <glyph glyph-name="Ncaron" unicode="&#x147;" horiz-adv-x="1382" 
d="M975 1946h250l-275 -226h-266l-213 226h242l116 -107zM233 1597h285l447 -1101l34 338l99 763h268l-209 -1597h-285l-446 1102l-35 -338l-98 -764h-268z" />
    <glyph glyph-name="ncaron" unicode="&#x148;" horiz-adv-x="1153" 
d="M293 1597h233l136 -188l184 188h246l-320 -366h-254zM946 0h-266l92 700q11 84 -29 132.5t-129 48.5q-134 0 -231 -129l-98 -752h-267l103 778l20 307h236v-141q58 78 149 123t207 45q119 0 195 -49.5t102.5 -133t11.5 -194.5z" />
    <glyph glyph-name="Eng" unicode="&#x14a;" horiz-adv-x="1382" 
d="M885 -43l2 12l-461 1133l-35 -338l-98 -764h-268l208 1597h285l447 -1101l34 338l99 763h268l-207 -1581l-2 -16l-10 -78q-13 -100 -49 -170.5t-93 -111t-126 -58.5t-158 -18q-52 0 -100 9t-64 17l29 222q12 -5 48.5 -11t70.5 -6q78 0 122.5 34.5t57.5 127.5z" />
    <glyph glyph-name="eng" unicode="&#x14b;" horiz-adv-x="1153" 
d="M1042 735l-106 -813q-13 -100 -49 -170.5t-93 -111t-126 -58.5t-158 -18q-52 0 -100 9t-64 17l29 222q12 -5 48.5 -11t70.5 -6q78 0 122.5 34.5t57.5 127.5l98 743q11 84 -29 132.5t-129 48.5q-134 0 -231 -129l-98 -752h-267l103 778l20 307h236v-141q58 78 149 123
t207 45q119 0 195 -49.5t102.5 -133t11.5 -194.5z" />
    <glyph glyph-name="Omacron" unicode="&#x14c;" horiz-adv-x="1361" 
d="M528 1747l23 172h565l-22 -172h-566zM1280 840l-10 -78q-55 -410 -220 -599.5t-454 -189.5q-214 0 -337 80t-165.5 252.5t-5.5 452.5l10 78q55 410 220 599t454 189q214 0 337 -79.5t165.5 -252t5.5 -452.5zM991 762l10 78q38 284 -13 414t-214 130h-20
q-164 0 -252.5 -134t-124.5 -414l-10 -78q-38 -284 13 -414.5t214 -130.5h20q164 0 252.5 134.5t124.5 414.5z" />
    <glyph glyph-name="omacron" unicode="&#x14d;" horiz-adv-x="1132" 
d="M350 1296l31 236h569l-30 -236h-570zM498 205q221 0 264 311l6 45q21 150 -26.5 235t-163.5 85q-222 0 -265 -312l-6 -45q-21 -150 27 -234.5t164 -84.5zM492 -27q-167 0 -277 74t-151.5 196.5t-20.5 278.5l6 45q76 545 535 545q126 0 220.5 -42.5t148.5 -117t74.5 -174
t4.5 -215.5l-6 -45q-76 -545 -534 -545z" />
    <glyph glyph-name="Obreve" unicode="&#x14e;" horiz-adv-x="1361" 
d="M803 1692q-99 0 -167 19.5t-101 56t-44 80t-4 98.5h185q-16 -101 147 -101q160 0 176 101h193q-33 -254 -385 -254zM1280 840l-10 -78q-55 -410 -220 -599.5t-454 -189.5q-214 0 -337 80t-165.5 252.5t-5.5 452.5l10 78q55 410 220 599t454 189q214 0 337 -79.5
t165.5 -252t5.5 -452.5zM991 762l10 78q38 284 -13 414t-214 130h-20q-164 0 -252.5 -134t-124.5 -414l-10 -78q-38 -284 13 -414.5t214 -130.5h20q164 0 252.5 134.5t124.5 414.5z" />
    <glyph glyph-name="obreve" unicode="&#x14f;" horiz-adv-x="1132" 
d="M623 1206q-193 0 -267.5 105t-48.5 286h191q-23 -186 145 -186q82 0 132.5 46.5t62.5 139.5h202q-20 -181 -122 -286t-295 -105zM498 205q221 0 264 311l6 45q21 150 -26.5 235t-163.5 85q-222 0 -265 -312l-6 -45q-21 -150 27 -234.5t164 -84.5zM492 -27q-167 0 -277 74
t-151.5 196.5t-20.5 278.5l6 45q76 545 535 545q126 0 220.5 -42.5t148.5 -117t74.5 -174t4.5 -215.5l-6 -45q-76 -545 -534 -545z" />
    <glyph glyph-name="Ohungarumlaut" unicode="&#x150;" horiz-adv-x="1361" 
d="M664 1946h254l-148 -226h-242zM991 1946h254l-160 -226h-241zM1280 840l-10 -78q-55 -410 -220 -599.5t-454 -189.5q-214 0 -337 80t-165.5 252.5t-5.5 452.5l10 78q55 410 220 599t454 189q214 0 337 -79.5t165.5 -252t5.5 -452.5zM991 762l10 78q38 284 -13 414
t-214 130h-20q-164 0 -252.5 -134t-124.5 -414l-10 -78q-38 -284 13 -414.5t214 -130.5h20q164 0 252.5 134.5t124.5 414.5z" />
    <glyph glyph-name="ohungarumlaut" unicode="&#x151;" horiz-adv-x="1132" 
d="M903 1597h240l-258 -366h-215zM563 1597h240l-221 -366h-215zM498 205q221 0 264 311l6 45q21 150 -26.5 235t-163.5 85q-222 0 -265 -312l-6 -45q-21 -150 27 -234.5t164 -84.5zM492 -27q-167 0 -277 74t-151.5 196.5t-20.5 278.5l6 45q76 545 535 545
q126 0 220.5 -42.5t148.5 -117t74.5 -174t4.5 -215.5l-6 -45q-76 -545 -534 -545z" />
    <glyph glyph-name="OE" unicode="&#x152;" horiz-adv-x="1925" 
d="M88 758l10 78q36 276 124.5 443t237 242.5t376.5 75.5h1116l-31 -239h-676l-55 -424h571l-30 -238h-574l-59 -456h676l-31 -240h-1077q-115 0 -205.5 17.5t-163 56t-119 98t-74.5 144t-30.5 194.5t14.5 248zM971 1358h-135q-214 0 -318 -119t-141 -403l-10 -78
q-36 -272 36 -395t273 -123h147z" />
    <glyph glyph-name="oe" unicode="&#x153;" horiz-adv-x="1847" 
d="M1731 444h-719q-10 -130 48 -197t175 -67q106 0 164.5 49.5t66.5 118.5h252l-2 -18q-18 -158 -143.5 -257.5t-343.5 -99.5q-278 0 -371 181q-109 -181 -366 -181q-167 0 -277 74t-151.5 196.5t-20.5 278.5l6 45q76 545 535 545q262 0 352 -188q118 188 367 188
q127 0 221 -41.5t147 -117t72 -178.5t2 -228zM498 205q221 0 264 311l6 45q21 150 -26.5 235t-163.5 85q-222 0 -265 -312l-6 -45q-21 -150 27 -234.5t164 -84.5zM1292 905q-102 0 -168 -68.5t-88 -195.5h455q14 123 -38 193.5t-161 70.5z" />
    <glyph glyph-name="Racute" unicode="&#x154;" horiz-adv-x="1251" 
d="M731 1946h281l-160 -226h-266zM377 596l-78 -596h-274l208 1597h484q81 0 153 -13t142 -47t117 -86.5t69.5 -137.5t7.5 -193l-6 -45q-46 -335 -315 -436l174 -639h-297l-150 596h-235zM408 836h239q122 0 190.5 57t86.5 197l2 16q5 52 2.5 91t-17.5 67t-34 46.5t-47 29
t-56.5 14.5t-62.5 4h-234z" />
    <glyph glyph-name="racute" unicode="&#x155;" horiz-adv-x="753" 
d="M561 1597h291l-258 -366h-266zM696 1112l31 -2l-35 -270h-47q-89 0 -159.5 -34t-106.5 -81l-94 -725h-267l103 778l20 307h236v-137q48 73 134.5 118.5t184.5 45.5z" />
    <glyph glyph-name="Rcommaaccent" unicode="&#x156;" horiz-adv-x="1251" 
d="M635 -96l-14 -115q-17 -129 -93 -187.5t-215 -58.5l15 109q145 0 176 76h-142l23 176h250zM377 596l-78 -596h-274l208 1597h484q81 0 153 -13t142 -47t117 -86.5t69.5 -137.5t7.5 -193l-6 -45q-46 -335 -315 -436l174 -639h-297l-150 596h-235zM408 836h239
q122 0 190.5 57t86.5 197l2 16q5 52 2.5 91t-17.5 67t-34 46.5t-47 29t-56.5 14.5t-62.5 4h-234z" />
    <glyph glyph-name="rcommaaccent" unicode="&#x157;" horiz-adv-x="753" 
d="M264 -96l-14 -115q-17 -130 -92.5 -188t-214.5 -58l14 109q145 0 176 76h-141l22 176h250zM696 1112l31 -2l-35 -270h-47q-89 0 -159.5 -34t-106.5 -81l-94 -725h-267l103 778l20 307h236v-137q48 73 134.5 118.5t184.5 45.5z" />
    <glyph glyph-name="Rcaron" unicode="&#x158;" horiz-adv-x="1251" 
d="M877 1946h249l-274 -226h-266l-213 226h241l117 -107zM377 596l-78 -596h-274l208 1597h484q81 0 153 -13t142 -47t117 -86.5t69.5 -137.5t7.5 -193l-6 -45q-46 -335 -315 -436l174 -639h-297l-150 596h-235zM408 836h239q122 0 190.5 57t86.5 197l2 16q5 52 2.5 91
t-17.5 67t-34 46.5t-47 29t-56.5 14.5t-62.5 4h-234z" />
    <glyph glyph-name="rcaron" unicode="&#x159;" horiz-adv-x="753" 
d="M109 1597h233l135 -188l185 188h245l-319 -366h-254zM696 1112l31 -2l-35 -270h-47q-89 0 -159.5 -34t-106.5 -81l-94 -725h-267l103 778l20 307h236v-137q48 73 134.5 118.5t184.5 45.5z" />
    <glyph glyph-name="Sacute" unicode="&#x15a;" horiz-adv-x="1271" 
d="M774 1946h281l-160 -226h-266zM575 698q-488 88 -436 461l6 45q27 202 179 311t391 109q581 0 508 -541l-6 -45h-275q26 179 -28.5 262.5t-196.5 83.5h-21q-115 0 -189.5 -53t-84.5 -145l-2 -17q-6 -50 2.5 -85.5t39 -67.5t91.5 -55.5t156 -40.5q253 -45 362.5 -164
t83.5 -314l-6 -45q-28 -206 -179.5 -315t-412.5 -109q-278 0 -414.5 132.5t-101.5 388.5l6 45h275q-28 -168 34.5 -247t198.5 -79h20q130 0 207.5 52t89.5 151l2 16q13 105 -52.5 169.5t-246.5 96.5z" />
    <glyph glyph-name="sacute" unicode="&#x15b;" horiz-adv-x="1077" 
d="M700 1597h291l-258 -366h-266zM469 180q80 0 138.5 36.5t58.5 111.5q0 59 -45.5 88.5t-147.5 40.5q-217 24 -302.5 100t-70.5 223l2 19q17 149 145 231t316 82q236 0 334 -93t78 -269l-2 -19h-260q11 86 -26.5 130t-139.5 44q-74 0 -130.5 -35t-56.5 -106q0 -53 41 -79
t148 -36q98 -10 168.5 -31.5t123.5 -59.5t75.5 -99t13.5 -144l-2 -18q-15 -144 -142.5 -234t-332.5 -90q-239 0 -340.5 93.5t-83.5 255.5l2 18h264q-11 -74 31 -117t143 -43z" />
    <glyph glyph-name="Scircumflex" unicode="&#x15c;" horiz-adv-x="1271" 
d="M635 1720h-250l274 226h267l213 -226h-242l-117 107zM575 698q-488 88 -436 461l6 45q27 202 179 311t391 109q581 0 508 -541l-6 -45h-275q26 179 -28.5 262.5t-196.5 83.5h-21q-115 0 -189.5 -53t-84.5 -145l-2 -17q-6 -50 2.5 -85.5t39 -67.5t91.5 -55.5t156 -40.5
q253 -45 362.5 -164t83.5 -314l-6 -45q-28 -206 -179.5 -315t-412.5 -109q-278 0 -414.5 132.5t-101.5 388.5l6 45h275q-28 -168 34.5 -247t198.5 -79h20q130 0 207.5 52t89.5 151l2 16q13 105 -52.5 169.5t-246.5 96.5z" />
    <glyph glyph-name="scircumflex" unicode="&#x15d;" horiz-adv-x="1077" 
d="M999 1231h-233l-135 188l-185 -188h-245l319 366h254zM469 180q80 0 138.5 36.5t58.5 111.5q0 59 -45.5 88.5t-147.5 40.5q-217 24 -302.5 100t-70.5 223l2 19q17 149 145 231t316 82q236 0 334 -93t78 -269l-2 -19h-260q11 86 -26.5 130t-139.5 44q-74 0 -130.5 -35
t-56.5 -106q0 -53 41 -79t148 -36q98 -10 168.5 -31.5t123.5 -59.5t75.5 -99t13.5 -144l-2 -18q-15 -144 -142.5 -234t-332.5 -90q-239 0 -340.5 93.5t-83.5 255.5l2 18h264q-11 -74 31 -117t143 -43z" />
    <glyph glyph-name="Scedilla" unicode="&#x15e;" horiz-adv-x="1271" 
d="M575 698q-488 88 -436 461l6 45q27 202 179 311t391 109q581 0 508 -541l-6 -45h-275q26 179 -28.5 262.5t-196.5 83.5h-21q-115 0 -189.5 -53t-84.5 -145l-2 -17q-6 -50 2.5 -85.5t39 -67.5t91.5 -55.5t156 -40.5q253 -45 362.5 -164t83.5 -314l-6 -45
q-28 -199 -169.5 -308t-385.5 -116l-33 -65q82 -7 133 -44t51 -110q0 -90 -71 -141t-189 -51q-135 0 -202 49l57 121q54 -33 147 -33q105 0 105 53q0 49 -94 49q-18 0 -37.5 -2t-30.5 -4l-10 -2l-27 53l68 131q-231 22 -341.5 153t-78.5 364l6 45h275q-28 -168 34.5 -247
t198.5 -79h20q130 0 207.5 52t89.5 151l2 16q13 105 -52.5 169.5t-246.5 96.5z" />
    <glyph glyph-name="scedilla" unicode="&#x15f;" horiz-adv-x="1077" 
d="M469 180q80 0 138.5 36.5t58.5 111.5q0 59 -45.5 88.5t-147.5 40.5q-217 24 -302.5 100t-70.5 223l2 19q17 149 145 231t316 82q236 0 334 -93t78 -269l-2 -19h-260q11 86 -26.5 130t-139.5 44q-74 0 -130.5 -35t-56.5 -106q0 -53 41 -79t148 -36q98 -10 168.5 -31.5
t123.5 -59.5t75.5 -99t13.5 -144l-2 -18q-15 -137 -131 -225t-305 -97l-33 -67q82 -7 133 -44t51 -110q0 -90 -71 -141t-189 -51q-136 0 -203 49l58 121q54 -33 147 -33q104 0 104 53q0 49 -94 49q-18 0 -37.5 -2t-29.5 -4l-11 -2l-26 53l67 131q-187 18 -266 109.5
t-63 235.5l2 18h264q-11 -74 31 -117t143 -43z" />
    <glyph glyph-name="Scaron" unicode="&#x160;" horiz-adv-x="1271" 
d="M920 1946h249l-274 -226h-266l-213 226h241l117 -107zM575 698q-488 88 -436 461l6 45q27 202 179 311t391 109q581 0 508 -541l-6 -45h-275q26 179 -28.5 262.5t-196.5 83.5h-21q-115 0 -189.5 -53t-84.5 -145l-2 -17q-6 -50 2.5 -85.5t39 -67.5t91.5 -55.5t156 -40.5
q253 -45 362.5 -164t83.5 -314l-6 -45q-28 -206 -179.5 -315t-412.5 -109q-278 0 -414.5 132.5t-101.5 388.5l6 45h275q-28 -168 34.5 -247t198.5 -79h20q130 0 207.5 52t89.5 151l2 16q13 105 -52.5 169.5t-246.5 96.5z" />
    <glyph glyph-name="scaron" unicode="&#x161;" horiz-adv-x="1077" 
d="M248 1597h233l135 -188l185 188h246l-320 -366h-254zM469 180q80 0 138.5 36.5t58.5 111.5q0 59 -45.5 88.5t-147.5 40.5q-217 24 -302.5 100t-70.5 223l2 19q17 149 145 231t316 82q236 0 334 -93t78 -269l-2 -19h-260q11 86 -26.5 130t-139.5 44q-74 0 -130.5 -35
t-56.5 -106q0 -53 41 -79t148 -36q98 -10 168.5 -31.5t123.5 -59.5t75.5 -99t13.5 -144l-2 -18q-15 -144 -142.5 -234t-332.5 -90q-239 0 -340.5 93.5t-83.5 255.5l2 18h264q-11 -74 31 -117t143 -43z" />
    <glyph glyph-name="Tcommaaccent" unicode="&#x162;" horiz-adv-x="1114" 
d="M567 -96l-14 -115q-17 -130 -92.5 -188t-214.5 -58l14 109q145 0 176 76h-141l22 176h250zM772 1358l-178 -1358h-275l179 1358h-381l30 239h1037l-31 -239h-381z" />
    <glyph glyph-name="tcommaaccent" unicode="&#x163;" horiz-adv-x="862" 
d="M520 1085h301l-30 -233h-302l-61 -467q-12 -101 30 -140.5t124 -39.5q69 0 106 16l-29 -221q-61 -27 -157 -27q-182 0 -276 90t-68 287l65 502h-166l31 233h166l41 308h266zM508 -96l-14 -115q-17 -129 -93 -187.5t-215 -58.5l15 109q145 0 176 76h-141l22 176h250z" />
    <glyph glyph-name="Tcaron" unicode="&#x164;" horiz-adv-x="1114" 
d="M840 1946h250l-275 -226h-266l-213 226h242l116 -107zM772 1358l-178 -1358h-275l179 1358h-381l30 239h1037l-31 -239h-381z" />
    <glyph glyph-name="tcaron" unicode="&#x165;" horiz-adv-x="862" 
d="M520 1085h301l-30 -233h-302l-61 -467q-12 -101 30 -140.5t124 -39.5q69 0 106 16l-29 -221q-61 -27 -157 -27q-182 0 -276 90t-68 287l65 502h-166l31 233h166l41 308h266zM719 1638h174l-100 -407h-127z" />
    <glyph glyph-name="Tbar" unicode="&#x166;" horiz-adv-x="1114" 
d="M772 1358l-57 -436h241l-28 -209h-242l-92 -713h-275l93 713h-242l29 209h241l58 436h-381l30 239h1037l-31 -239h-381z" />
    <glyph glyph-name="tbar" unicode="&#x167;" horiz-adv-x="862" 
d="M29 444l26 197h140l28 211h-166l31 233h166l41 308h266l-41 -308h301l-30 -233h-302l-28 -211h221l-27 -197h-219l-8 -59q-12 -101 30 -140.5t124 -39.5q69 0 106 16l-29 -221q-61 -27 -157 -27q-182 0 -276 90t-68 287l12 94h-141z" />
    <glyph glyph-name="Utilde" unicode="&#x168;" horiz-adv-x="1341" 
d="M1032 1931h150q-8 -115 -72.5 -170t-157.5 -55q-57 0 -109.5 25.5t-95.5 51t-77 25.5t-55.5 -19t-22.5 -54h-150q8 115 72.5 170t157.5 55q57 0 109.5 -25.5t95.5 -51t77 -25.5t55.5 19t22.5 54zM588 -27q-300 0 -421 131.5t-87 397.5l143 1095h275l-142 -1077
q-21 -162 30 -234.5t202 -72.5q154 0 232 69t98 224l143 1091h274l-145 -1112q-24 -181 -91 -292t-192 -165.5t-319 -54.5z" />
    <glyph glyph-name="utilde" unicode="&#x169;" horiz-adv-x="1153" 
d="M150 1085h266l-92 -700q-11 -84 28.5 -132t128.5 -48q135 0 232 129l98 751h266l-102 -778l-21 -307h-235v141q-58 -78 -149.5 -123t-207.5 -45q-119 0 -195 49.5t-102.5 133t-11.5 194.5zM797 1485q66 0 77 80h183q-4 -74 -26.5 -131t-58 -91t-78 -51.5t-89.5 -17.5
q-53 0 -108 27t-101.5 54t-79.5 27q-67 0 -78 -79h-182q4 74 26.5 130.5t58 91t78 51.5t89.5 17q53 0 108 -27t101.5 -54t79.5 -27z" />
    <glyph glyph-name="Umacron" unicode="&#x16a;" horiz-adv-x="1341" 
d="M518 1747l23 172h565l-23 -172h-565zM588 -27q-300 0 -421 131.5t-87 397.5l143 1095h275l-142 -1077q-21 -162 30 -234.5t202 -72.5q154 0 232 69t98 224l143 1091h274l-145 -1112q-24 -181 -91 -292t-192 -165.5t-319 -54.5z" />
    <glyph glyph-name="umacron" unicode="&#x16b;" horiz-adv-x="1153" 
d="M354 1296l31 236h569l-30 -236h-570zM150 1085h266l-92 -700q-11 -84 28.5 -132t128.5 -48q135 0 232 129l98 751h266l-102 -778l-21 -307h-235v141q-58 -78 -149.5 -123t-207.5 -45q-119 0 -195 49.5t-102.5 133t-11.5 194.5z" />
    <glyph glyph-name="Ubreve" unicode="&#x16c;" horiz-adv-x="1341" 
d="M793 1692q-99 0 -167 19.5t-101 56t-44 80t-4 98.5h185q-16 -101 147 -101q160 0 176 101h193q-33 -254 -385 -254zM588 -27q-300 0 -421 131.5t-87 397.5l143 1095h275l-142 -1077q-21 -162 30 -234.5t202 -72.5q154 0 232 69t98 224l143 1091h274l-145 -1112
q-24 -181 -91 -292t-192 -165.5t-319 -54.5z" />
    <glyph glyph-name="ubreve" unicode="&#x16d;" horiz-adv-x="1153" 
d="M627 1206q-193 0 -267.5 105t-48.5 286h191q-23 -186 145 -186q82 0 132.5 46.5t62.5 139.5h202q-20 -181 -122 -286t-295 -105zM150 1085h266l-92 -700q-11 -84 28.5 -132t128.5 -48q135 0 232 129l98 751h266l-102 -778l-21 -307h-235v141q-58 -78 -149.5 -123
t-207.5 -45q-119 0 -195 49.5t-102.5 133t-11.5 194.5z" />
    <glyph glyph-name="Uring" unicode="&#x16e;" horiz-adv-x="1341" 
d="M592 1751q0 94 67 158.5t158 64.5q86 0 141.5 -54.5t55.5 -141.5q0 -94 -67.5 -159t-158.5 -65q-85 0 -140.5 55t-55.5 142zM909 1778q0 43 -25.5 68.5t-66.5 25.5q-50 0 -85.5 -32.5t-35.5 -88.5q0 -43 25.5 -68.5t66.5 -25.5q50 0 85.5 32.5t35.5 88.5zM588 -27
q-300 0 -421 131.5t-87 397.5l143 1095h275l-142 -1077q-21 -162 30 -234.5t202 -72.5q154 0 232 69t98 224l143 1091h274l-145 -1112q-24 -181 -91 -292t-192 -165.5t-319 -54.5z" />
    <glyph glyph-name="uring" unicode="&#x16f;" horiz-adv-x="1153" 
d="M150 1085h266l-92 -700q-11 -84 28.5 -132t128.5 -48q135 0 232 129l98 751h266l-102 -778l-21 -307h-235v141q-58 -78 -149.5 -123t-207.5 -45q-119 0 -195 49.5t-102.5 133t-11.5 194.5zM442 1403q0 94 67.5 158.5t158.5 64.5q85 0 140.5 -54.5t55.5 -141.5
q0 -94 -67 -159t-158 -65q-85 0 -141 55t-56 142zM760 1430q0 43 -25.5 68.5t-66.5 25.5q-50 0 -85.5 -32.5t-35.5 -88.5q0 -43 25.5 -68.5t66.5 -25.5q50 0 85.5 32.5t35.5 88.5z" />
    <glyph glyph-name="Uhungarumlaut" unicode="&#x170;" horiz-adv-x="1341" 
d="M653 1946h254l-147 -226h-242zM981 1946h254l-160 -226h-241zM588 -27q-300 0 -421 131.5t-87 397.5l143 1095h275l-142 -1077q-21 -162 30 -234.5t202 -72.5q154 0 232 69t98 224l143 1091h274l-145 -1112q-24 -181 -91 -292t-192 -165.5t-319 -54.5z" />
    <glyph glyph-name="uhungarumlaut" unicode="&#x171;" horiz-adv-x="1153" 
d="M907 1597h240l-258 -366h-215zM567 1597h240l-221 -366h-215zM150 1085h266l-92 -700q-11 -84 28.5 -132t128.5 -48q135 0 232 129l98 751h266l-102 -778l-21 -307h-235v141q-58 -78 -149.5 -123t-207.5 -45q-119 0 -195 49.5t-102.5 133t-11.5 194.5z" />
    <glyph glyph-name="Uogonek" unicode="&#x172;" horiz-adv-x="1341" 
d="M825 0q-54 -14 -108.5 -65t-54.5 -109q0 -72 81 -72q59 0 107 25l41 -168q-82 -49 -199 -49q-243 0 -243 192q0 118 98 219q-277 9 -389 140.5t-78 388.5l143 1095h275l-142 -1077q-21 -162 30 -234.5t202 -72.5q154 0 232 69t98 224l143 1091h274l-145 -1112
q-28 -209 -114 -326t-251 -159z" />
    <glyph glyph-name="uogonek" unicode="&#x173;" horiz-adv-x="1153" 
d="M150 1085h266l-92 -700q-11 -84 28.5 -132t128.5 -48q135 0 232 129l98 751h266l-102 -778l-21 -307q-56 -18 -109.5 -67.5t-53.5 -106.5q0 -72 81 -72q59 0 107 25l41 -168q-82 -49 -199 -49q-243 0 -243 192q0 145 141 256v131q-58 -78 -149.5 -123t-207.5 -45
q-119 0 -195 49.5t-102.5 133t-11.5 194.5z" />
    <glyph glyph-name="Wcircumflex" unicode="&#x174;" horiz-adv-x="1892" 
d="M944 1720h-250l275 226h266l213 -226h-242l-116 107zM1108 -8l-92 1294l-432 -1294h-359l-63 1605h284l19 -1237l414 1237h352l88 -1237l346 1237h283l-486 -1605h-354z" />
    <glyph glyph-name="wcircumflex" unicode="&#x175;" horiz-adv-x="1536" 
d="M1229 1231h-234l-135 188l-184 -188h-246l320 366h254zM774 819l-289 -819h-338l-59 1085h258l12 -798l289 798h324l80 -798l219 798h262l-344 -1085h-338z" />
    <glyph glyph-name="Ycircumflex" unicode="&#x176;" horiz-adv-x="1249" 
d="M623 1720h-250l274 226h266l213 -226h-241l-117 107zM725 487l-63 -487h-275l64 487l-318 1110h293l199 -772l403 772h305z" />
    <glyph glyph-name="ycircumflex" unicode="&#x177;" horiz-adv-x="1085" 
d="M1010 1231h-234l-135 188l-184 -188h-246l319 366h254zM487 332l336 753h293l-522 -1044l-201 -451h-315l244 451l-259 1044h283z" />
    <glyph glyph-name="Ydieresis" unicode="&#x178;" horiz-adv-x="1249" 
d="M721 1927l-25 -188h-237l24 188h238zM1069 1927l-25 -188h-237l24 188h238zM725 487l-63 -487h-275l64 487l-318 1110h293l199 -772l403 772h305z" />
    <glyph glyph-name="Zacute" unicode="&#x179;" horiz-adv-x="1202" 
d="M731 1946h281l-160 -226h-266zM4 188l846 1176l-283 -6h-389l31 239h997l-24 -188l-846 -1176l282 7h431l-31 -240h-1038z" />
    <glyph glyph-name="zacute" unicode="&#x17a;" horiz-adv-x="1001" 
d="M659 1597h291l-258 -366h-266zM-20 186l604 672l-234 -6h-264l31 233h846l-25 -186l-604 -672l233 6h305l-30 -233h-887z" />
    <glyph glyph-name="Zdotaccent" unicode="&#x17b;" horiz-adv-x="1202" 
d="M864 1927l-24 -188h-238l25 188h237zM4 188l846 1176l-283 -6h-389l31 239h997l-24 -188l-846 -1176l282 7h431l-31 -240h-1038z" />
    <glyph glyph-name="zdotaccent" unicode="&#x17c;" horiz-adv-x="1001" 
d="M748 1563l-39 -289h-291l39 289h291zM-20 186l604 672l-234 -6h-264l31 233h846l-25 -186l-604 -672l233 6h305l-30 -233h-887z" />
    <glyph glyph-name="Zcaron" unicode="&#x17d;" horiz-adv-x="1202" 
d="M877 1946h249l-274 -226h-266l-213 226h241l117 -107zM4 188l846 1176l-283 -6h-389l31 239h997l-24 -188l-846 -1176l282 7h431l-31 -240h-1038z" />
    <glyph glyph-name="zcaron" unicode="&#x17e;" horiz-adv-x="1001" 
d="M207 1597h233l135 -188l185 188h246l-320 -366h-254zM-20 186l604 672l-234 -6h-264l31 233h846l-25 -186l-604 -672l233 6h305l-30 -233h-887z" />
    <glyph glyph-name="Scommaaccent" unicode="&#x218;" horiz-adv-x="1271" 
d="M647 -96l-14 -115q-17 -130 -92.5 -188t-214.5 -58l14 109q145 0 176 76h-141l22 176h250zM575 698q-488 88 -436 461l6 45q27 202 179 311t391 109q581 0 508 -541l-6 -45h-275q26 179 -28.5 262.5t-196.5 83.5h-21q-115 0 -189.5 -53t-84.5 -145l-2 -17
q-6 -50 2.5 -85.5t39 -67.5t91.5 -55.5t156 -40.5q253 -45 362.5 -164t83.5 -314l-6 -45q-28 -206 -179.5 -315t-412.5 -109q-278 0 -414.5 132.5t-101.5 388.5l6 45h275q-28 -168 34.5 -247t198.5 -79h20q130 0 207.5 52t89.5 151l2 16q13 105 -52.5 169.5t-246.5 96.5z
" />
    <glyph glyph-name="scommaaccent" unicode="&#x219;" horiz-adv-x="1077" 
d="M549 -96l-14 -115q-17 -129 -93 -187.5t-215 -58.5l15 109q145 0 176 76h-142l23 176h250zM469 180q80 0 138.5 36.5t58.5 111.5q0 59 -45.5 88.5t-147.5 40.5q-217 24 -302.5 100t-70.5 223l2 19q17 149 145 231t316 82q236 0 334 -93t78 -269l-2 -19h-260
q11 86 -26.5 130t-139.5 44q-74 0 -130.5 -35t-56.5 -106q0 -53 41 -79t148 -36q98 -10 168.5 -31.5t123.5 -59.5t75.5 -99t13.5 -144l-2 -18q-15 -144 -142.5 -234t-332.5 -90q-239 0 -340.5 93.5t-83.5 255.5l2 18h264q-11 -74 31 -117t143 -43z" />
    <glyph glyph-name="Ymacron" unicode="&#x232;" horiz-adv-x="1249" 
d="M471 1747l23 172h565l-23 -172h-565zM725 487l-63 -487h-275l64 487l-318 1110h293l199 -772l403 772h305z" />
    <glyph glyph-name="ymacron" unicode="&#x233;" horiz-adv-x="1085" 
d="M334 1296l31 236h569l-31 -236h-569zM487 332l336 753h293l-522 -1044l-201 -451h-315l244 451l-259 1044h283z" />
    <glyph glyph-name="dotlessj" unicode="&#x237;" horiz-adv-x="516" 
d="M16 -43l148 1128h266l-151 -1163q-13 -100 -49 -170.5t-93 -111t-126 -58.5t-158 -18q-52 0 -100 9t-64 17l28 222q12 -5 48.5 -11t70.5 -6q78 0 122.5 34.5t57.5 127.5z" />
    <glyph glyph-name="circumflex" unicode="&#x2c6;" horiz-adv-x="1024" 
d="M973 1231h-234l-135 188l-184 -188h-246l320 366h254z" />
    <glyph glyph-name="caron" unicode="&#x2c7;" horiz-adv-x="1024" 
d="M221 1597h234l135 -188l184 188h246l-320 -366h-254z" />
    <glyph glyph-name="breve" unicode="&#x2d8;" horiz-adv-x="1024" 
d="M569 1206q-193 0 -267 105t-48 286h190q-12 -93 26.5 -139.5t119.5 -46.5t131.5 46.5t62.5 139.5h203q-20 -181 -122.5 -286t-295.5 -105z" />
    <glyph glyph-name="dotaccent" unicode="&#x2d9;" horiz-adv-x="1024" 
d="M762 1563l-39 -289h-291l39 289h291z" />
    <glyph glyph-name="ring" unicode="&#x2da;" horiz-adv-x="1024" 
d="M385 1403q0 94 67 158.5t158 64.5q86 0 141.5 -54.5t55.5 -141.5q0 -94 -67 -159t-158 -65q-85 0 -141 55t-56 142zM702 1430q0 43 -25.5 68.5t-66.5 25.5q-50 0 -85.5 -32.5t-35.5 -88.5q0 -43 25.5 -68.5t67.5 -25.5q50 0 85 32.5t35 88.5z" />
    <glyph glyph-name="ogonek" unicode="&#x2db;" horiz-adv-x="1232" 
d="M492 0q-56 -18 -110 -67.5t-54 -106.5q0 -72 82 -72q58 0 106 25l41 -168q-82 -49 -199 -49q-243 0 -243 192q0 66 32 127.5t83.5 107.5t109.5 79.5t117 52.5z" />
    <glyph glyph-name="tilde" unicode="&#x2dc;" horiz-adv-x="1024" 
d="M739 1485q67 0 78 80h182q-6 -97 -43.5 -164.5t-90.5 -97t-117 -29.5q-53 0 -108 27t-101.5 54t-79.5 27q-67 0 -78 -79h-182q4 74 26.5 130.5t58 91t78 51.5t89.5 17q42 0 86 -17t74.5 -37t65.5 -37t62 -17z" />
    <glyph glyph-name="hungarumlaut" unicode="&#x2dd;" horiz-adv-x="1024" 
d="M850 1597h240l-259 -366h-215zM510 1597h240l-222 -366h-215z" />
    <glyph glyph-name="Bdotaccent" unicode="&#x1e02;" horiz-adv-x="1263" 
d="M864 1927l-24 -188h-238l25 188h237zM233 1597h510q100 0 181.5 -24t144 -73.5t90.5 -134t12 -196.5l-6 -45q-15 -114 -79.5 -190.5t-163.5 -108.5q105 -24 161 -116.5t39 -225.5l-6 -47q-16 -120 -66.5 -207.5t-127 -136t-163.5 -70.5t-190 -22h-544zM668 698h-279
l-59 -458h245q239 0 265 213l2 16q30 229 -174 229zM709 1358h-232l-55 -420h244q88 0 149 47.5t74 153.5l2 16q24 203 -182 203z" />
    <glyph glyph-name="bdotaccent" unicode="&#x1e03;" horiz-adv-x="1153" 
d="M498 1638l-86 -649q49 51 124 87t169 36q200 0 290.5 -151.5t57.5 -397.5l-6 -45q-17 -121 -51.5 -217.5t-90 -171.5t-137.5 -115.5t-186 -40.5q-219 0 -308 168l-38 -141h-236l57 307l174 1331h267zM326 334q24 -51 72 -90t122 -39q110 0 175.5 81t86.5 230l6 45
q21 148 -26.5 234t-159.5 86q-125 0 -221 -121zM520 1927l-24 -188h-238l25 188h237z" />
    <glyph glyph-name="Ddotaccent" unicode="&#x1e0a;" horiz-adv-x="1341" 
d="M899 1927l-25 -188h-237l25 188h237zM1260 840l-11 -78q-36 -276 -124.5 -443t-236.5 -243t-376 -76h-487l208 1597h449q233 0 370 -73.5t191 -241.5t17 -442zM330 240h182q214 0 318 119t141 403l10 78q36 272 -36 395t-273 123h-195z" />
    <glyph glyph-name="ddotaccent" unicode="&#x1e0b;" horiz-adv-x="1165" 
d="M1184 1927l-25 -188h-237l24 188h238zM399 -27q-200 0 -290.5 151.5t-57.5 397.5l6 45q17 121 51.5 217.5t90 171.5t137.5 115.5t186 40.5q191 0 287 -133l86 659h266l-176 -1331l-20 -307h-236v141q-54 -76 -142 -122t-188 -46zM584 881q-110 0 -175.5 -81.5
t-86.5 -230.5l-7 -45q-21 -148 27 -233.5t160 -85.5q125 0 221 121l55 426q-24 51 -72 90t-122 39z" />
    <glyph glyph-name="Fdotaccent" unicode="&#x1e1e;" horiz-adv-x="1101" 
d="M879 1927l-25 -188h-238l25 188h238zM233 1597h936l-30 -239h-662l-55 -424h557l-31 -238h-559l-90 -696h-274z" />
    <glyph glyph-name="fdotaccent" unicode="&#x1e1f;" horiz-adv-x="821" 
d="M748 1927l-25 -188h-238l25 188h238zM545 1272l-25 -187h260l-30 -233h-261l-110 -852h-266l110 852h-166l31 233h166l29 222q13 100 49 170.5t93 111t126 58.5t158 18q52 0 99.5 -9.5t63.5 -17.5l-28 -221q-12 5 -48.5 11t-70.5 6q-78 0 -122.5 -34.5t-57.5 -127.5z" />
    <glyph glyph-name="Mdotaccent" unicode="&#x1e40;" horiz-adv-x="1738" 
d="M1139 1927l-25 -188h-237l24 188h238zM1389 1120l-490 -1120h-262l-193 1120l-36 -336l-103 -784h-280l208 1597h400l190 -1142l492 1142h407l-209 -1597h-280l102 784z" />
    <glyph glyph-name="mdotaccent" unicode="&#x1e41;" horiz-adv-x="1728" 
d="M1122 1563l-39 -289h-290l38 289h291zM1522 0h-267l95 717q11 81 -21 122.5t-119 41.5q-121 0 -206 -113l-101 -768h-266l94 717q11 81 -20.5 122.5t-118.5 41.5q-122 0 -207 -113l-100 -768h-267l103 778l20 307h236v-124q53 61 140 106t194 45q221 0 276 -160
q60 67 146.5 113.5t195.5 46.5q90 0 153 -27t95 -75t43.5 -114t-0.5 -144z" />
    <glyph glyph-name="Pdotaccent" unicode="&#x1e56;" horiz-adv-x="1224" 
d="M866 1927l-24 -188h-238l25 188h237zM377 596l-78 -596h-274l208 1597h484q81 0 153 -13t142 -47t117 -86.5t69.5 -137.5t7.5 -193l-6 -45q-66 -479 -588 -479h-235zM408 836h239q122 0 190.5 57t86.5 197l2 16q5 52 2.5 91t-17.5 67t-34 46.5t-47 29t-56.5 14.5t-62.5 4
h-234z" />
    <glyph glyph-name="pdotaccent" unicode="&#x1e57;" horiz-adv-x="1153" 
d="M844 1563l-39 -289h-291l39 289h291zM705 1112q200 0 290.5 -151.5t57.5 -397.5l-6 -45q-17 -121 -51.5 -217.5t-90 -171.5t-137.5 -115.5t-186 -40.5q-191 0 -287 133l-68 -516h-266l158 1188l20 307h236v-141q54 76 142 122t188 46zM520 205q110 0 175.5 81t86.5 230
l6 45q21 148 -26.5 234t-159.5 86q-125 0 -221 -121l-55 -426q24 -51 72 -90t122 -39z" />
    <glyph glyph-name="Tdotaccent" unicode="&#x1e6a;" horiz-adv-x="1114" 
d="M827 1927l-24 -188h-238l25 188h237zM772 1358l-178 -1358h-275l179 1358h-381l30 239h1037l-31 -239h-381z" />
    <glyph glyph-name="tdotaccent" unicode="&#x1e6b;" horiz-adv-x="862" 
d="M520 1085h301l-30 -233h-302l-61 -467q-12 -101 30 -140.5t124 -39.5q69 0 106 16l-29 -221q-61 -27 -157 -27q-182 0 -276 90t-68 287l65 502h-166l31 233h166l41 308h266zM584 1681l-25 -188h-237l24 188h238z" />
    <glyph glyph-name="Wgrave" unicode="&#x1e80;" horiz-adv-x="1892" 
d="M840 1946h280l84 -226h-266zM1108 -8l-92 1294l-432 -1294h-359l-63 1605h284l19 -1237l414 1237h352l88 -1237l346 1237h283l-486 -1605h-354z" />
    <glyph glyph-name="wgrave" unicode="&#x1e81;" horiz-adv-x="1536" 
d="M532 1597h291l140 -366h-267zM774 819l-289 -819h-338l-59 1085h258l12 -798l289 798h324l80 -798l219 798h262l-344 -1085h-338z" />
    <glyph glyph-name="Wacute" unicode="&#x1e82;" horiz-adv-x="1892" 
d="M1083 1946h281l-160 -226h-266zM1108 -8l-92 1294l-432 -1294h-359l-63 1605h284l19 -1237l414 1237h352l88 -1237l346 1237h283l-486 -1605h-354z" />
    <glyph glyph-name="wacute" unicode="&#x1e83;" horiz-adv-x="1536" 
d="M930 1597h291l-258 -366h-267zM774 819l-289 -819h-338l-59 1085h258l12 -798l289 798h324l80 -798l219 798h262l-344 -1085h-338z" />
    <glyph glyph-name="Wdieresis" unicode="&#x1e84;" horiz-adv-x="1892" 
d="M1042 1927l-24 -188h-238l25 188h237zM1391 1927l-25 -188h-238l25 188h238zM1108 -8l-92 1294l-432 -1294h-359l-63 1605h284l19 -1237l414 1237h352l88 -1237l346 1237h283l-486 -1605h-354z" />
    <glyph glyph-name="wdieresis" unicode="&#x1e85;" horiz-adv-x="1536" 
d="M813 1563l-39 -289h-291l39 289h291zM1223 1563l-39 -289h-291l39 289h291zM774 819l-289 -819h-338l-59 1085h258l12 -798l289 798h324l80 -798l219 798h262l-344 -1085h-338z" />
    <glyph glyph-name="Eszett" unicode="&#x1e9e;" horiz-adv-x="1617" 
d="M643 928l332 440q-43 16 -146 16q-179 0 -278 -70t-119 -222l-143 -1092h-275l146 1112q35 268 199.5 390t490.5 122q287 0 455 -80l-25 -188l-313 -418l102 -12q241 -29 361.5 -147t91.5 -322l-6 -45q-28 -209 -164 -324t-367 -115q-263 0 -384.5 133.5t-86.5 387.5
l6 45h275q-23 -172 28 -249t154 -77h18q99 0 165 55.5t79 161.5l2 16q13 104 -52.5 167.5t-203.5 80.5l-367 45z" />
    <glyph glyph-name="Ygrave" unicode="&#x1ef2;" horiz-adv-x="1249" 
d="M518 1946h281l84 -226h-267zM725 487l-63 -487h-275l64 487l-318 1110h293l199 -772l403 772h305z" />
    <glyph glyph-name="ygrave" unicode="&#x1ef3;" horiz-adv-x="1085" 
d="M313 1597h291l139 -366h-266zM487 332l336 753h293l-522 -1044l-201 -451h-315l244 451l-259 1044h283z" />
    <glyph glyph-name="enspace" unicode="&#x2002;" horiz-adv-x="1024" 
 />
    <glyph glyph-name="emspace" unicode="&#x2003;" horiz-adv-x="2048" 
 />
    <glyph glyph-name="threeperemspace" unicode="&#x2004;" horiz-adv-x="681" 
 />
    <glyph glyph-name="fourperemspace" unicode="&#x2005;" horiz-adv-x="512" 
 />
    <glyph glyph-name="sixperemspace" unicode="&#x2006;" horiz-adv-x="342" 
 />
    <glyph glyph-name="figurespace" unicode="&#x2007;" horiz-adv-x="1228" 
 />
    <glyph glyph-name="punctuationspace" unicode="&#x2008;" horiz-adv-x="368" 
 />
    <glyph glyph-name="thinspace" unicode="&#x2009;" horiz-adv-x="307" 
 />
    <glyph glyph-name="hairspace" unicode="&#x200a;" horiz-adv-x="102" 
 />
    <glyph glyph-name="zerowidthspace" unicode="&#x200b;" horiz-adv-x="0" 
 />
    <glyph glyph-name="figuredash" unicode="&#x2012;" horiz-adv-x="1228" 
d="M59 600l31 234h1065l-31 -234h-1065z" />
    <glyph glyph-name="endash" unicode="&#x2013;" horiz-adv-x="1024" 
d="M59 600l31 234h860l-30 -234h-861z" />
    <glyph glyph-name="emdash" unicode="&#x2014;" horiz-adv-x="2048" 
d="M59 600l31 234h1884l-30 -234h-1885z" />
    <glyph glyph-name="uni2015" unicode="&#x2015;" horiz-adv-x="2457" 
d="M59 600l31 234h2294l-31 -234h-2294z" />
    <glyph glyph-name="doublebar" unicode="&#x2016;" horiz-adv-x="856" 
d="M-16 -246l258 1966h262l-258 -1966h-262zM342 -246l258 1966h262l-258 -1966h-262z" />
    <glyph glyph-name="quoteleft" unicode="&#x2018;" horiz-adv-x="512" 
d="M127 1077l31 228q46 337 358 337l-18 -139q-144 0 -189 -137h148l-39 -289h-291z" />
    <glyph glyph-name="quoteright" unicode="&#x2019;" horiz-adv-x="512" 
d="M512 1597l-31 -227q-47 -338 -358 -338l18 139q143 0 189 138h-148l39 288h291z" />
    <glyph glyph-name="quotesinglbase" unicode="&#x201a;" horiz-adv-x="512" 
d="M340 289l-31 -228q-46 -337 -358 -337l18 139q144 0 189 137h-148l39 289h291z" />
    <glyph glyph-name="reversequoteleft" unicode="&#x201b;" horiz-adv-x="512" 
d="M197 1597h290l-38 -288h-146q0 -79 37 -109.5t115 -30.5l-19 -139q-156 0 -225.5 82.5t-46.5 245.5z" />
    <glyph glyph-name="quotedblleft" unicode="&#x201c;" horiz-adv-x="911" 
d="M127 1077l31 228q46 337 358 337l-18 -139q-144 0 -189 -137h148l-39 -289h-291zM526 1077l31 228q46 337 358 337l-18 -139q-143 0 -188 -137h147l-39 -289h-291z" />
    <glyph glyph-name="quotedblright" unicode="&#x201d;" horiz-adv-x="911" 
d="M512 1597l-31 -227q-47 -338 -358 -338l18 139q143 0 189 138h-148l39 288h291zM911 1597l-30 -227q-47 -338 -359 -338l19 139q142 0 188 138h-147l39 288h290z" />
    <glyph glyph-name="quotedblbase" unicode="&#x201e;" horiz-adv-x="911" 
d="M340 289l-31 -228q-46 -337 -358 -337l18 139q144 0 189 137h-148l39 289h291zM739 289l-30 -228q-46 -337 -359 -337l19 139q143 0 188 137h-147l39 289h290z" />
    <glyph glyph-name="reversequotedblleft" unicode="&#x201f;" horiz-adv-x="911" 
d="M197 1597h290l-38 -288h-146q0 -79 37 -109.5t115 -30.5l-19 -139q-156 0 -225.5 82.5t-46.5 245.5zM596 1597h291l-39 -288h-146q0 -79 37 -109.5t115 -30.5l-18 -139q-156 0 -226 82.5t-47 245.5z" />
    <glyph glyph-name="dagger" unicode="&#x2020;" horiz-adv-x="829" 
d="M354 907l45 262h138l-25 -262l-45 -262h-137zM451 1638h157l-47 -280h-137zM858 1343l-20 -159l-275 10l19 139zM102 1184l21 159l274 -10l-18 -139z" />
    <glyph glyph-name="daggerdbl" unicode="&#x2021;" horiz-adv-x="829" 
d="M293 438l45 262h137l-24 -262l-45 -262h-138zM451 1638h157l-47 -280h-137zM371 1028l28 141h138l-9 -141l-28 -139h-138zM102 1184l21 159l274 -10l-18 -139zM858 1343l-20 -159l-275 10l19 139zM41 715l20 159l275 -10l-19 -139zM797 874l-21 -159l-274 10l18 139z" />
    <glyph glyph-name="bullet" unicode="&#x2022;" horiz-adv-x="880" 
d="M782 1026l-82 -618h-616l82 618h616z" />
    <glyph glyph-name="ellipsis" unicode="&#x2026;" horiz-adv-x="2048" 
d="M453 289l-39 -289h-291l39 289h291zM1108 289l-39 -289h-291l39 289h291zM1763 289l-39 -289h-290l39 289h290z" />
    <glyph glyph-name="perthousand" unicode="&#x2030;" horiz-adv-x="2791" 
d="M2277 -27q-84 0 -150 22.5t-107 59.5t-65.5 87.5t-31.5 104t0 111.5l2 17q21 163 131.5 270t270.5 107q84 0 150 -22.5t107 -59.5t65.5 -87.5t31.5 -104t0 -111.5l-2 -17q-21 -163 -131.5 -270t-270.5 -107zM1458 -27q-84 0 -150 22.5t-107 59.5t-65.5 87.5t-31.5 104
t0 111.5l2 17q21 163 131 270t270 107q105 0 181 -33.5t115 -90t53.5 -122.5t5.5 -139l-2 -17q-21 -163 -131.5 -270t-270.5 -107zM473 1053h12q76 0 126.5 46t60.5 128l2 16q8 73 -29.5 123.5t-118.5 50.5h-12q-76 0 -126 -46t-60 -128l-2 -16q-8 -73 29 -123.5t118 -50.5z
M2275 180h13q76 0 126 46t60 128l2 17q8 73 -29 123.5t-118 50.5h-13q-76 0 -126 -46t-60 -128l-2 -17q-8 -73 29 -123.5t118 -50.5zM1456 180h12q76 0 126.5 46t60.5 128l2 17q8 73 -29.5 123.5t-118.5 50.5h-12q-76 0 -126 -46t-60 -128l-2 -17q-8 -73 29 -123.5
t118 -50.5zM475 846q-84 0 -150 22.5t-107 59.5t-65.5 87.5t-31.5 104t0 111.5l2 16q21 163 131 270t270 107q84 0 183 -31q54 -18 88.5 -27.5t99.5 -18.5t139 -9q118 0 260.5 22.5t198.5 43.5l-18 -144l-803 -1460h-238l737 1341q-80 -20 -180 -20q-66 0 -110 8
q3 -51 -2 -90l-2 -16q-21 -163 -131.5 -270t-270.5 -107z" />
    <glyph glyph-name="tripleprime" unicode="&#x2034;" horiz-adv-x="1177" 
d="M219 1597h266l-100 -626h-205zM909 1597h265l-125 -626h-203zM578 1597h239l-100 -626h-203z" />
    <glyph glyph-name="guilsinglleft" unicode="&#x2039;" horiz-adv-x="641" 
d="M586 1128l-33 -249l-277 -193l226 -192l-31 -230l-395 305l33 254z" />
    <glyph glyph-name="guilsinglright" unicode="&#x203a;" horiz-adv-x="641" 
d="M35 264l33 250l276 193l-225 192l31 229l395 -305l-33 -254z" />
    <glyph glyph-name="interrobang" unicode="&#x203d;" horiz-adv-x="991" 
d="M539 442h-144l76 908q-92 -71 -119 -299h-268l4 30q18 132 51 227.5t90.5 169t147.5 110t213 36.5q420 0 420 -377q0 -76 -23.5 -144t-62.5 -120.5t-86 -102t-96 -98t-91 -98t-72.5 -112t-39.5 -130.5zM594 289l-39 -289h-291l39 289h291zM735 1219q0 111 -57 147
l-86 -440q4 6 23.5 34t24.5 35.5t21.5 31t21.5 33.5t16.5 30.5t15.5 33t10 30.5t8 33.5t2 31.5z" />
    <glyph glyph-name="fraction" unicode="&#x2044;" horiz-adv-x="409" 
d="M-383 0h-205l1389 1597h205z" />
    <glyph glyph-name="uni2070" unicode="&#x2070;" 
d="M649 1376l-47 -348q-14 -112 -86 -176t-201 -64q-127 0 -193 67t-52 173l47 348q14 112 85.5 176t200.5 64q127 0 193.5 -67.5t52.5 -172.5zM412 1028l47 348q5 33 -13 53.5t-53 20.5h-4q-72 0 -82 -74l-47 -348q-5 -33 13 -53.5t53 -20.5h4q73 0 82 74z" />
    <glyph glyph-name="uni2074" unicode="&#x2074;" 
d="M516 803h-190l20 162h-299l19 135l374 502h181l-62 -472h74l-23 -165h-73zM391 1300l-129 -172l43 2h64l16 125z" />
    <glyph glyph-name="uni2075" unicode="&#x2075;" 
d="M70 1059h190q-7 -57 12.5 -81t53.5 -24h10q74 0 84 93l2 18q4 46 -14.5 70t-53.5 24h-12q-62 0 -96 -49l-156 55l76 437h508l-23 -166h-348l-24 -142q45 31 120 31q115 0 170 -70.5t43 -189.5l-2 -18q-12 -120 -86.5 -189.5t-204.5 -69.5q-136 0 -200 63.5t-51 188.5z
" />
    <glyph glyph-name="uni2076" unicode="&#x2076;" 
d="M645 1616l-22 -168q-173 0 -258 -82q-41 -41 -56 -96q42 37 113 37q102 0 152 -64t38 -180l-2 -21q-11 -119 -86.5 -186.5t-204.5 -67.5q-136 0 -197.5 80.5t-47.5 216.5l2 21q13 123 48 210t112 167q74 77 172.5 105t236.5 28zM352 1141q-54 0 -88 -45q-4 -24 -4 -47
q0 -45 19 -70t49 -25h10q33 0 55.5 23.5t26.5 64.5l2 19q4 41 -14.5 60.5t-51.5 19.5h-4z" />
    <glyph glyph-name="uni2077" unicode="&#x2077;" 
d="M98 1315l37 287h553l-14 -119l-367 -680h-203l351 635l-93 -2h-81l-15 -121h-168z" />
    <glyph glyph-name="uni2078" unicode="&#x2078;" 
d="M322 788q-140 0 -203 69.5t-53 160.5l2 18q14 124 112 174q-30 24 -49.5 71t-13.5 101l2 19q4 38 20.5 73t48 68.5t87.5 53.5t128 20q75 0 128.5 -22.5t79 -58.5t35 -73t5.5 -73l-2 -19q-6 -58 -35.5 -99t-72.5 -61q37 -17 55.5 -67.5t11.5 -114.5l-2 -18q-4 -38 -21 -74
t-48.5 -71t-87.5 -56t-127 -21zM352 1126h-10q-33 0 -56.5 -19t-27.5 -58l-2 -19q-4 -37 15 -56.5t55 -19.5h10q32 0 55 20t27 58l2 19q9 75 -68 75zM367 1292h8q73 0 82 72l2 18q3 32 -16.5 50t-47.5 18h-10q-69 0 -78 -70l-2 -18q-3 -30 13 -50t49 -20z" />
    <glyph glyph-name="uni2079" unicode="&#x2079;" 
d="M76 788l22 168q177 0 262 82q40 40 56 97q-42 -37 -113 -37q-102 0 -152 63.5t-38 179.5l2 21q11 119 86.5 186.5t204.5 67.5q136 0 197.5 -80.5t47.5 -216.5l-2 -21q-13 -122 -48 -209t-112 -167q-74 -77 -174.5 -105.5t-238.5 -28.5zM369 1264h4q54 0 88 45q4 24 4 47
q0 45 -19 69.5t-49 24.5h-10q-33 0 -55.5 -23.5t-26.5 -64.5l-2 -19q-4 -40 14.5 -59.5t51.5 -19.5z" />
    <glyph glyph-name="uni207A" unicode="&#x207a;" 
d="M311 1468h168l-24 -182h182l-23 -168h-182l-22 -182h-168l22 182h-182l22 168h183z" />
    <glyph glyph-name="uni207B" unicode="&#x207b;" 
d="M82 1118l22 168h533l-23 -168h-532z" />
    <glyph glyph-name="uni207C" unicode="&#x207c;" 
d="M98 1231l21 168h532l-20 -168h-533zM68 1006l22 168h533l-23 -168h-532z" />
    <glyph glyph-name="uni207D" unicode="&#x207d;" horiz-adv-x="397" 
d="M96 1192l2 18q13 125 61 227.5t115 164.5h203q-66 -72 -122 -177.5t-68 -214.5l-2 -18q-12 -106 13 -209.5t64 -179.5h-182q-43 67 -69.5 171.5t-14.5 217.5z" />
    <glyph glyph-name="uni207E" unicode="&#x207e;" horiz-adv-x="397" 
d="M401 1212l-2 -18q-13 -125 -61 -227t-115 -164h-203q67 72 123 177.5t68 213.5l2 18q12 106 -13.5 209.5t-64.5 180.5h182q43 -67 69.5 -172t14.5 -218z" />
    <glyph glyph-name="uni2080" unicode="&#x2080;" 
d="M547 573l-47 -348q-14 -112 -86 -175.5t-201 -63.5q-127 0 -193.5 66.5t-52.5 172.5l47 348q14 112 86 176t201 64q127 0 193.5 -67.5t52.5 -172.5zM309 225l47 348q5 33 -12.5 53.5t-52.5 20.5h-4q-72 0 -82 -74l-47 -348q-5 -33 12.5 -53t52.5 -20h4q73 0 82 73z" />
    <glyph glyph-name="uni2081" unicode="&#x2081;" 
d="M477 0h-522l20 166h166l54 399l-119 -73l-76 137l272 170h144l-84 -633h166z" />
    <glyph glyph-name="uni2082" unicode="&#x2082;" 
d="M299 166h195l-23 -166h-532l16 119l340 332q51 48 57 94l2 18q4 41 -13 62.5t-48 21.5h-10q-68 0 -84 -115h-191l2 19q15 133 86 197.5t205 64.5q72 0 125 -21t79.5 -56t37 -73t6.5 -77l-2 -19q-7 -64 -32.5 -106t-84.5 -101l-203 -196z" />
    <glyph glyph-name="uni2083" unicode="&#x2083;" 
d="M158 256q-13 -104 65 -104h10q33 0 55.5 19.5t26.5 57.5l2 19q9 76 -67 76h-105l23 165h102q75 0 84 70l2 19q4 35 -14.5 52t-48.5 17h-10q-73 0 -84 -115h-191l2 19q15 133 86 197.5t205 64.5q75 0 128.5 -22.5t79 -58.5t35 -73t5.5 -73l-2 -19q-6 -58 -36 -98.5
t-73 -60.5q37 -17 56 -68t12 -115l-2 -18q-4 -38 -21 -74.5t-49 -70.5t-87.5 -55t-127.5 -21q-137 0 -202 63.5t-52 188.5l2 18h191z" />
    <glyph glyph-name="uni2084" unicode="&#x2084;" 
d="M414 0h-191l21 162h-299l18 135l375 502h180l-61 -471h73l-22 -166h-74zM289 498l-129 -172l43 2h63l17 125z" />
    <glyph glyph-name="uni2085" unicode="&#x2085;" 
d="M-33 256h191q-13 -104 65 -104h10q74 0 84 92l2 18q4 46 -14 70t-53 24h-12q-27 0 -54 -12.5t-43 -36.5l-155 55l75 437h508l-22 -166h-348l-25 -141q43 30 121 30q115 0 170 -70.5t43 -189.5l-2 -18q-12 -120 -86.5 -189t-204.5 -69q-136 0 -200.5 63.5t-51.5 188.5z
" />
    <glyph glyph-name="uni2086" unicode="&#x2086;" 
d="M543 813l-23 -168q-173 0 -258 -82q-39 -39 -55 -96q42 37 112 37q102 0 152.5 -64t38.5 -180l-2 -20q-11 -119 -86.5 -186.5t-204.5 -67.5q-136 0 -198 80.5t-48 216.5l2 20q13 123 48 210t112 167q74 77 173 105t237 28zM250 338q-54 0 -88 -45q-4 -24 -4 -47
q0 -45 18.5 -69.5t48.5 -24.5h11q33 0 55 23.5t26 64.5l2 18q4 41 -14 60.5t-51 19.5h-4z" />
    <glyph glyph-name="uni2087" unicode="&#x2087;" 
d="M-4 512l37 287h553l-15 -119l-366 -680h-203l350 635l-92 -2h-82l-14 -121h-168z" />
    <glyph glyph-name="uni2088" unicode="&#x2088;" 
d="M219 -14q-140 0 -203 69t-53 160l2 18q14 125 113 175q-30 24 -50 71t-14 101l2 18q4 38 21 73t48.5 68.5t87.5 53.5t128 20q75 0 128.5 -22.5t79 -58.5t35 -73t5.5 -73l-2 -19q-6 -58 -36 -98.5t-73 -60.5q37 -17 56 -68t12 -115l-2 -18q-4 -38 -21 -74t-49 -70.5
t-88 -55.5t-127 -21zM250 324h-10q-33 0 -56.5 -19.5t-27.5 -58.5l-2 -19q-4 -37 14.5 -56t54.5 -19h10q33 0 55.5 19.5t26.5 57.5l2 19q9 76 -67 76zM264 489h8q73 0 82 72l2 19q3 32 -16 49.5t-47 17.5h-10q-69 0 -78 -69l-2 -19q-3 -31 12.5 -50.5t48.5 -19.5z" />
    <glyph glyph-name="uni2089" unicode="&#x2089;" 
d="M-27 -14l23 168q177 0 262 82q39 39 55 96q-42 -37 -112 -37q-102 0 -152.5 64t-38.5 180l2 20q11 119 86.5 186.5t204.5 67.5q136 0 198 -80.5t48 -216.5l-2 -20q-13 -123 -48 -210t-112 -167q-74 -77 -174.5 -105t-239.5 -28zM266 461h4q54 0 88 45q4 24 4 47
q0 45 -18.5 69.5t-48.5 24.5h-10q-33 0 -55.5 -23.5t-26.5 -64.5l-2 -18q-4 -41 14 -60.5t51 -19.5z" />
    <glyph glyph-name="uni208A" unicode="&#x208a;" 
d="M209 666h168l-25 -183h183l-23 -168h-182l-23 -182h-168l23 182h-182l22 168h182z" />
    <glyph glyph-name="uni208B" unicode="&#x208b;" 
d="M-20 315l22 168h533l-23 -168h-532z" />
    <glyph glyph-name="uni208C" unicode="&#x208c;" 
d="M-4 428l20 168h533l-21 -168h-532zM-35 203l23 168h532l-22 -168h-533z" />
    <glyph glyph-name="uni208D" unicode="&#x208d;" horiz-adv-x="397" 
d="M-6 389l2 19q13 125 61 227t115 164h203q-67 -72 -123 -177.5t-68 -213.5l-2 -19q-12 -106 13.5 -209t64.5 -180h-182q-43 67 -69.5 171.5t-14.5 217.5z" />
    <glyph glyph-name="uni208E" unicode="&#x208e;" horiz-adv-x="397" 
d="M299 410l-2 -19q-13 -125 -61 -227t-115 -164h-203q67 72 123 177.5t68 213.5l2 19q12 106 -13.5 209t-64.5 180h182q43 -67 69.5 -171.5t14.5 -217.5z" />
    <glyph glyph-name="Euro" unicode="&#x20ac;" horiz-adv-x="1228" 
d="M190 655h-139l31 242h137q57 375 202.5 551t375.5 176q246 0 335.5 -137.5t51.5 -417.5l-6 -45h-248q29 189 1.5 274.5t-126.5 85.5h-17q-211 0 -288 -487h368l-149 -242h-248q-13 -147 -4.5 -245t45.5 -147.5t106 -49.5h17q190 0 227 299h248l-2 -18
q-29 -258 -154 -389.5t-327 -131.5q-260 0 -363.5 172t-73.5 510z" />
    <glyph glyph-name="ruble" unicode="&#x20bd;" horiz-adv-x="1228" 
d="M16 596l31 240h158l100 761h402q81 0 153 -13t142 -47t117 -86.5t69.5 -137.5t7.5 -193l-6 -45q-66 -479 -588 -479h-153l-13 -92h393l-30 -240h-393l-35 -264h-275l35 264h-158l31 240h158l12 92h-158zM479 836h158q122 0 190 57t86 197l2 16q5 52 2.5 91t-17.5 67
t-34 46.5t-47 29t-56.5 14.5t-62.5 4h-151z" />
    <glyph glyph-name="numero" unicode="&#x2116;" horiz-adv-x="2273" 
d="M233 1597h285l447 -1101l34 338l99 763h268l-209 -1597h-285l-446 1102l-35 -338l-98 -764h-268zM2261 1217l-6 -46q-26 -186 -121.5 -291.5t-271.5 -105.5q-198 0 -290.5 113.5t-66.5 294.5l6 45q26 186 122 291.5t272 105.5q198 0 290 -113t66 -294zM1745 1229l-6 -45
q-12 -95 19.5 -151t103.5 -56t109 48t50 144l7 45q12 95 -19.5 151t-103.5 56q-73 0 -110.5 -48t-49.5 -144zM2132 391h-713l27 203h713z" />
    <glyph glyph-name="published" unicode="&#x2117;" horiz-adv-x="1884" 
d="M117 799q0 168 65.5 320.5t176 263t263 176t320.5 65.5t320.5 -65.5t263 -176t176 -263t65.5 -320.5t-65.5 -320.5t-176 -263.5t-263 -176.5t-320.5 -65.5t-320.5 65.5t-263 176.5t-176 263.5t-65.5 320.5zM223 799q0 -146 57 -279.5t153 -229.5t229.5 -153t279.5 -57
t279.5 57t229.5 153t153 229.5t57 279.5t-57 279.5t-153 229.5t-229.5 153t-279.5 57t-279.5 -57t-229.5 -153t-153 -229.5t-57 -279.5zM819 651v-334h-241v963h458q63 0 116.5 -13.5t103 -45t78 -94t28.5 -150.5v-23q0 -88 -28.5 -150.5t-78 -94t-103 -45t-116.5 -13.5
h-217zM819 831h168q25 0 46.5 5.5t42 18.5t32.5 39.5t12 63.5v15q0 37 -12 63.5t-32.5 39.5t-42 18.5t-46.5 5.5h-168v-269z" />
    <glyph glyph-name="servicemark" unicode="&#x2120;" horiz-adv-x="1122" 
d="M211 1315q-95 12 -135.5 48.5t-40.5 113.5v8q0 78 50.5 124t143.5 46q103 0 150 -49.5t47 -149.5v-16h-117q0 58 -17.5 84t-60.5 26h-6q-33 0 -52 -16t-19 -43v-4q0 -31 21.5 -48t74.5 -24q94 -12 137 -50t43 -114v-10q0 -81 -51.5 -127.5t-149.5 -46.5q-200 0 -200 203
v6h116q0 -55 20 -81t64 -26h7q38 0 56.5 18.5t18.5 49.5v4q0 31 -22 48t-78 26zM915 1442l-94 -357h-125l-94 357l4 -127v-230h-117v553h177l94 -354l92 354h176v-553h-117v230z" />
    <glyph glyph-name="trademark" unicode="&#x2122;" horiz-adv-x="1122" 
d="M291 1536v-451h-117v451h-139v102h395v-102h-139zM915 1442l-94 -357h-125l-94 357l4 -127v-230h-117v553h177l94 -354l92 354h176v-553h-117v230z" />
    <glyph glyph-name="uni2153" unicode="&#x2153;" horiz-adv-x="1638" 
d="M580 803h-523l21 166h166l53 399l-119 -74l-76 138l273 170h143l-84 -633h166zM231 0h-204l1388 1597h205zM1182 256q-13 -104 65 -104h10q33 0 55.5 19.5t26.5 57.5l2 19q9 76 -67 76h-105l23 165h102q75 0 84 70l2 19q4 35 -14.5 52t-48.5 17h-10q-73 0 -84 -115h-191
l2 19q15 133 86 197.5t205 64.5q75 0 128.5 -22.5t79 -58.5t35 -73t5.5 -73l-2 -19q-6 -58 -36 -98.5t-73 -60.5q37 -17 56 -68t12 -115l-2 -18q-4 -38 -21 -74.5t-49 -70.5t-87.5 -55t-127.5 -21q-138 0 -202.5 63.5t-51.5 188.5l2 18h191z" />
    <glyph glyph-name="uni2154" unicode="&#x2154;" horiz-adv-x="1638" 
d="M401 969h195l-23 -166h-532l16 119l340 331q52 49 58 95l2 18q4 41 -13.5 62.5t-48.5 21.5h-10q-68 0 -84 -115h-190l2 19q15 133 85.5 197.5t204.5 64.5q72 0 125 -21t79.5 -56t37 -73t6.5 -77l-2 -19q-7 -64 -32.5 -106t-84.5 -101l-202 -196zM231 0h-204l1388 1597
h205zM1182 256q-13 -104 65 -104h10q33 0 55.5 19.5t26.5 57.5l2 19q9 76 -67 76h-105l23 165h102q75 0 84 70l2 19q4 35 -14.5 52t-48.5 17h-10q-73 0 -84 -115h-191l2 19q15 133 86 197.5t205 64.5q75 0 128.5 -22.5t79 -58.5t35 -73t5.5 -73l-2 -19q-6 -58 -36 -98.5
t-73 -60.5q37 -17 56 -68t12 -115l-2 -18q-4 -38 -21 -74.5t-49 -70.5t-87.5 -55t-127.5 -21q-138 0 -202.5 63.5t-51.5 188.5l2 18h191z" />
    <glyph glyph-name="uni2155" unicode="&#x2155;" horiz-adv-x="1638" 
d="M580 803h-523l21 166h166l53 399l-119 -74l-76 138l273 170h143l-84 -633h166zM231 0h-204l1388 1597h205zM991 256h191q-13 -104 65 -104h10q74 0 84 92l2 18q4 46 -14 70t-53 24h-12q-27 0 -54 -12.5t-43 -36.5l-155 55l75 437h508l-22 -166h-348l-25 -141
q44 30 121 30q115 0 170 -70.5t43 -189.5l-2 -18q-12 -120 -86.5 -189t-204.5 -69q-136 0 -200.5 63.5t-51.5 188.5z" />
    <glyph glyph-name="uni2156" unicode="&#x2156;" horiz-adv-x="1638" 
d="M401 969h195l-23 -166h-532l16 119l340 331q52 49 58 95l2 18q4 41 -13.5 62.5t-48.5 21.5h-10q-68 0 -84 -115h-190l2 19q15 133 85.5 197.5t204.5 64.5q72 0 125 -21t79.5 -56t37 -73t6.5 -77l-2 -19q-7 -64 -32.5 -106t-84.5 -101l-202 -196zM231 0h-204l1388 1597
h205zM991 256h191q-13 -104 65 -104h10q74 0 84 92l2 18q4 46 -14 70t-53 24h-12q-27 0 -54 -12.5t-43 -36.5l-155 55l75 437h508l-22 -166h-348l-25 -141q44 30 121 30q115 0 170 -70.5t43 -189.5l-2 -18q-12 -120 -86.5 -189t-204.5 -69q-136 0 -200.5 63.5t-51.5 188.5z
" />
    <glyph glyph-name="uni2157" unicode="&#x2157;" horiz-adv-x="1638" 
d="M260 1059q-7 -57 12.5 -81t53.5 -24h10q32 0 55 20t27 58l2 19q9 75 -68 75h-104l22 166h103q75 0 84 70l2 18q4 35 -15 52.5t-49 17.5h-10q-73 0 -84 -115h-190l2 19q15 133 85.5 197.5t204.5 64.5q75 0 128.5 -22.5t79 -58.5t35 -73t5.5 -73l-2 -19q-6 -58 -35.5 -99
t-72.5 -61q37 -17 55.5 -67.5t11.5 -114.5l-2 -18q-4 -38 -21 -74.5t-48.5 -71t-87 -55.5t-127.5 -21q-137 0 -202 63.5t-52 188.5l2 19h190zM231 0h-204l1388 1597h205zM991 256h191q-13 -104 65 -104h10q74 0 84 92l2 18q4 46 -14 70t-53 24h-12q-27 0 -54 -12.5
t-43 -36.5l-155 55l75 437h508l-22 -166h-348l-25 -141q44 30 121 30q115 0 170 -70.5t43 -189.5l-2 -18q-12 -120 -86.5 -189t-204.5 -69q-136 0 -200.5 63.5t-51.5 188.5z" />
    <glyph glyph-name="uni2158" unicode="&#x2158;" horiz-adv-x="1638" 
d="M516 803h-190l20 162h-299l19 135l374 502h181l-62 -472h74l-23 -165h-73zM391 1300l-129 -172l43 2h64l16 125zM231 0h-204l1388 1597h205zM991 256h191q-13 -104 65 -104h10q74 0 84 92l2 18q4 46 -14 70t-53 24h-12q-27 0 -54 -12.5t-43 -36.5l-155 55l75 437h508
l-22 -166h-348l-25 -141q44 30 121 30q115 0 170 -70.5t43 -189.5l-2 -18q-12 -120 -86.5 -189t-204.5 -69q-136 0 -200.5 63.5t-51.5 188.5z" />
    <glyph glyph-name="uni2159" unicode="&#x2159;" horiz-adv-x="1638" 
d="M580 803h-523l21 166h166l53 399l-119 -74l-76 138l273 170h143l-84 -633h166zM231 0h-204l1388 1597h205zM1567 813l-23 -168q-173 0 -258 -82q-39 -39 -55 -96q42 37 112 37q102 0 152.5 -64t38.5 -180l-2 -20q-11 -119 -86.5 -186.5t-204.5 -67.5q-136 0 -198 80.5
t-48 216.5l2 20q13 123 48 210t112 167q74 77 173 105t237 28zM1274 338q-54 0 -88 -45q-4 -24 -4 -47q0 -45 18.5 -69.5t48.5 -24.5h11q33 0 55 23.5t26 64.5l2 18q4 41 -14 60.5t-51 19.5h-4z" />
    <glyph glyph-name="uni215A" unicode="&#x215a;" horiz-adv-x="1638" 
d="M70 1059h190q-7 -57 12.5 -81t53.5 -24h10q74 0 84 93l2 18q4 46 -14.5 70t-53.5 24h-12q-62 0 -96 -49l-156 55l76 437h508l-23 -166h-348l-24 -142q45 31 120 31q115 0 170 -70.5t43 -189.5l-2 -18q-12 -120 -86.5 -189.5t-204.5 -69.5q-136 0 -200 63.5t-51 188.5z
M231 0h-204l1388 1597h205zM1567 813l-23 -168q-173 0 -258 -82q-39 -39 -55 -96q42 37 112 37q102 0 152.5 -64t38.5 -180l-2 -20q-11 -119 -86.5 -186.5t-204.5 -67.5q-136 0 -198 80.5t-48 216.5l2 20q13 123 48 210t112 167q74 77 173 105t237 28zM1274 338
q-54 0 -88 -45q-4 -24 -4 -47q0 -45 18.5 -69.5t48.5 -24.5h11q33 0 55 23.5t26 64.5l2 18q4 41 -14 60.5t-51 19.5h-4z" />
    <glyph glyph-name="uni215B" unicode="&#x215b;" horiz-adv-x="1638" 
d="M580 803h-523l21 166h166l53 399l-119 -74l-76 138l273 170h143l-84 -633h166zM231 0h-204l1388 1597h205zM1243 -14q-140 0 -203 69t-53 160l2 18q14 125 113 175q-30 24 -50 71t-14 101l2 18q4 38 21 73t48.5 68.5t87.5 53.5t128 20q75 0 128.5 -22.5t79 -58.5t35 -73
t5.5 -73l-2 -19q-6 -58 -36 -98.5t-73 -60.5q37 -17 56 -68t12 -115l-2 -18q-4 -38 -21 -74t-49 -70.5t-88 -55.5t-127 -21zM1274 324h-10q-33 0 -56.5 -19.5t-27.5 -58.5l-2 -19q-4 -37 14.5 -56t54.5 -19h10q33 0 55.5 19.5t26.5 57.5l2 19q9 76 -67 76zM1288 489h8
q73 0 82 72l2 19q3 32 -16 49.5t-47 17.5h-10q-69 0 -78 -69l-2 -19q-3 -31 12.5 -50.5t48.5 -19.5z" />
    <glyph glyph-name="uni215C" unicode="&#x215c;" horiz-adv-x="1638" 
d="M260 1059q-7 -57 12.5 -81t53.5 -24h10q32 0 55 20t27 58l2 19q9 75 -68 75h-104l22 166h103q75 0 84 70l2 18q4 35 -15 52.5t-49 17.5h-10q-73 0 -84 -115h-190l2 19q15 133 85.5 197.5t204.5 64.5q75 0 128.5 -22.5t79 -58.5t35 -73t5.5 -73l-2 -19q-6 -58 -35.5 -99
t-72.5 -61q37 -17 55.5 -67.5t11.5 -114.5l-2 -18q-4 -38 -21 -74.5t-48.5 -71t-87 -55.5t-127.5 -21q-137 0 -202 63.5t-52 188.5l2 19h190zM231 0h-204l1388 1597h205zM1243 -14q-140 0 -203 69t-53 160l2 18q14 125 113 175q-30 24 -50 71t-14 101l2 18q4 38 21 73
t48.5 68.5t87.5 53.5t128 20q75 0 128.5 -22.5t79 -58.5t35 -73t5.5 -73l-2 -19q-6 -58 -36 -98.5t-73 -60.5q37 -17 56 -68t12 -115l-2 -18q-4 -38 -21 -74t-49 -70.5t-88 -55.5t-127 -21zM1274 324h-10q-33 0 -56.5 -19.5t-27.5 -58.5l-2 -19q-4 -37 14.5 -56t54.5 -19h10
q33 0 55.5 19.5t26.5 57.5l2 19q9 76 -67 76zM1288 489h8q73 0 82 72l2 19q3 32 -16 49.5t-47 17.5h-10q-69 0 -78 -69l-2 -19q-3 -31 12.5 -50.5t48.5 -19.5z" />
    <glyph glyph-name="uni215D" unicode="&#x215d;" horiz-adv-x="1638" 
d="M70 1059h190q-7 -57 12.5 -81t53.5 -24h10q74 0 84 93l2 18q4 46 -14.5 70t-53.5 24h-12q-62 0 -96 -49l-156 55l76 437h508l-23 -166h-348l-24 -142q45 31 120 31q115 0 170 -70.5t43 -189.5l-2 -18q-12 -120 -86.5 -189.5t-204.5 -69.5q-136 0 -200 63.5t-51 188.5z
M231 0h-204l1388 1597h205zM1243 -14q-140 0 -203 69t-53 160l2 18q14 125 113 175q-30 24 -50 71t-14 101l2 18q4 38 21 73t48.5 68.5t87.5 53.5t128 20q75 0 128.5 -22.5t79 -58.5t35 -73t5.5 -73l-2 -19q-6 -58 -36 -98.5t-73 -60.5q37 -17 56 -68t12 -115l-2 -18
q-4 -38 -21 -74t-49 -70.5t-88 -55.5t-127 -21zM1274 324h-10q-33 0 -56.5 -19.5t-27.5 -58.5l-2 -19q-4 -37 14.5 -56t54.5 -19h10q33 0 55.5 19.5t26.5 57.5l2 19q9 76 -67 76zM1288 489h8q73 0 82 72l2 19q3 32 -16 49.5t-47 17.5h-10q-69 0 -78 -69l-2 -19
q-3 -31 12.5 -50.5t48.5 -19.5z" />
    <glyph glyph-name="uni215E" unicode="&#x215e;" horiz-adv-x="1638" 
d="M98 1315l37 287h553l-14 -119l-367 -680h-203l351 635l-93 -2h-81l-15 -121h-168zM231 0h-204l1388 1597h205zM1243 -14q-140 0 -203 69t-53 160l2 18q14 125 113 175q-30 24 -50 71t-14 101l2 18q4 38 21 73t48.5 68.5t87.5 53.5t128 20q75 0 128.5 -22.5t79 -58.5
t35 -73t5.5 -73l-2 -19q-6 -58 -36 -98.5t-73 -60.5q37 -17 56 -68t12 -115l-2 -18q-4 -38 -21 -74t-49 -70.5t-88 -55.5t-127 -21zM1274 324h-10q-33 0 -56.5 -19.5t-27.5 -58.5l-2 -19q-4 -37 14.5 -56t54.5 -19h10q33 0 55.5 19.5t26.5 57.5l2 19q9 76 -67 76zM1288 489
h8q73 0 82 72l2 19q3 32 -16 49.5t-47 17.5h-10q-69 0 -78 -69l-2 -19q-3 -31 12.5 -50.5t48.5 -19.5z" />
    <glyph glyph-name="uni215F" unicode="&#x215f;" horiz-adv-x="1024" 
d="M580 803h-523l21 166h166l53 399l-119 -74l-76 138l273 170h143l-84 -633h166zM231 0h-204l1388 1597h205z" />
    <glyph glyph-name="arrowleft" unicode="&#x2190;" horiz-adv-x="1884" 
d="M915 1597h340l-677 -677h1163v-242h-1163l677 -678h-340l-798 799z" />
    <glyph glyph-name="arrowup" unicode="&#x2191;" horiz-adv-x="1884" 
d="M143 485v340l799 799l799 -799v-340l-678 678v-1163h-242v1163z" />
    <glyph glyph-name="arrowright" unicode="&#x2192;" horiz-adv-x="1884" 
d="M629 1597h340l798 -798l-798 -799h-340l678 678h-1164v242h1164z" />
    <glyph glyph-name="arrowdown" unicode="&#x2193;" horiz-adv-x="1884" 
d="M143 772v340l678 -678v1163h242v-1163l678 678v-340l-799 -799z" />
    <glyph glyph-name="uni2196" unicode="&#x2196;" horiz-adv-x="1884" 
d="M385 0h-242v1597h1598v-241h-1188l1214 -1213l-170 -170l-1212 1215v-1188z" />
    <glyph glyph-name="uni2197" unicode="&#x2197;" horiz-adv-x="1884" 
d="M143 1356v241h1598v-1597h-242v1188l-1212 -1215l-170 170l1214 1213h-1188z" />
    <glyph glyph-name="uni2198" unicode="&#x2198;" horiz-adv-x="1884" 
d="M143 0v242h1188l-1214 1212l170 170l1212 -1214v1187h242v-1597h-1598z" />
    <glyph glyph-name="uni2199" unicode="&#x2199;" horiz-adv-x="1884" 
d="M1741 242v-242h-1598v1597h242v-1187l1212 1214l170 -170l-1214 -1212h1188z" />
    <glyph glyph-name="minus" unicode="&#x2212;" horiz-adv-x="1228" 
d="M76 678l33 242h1048l-33 -242h-1048z" />
    <glyph glyph-name="approxequal" unicode="&#x2248;" horiz-adv-x="1228" 
d="M346 754q80 0 152.5 -22t117.5 -48t100 -48t103 -22q110 0 211 105l113 -131q-52 -72 -132 -128.5t-177 -56.5q-80 0 -153 22t-118 48t-100 48t-103 22q-109 0 -210 -105l-113 131q52 72 132 128.5t177 56.5zM403 1188q65 0 124.5 -14.5t103 -35t83 -40.5t81.5 -34.5
t82 -14.5q110 0 210 104l113 -131q-51 -72 -131.5 -128t-177.5 -56q-65 0 -124.5 14.5t-103 35t-82.5 40.5t-81 34.5t-82 14.5q-110 0 -211 -105l-113 132q51 72 131.5 128t177.5 56z" />
    <glyph glyph-name="notequal" unicode="&#x2260;" horiz-adv-x="1228" 
d="M104 895l33 242h621l157 225h195l-158 -225h234l-33 -242h-371l-135 -193h481l-32 -241h-621l-158 -225h-194l158 225h-234l33 241h371l135 193h-482z" />
    <glyph glyph-name="equivalence" unicode="&#x2261;" horiz-adv-x="1228" 
d="M133 1112l33 242h1048l-32 -242h-1049zM76 678l33 242h1048l-33 -242h-1048zM18 244l33 241h1049l-33 -241h-1049z" />
    <glyph glyph-name="lessequal" unicode="&#x2264;" horiz-adv-x="1228" 
d="M1186 1135l-705 -205l652 -201l-35 -258l-1004 338l33 262l1094 336zM1083 352l-22 -164l-1004 338l23 164z" />
    <glyph glyph-name="greaterequal" unicode="&#x2265;" horiz-adv-x="1228" 
d="M12 190l21 164l1093 336l-20 -164zM84 743l704 205l-651 201l35 258l1004 -338l-33 -262l-1094 -336z" />
    <glyph glyph-name="squaremultiply" unicode="&#x22a0;" horiz-adv-x="1884" 
d="M1741 0h-1598v1597h1598v-1597zM1503 1360h-1122v-1122h1122v1122zM639 326l-170 170l303 303l-303 303l170 170l303 -303l303 303l170 -170l-303 -303l303 -303l-170 -170l-303 303z" />
    <glyph glyph-name="house" unicode="&#x2302;" horiz-adv-x="1740" 
d="M1597 0h-1454v922l727 696l727 -696v-922z" />
    <glyph glyph-name="blacksquare" unicode="&#x25a0;" horiz-adv-x="1884" 
d="M1741 0h-1598v1597h1598v-1597z" />
    <glyph glyph-name="blacksquare" unicode="&#xe740;" horiz-adv-x="1884" 
d="M1741 0h-1598v1597h1598v-1597z" />
    <glyph glyph-name="whitesquare" unicode="&#x25a1;" horiz-adv-x="1884" 
d="M1741 0h-1598v1597h1598v-1597zM1503 1360h-1122v-1122h1122v1122z" />
    <glyph glyph-name="blacksmallsquare" unicode="&#x25aa;" horiz-adv-x="1392" 
d="M1229 0h-1086v1085h1086v-1085z" />
    <glyph glyph-name="whitesmallsquare" unicode="&#x25ab;" horiz-adv-x="1392" 
d="M143 1085h1086v-1085h-1086v1085zM991 848h-610v-610h610v610z" />
    <glyph glyph-name="triagup" unicode="&#x25b2;" horiz-adv-x="1904" 
d="M1083 1624l695 -1624h-267l-559 1331l-559 -1331h-266l694 1624h262z" />
    <glyph glyph-name="triagrt" unicode="&#x25ba;" horiz-adv-x="1904" 
d="M1788 930v-262l-1624 -695v267l1331 559l-1331 559v266z" />
    <glyph glyph-name="triagdn" unicode="&#x25bc;" horiz-adv-x="1904" 
d="M821 -27l-694 1624h266l559 -1333l559 1333h267l-695 -1624h-262z" />
    <glyph glyph-name="triaglf" unicode="&#x25c4;" horiz-adv-x="1904" 
d="M117 930l1624 694v-266l-1333 -559l1333 -559v-267l-1624 695v262z" />
    <glyph glyph-name="whitecircle" unicode="&#x25cb;" horiz-adv-x="1884" 
d="M117 799q0 168 65.5 320.5t176 263t263 176t320.5 65.5t320.5 -65.5t263 -176t176 -263t65.5 -320.5t-65.5 -320.5t-176 -263.5t-263 -176.5t-320.5 -65.5t-320.5 65.5t-263 176.5t-176 263.5t-65.5 320.5zM354 799q0 -160 78.5 -295.5t214 -214t295.5 -78.5t295.5 78.5
t214 214t78.5 295.5t-78.5 295.5t-214 213.5t-295.5 78t-295.5 -78t-214 -213.5t-78.5 -295.5z" />
    <glyph glyph-name="whitecircle" unicode="&#x25ef;" horiz-adv-x="1884" 
d="M117 799q0 168 65.5 320.5t176 263t263 176t320.5 65.5t320.5 -65.5t263 -176t176 -263t65.5 -320.5t-65.5 -320.5t-176 -263.5t-263 -176.5t-320.5 -65.5t-320.5 65.5t-263 176.5t-176 263.5t-65.5 320.5zM354 799q0 -160 78.5 -295.5t214 -214t295.5 -78.5t295.5 78.5
t214 214t78.5 295.5t-78.5 295.5t-214 213.5t-295.5 78t-295.5 -78t-214 -213.5t-78.5 -295.5z" />
    <glyph glyph-name="blackcircle" unicode="&#x25cf;" horiz-adv-x="1884" 
d="M117 799q0 168 65.5 320.5t176 263t263 176t320.5 65.5t320.5 -65.5t263 -176t176 -263t65.5 -320.5t-65.5 -320.5t-176 -263.5t-263 -176.5t-320.5 -65.5t-320.5 65.5t-263 176.5t-176 263.5t-65.5 320.5z" />
    <glyph glyph-name="uni25E2" unicode="&#x25e2;" horiz-adv-x="1904" 
d="M1837 92l-92 -94l-92 -90l-1639 655l189 189l1337 -551l-549 1341l189 187z" />
    <glyph glyph-name="uni25E3" unicode="&#x25e3;" horiz-adv-x="1904" 
d="M160 -2l-92 94l657 1637l188 -187l-551 -1341l1340 551l188 -189l-1638 -655z" />
    <glyph glyph-name="uni25E4" unicode="&#x25e4;" horiz-adv-x="1904" 
d="M68 1509l184 185l1638 -658l-188 -188l-1340 549l551 -1338l-188 -188z" />
    <glyph glyph-name="uni25E5" unicode="&#x25e5;" horiz-adv-x="1904" 
d="M1837 1509l-657 -1638l-189 188l549 1338l-1337 -549l-189 188l1639 658z" />
    <glyph glyph-name="uni2605" unicode="&#x2605;" horiz-adv-x="1802" 
d="M901 369l-532 -389l202 628l-532 387h659l203 627l203 -627h659l-532 -387l203 -628z" />
    <glyph glyph-name="ballotboxwithx" unicode="&#x2612;" horiz-adv-x="1392" 
d="M143 1085h1086v-1085h-1086v1085zM991 848h-610v-610h610v610zM639 760l47 -47l47 47h170v-170l-47 -47l47 -47v-170h-170l-47 47l-47 -47h-170v170l47 47l-47 47v170h170z" />
    <glyph glyph-name="uni263C" unicode="&#x263c;" horiz-adv-x="1966" 
d="M1067 391l-86 -414l-86 414q0 -80 -59 -135q-17 -16 -61 -45.5t-61.5 -53.5t-17.5 -61q0 -19 6 -37t12 -26l7 -8q-45 13 -69.5 48t-24.5 79q0 61 43 104q41 41 62.5 97t21.5 98l-353 -232l232 352q-53 -53 -135 -53q-19 0 -64.5 8.5t-62.5 8.5q-31 0 -55 -10t-36 -24.5
t-19.5 -29.5t-8.5 -25l-2 -10q-17 31 -17 58q0 59 42.5 100t103.5 41q42 0 89.5 17.5t74.5 35t32 25.5l-413 86l413 86q-80 0 -135 59q-16 18 -37.5 48.5t-34 47t-35.5 30t-52 13.5q-19 0 -37 -6t-26 -12l-9 -6q13 45 48 69.5t79 24.5q61 0 104 -43q41 -41 97 -62.5
t98 -21.5l-232 352l353 -231q-54 54 -54 135q0 19 8.5 64.5t8.5 62.5q0 31 -10 55t-24.5 36t-29 19.5t-24.5 8.5l-10 2q29 16 57 16q59 0 100 -42t41 -103q0 -42 17.5 -89.5t35 -75t25.5 -32.5l86 414l86 -414q0 80 59 135q17 16 61 45.5t61.5 53.5t17.5 61q0 19 -6 37
t-12 26l-7 9q45 -13 69.5 -48t24.5 -79q0 -62 -43 -105q-41 -41 -62.5 -96.5t-21.5 -97.5l353 231l-232 -352q53 53 135 53q19 0 64.5 -8t62.5 -8q31 0 55 10t36 24.5t19.5 29t8.5 24.5l2 10q17 -31 17 -57q0 -59 -42.5 -100t-103.5 -41q-42 0 -89.5 -17.5t-74.5 -35
t-32 -25.5l413 -86l-413 -86q79 0 135 -60q16 -18 37.5 -48.5t34 -47t35.5 -30t52 -13.5q19 0 37 6t26 12l9 7q-13 -45 -48.5 -70t-78.5 -25q-61 0 -104 43q-41 41 -97 62.5t-98 21.5l232 -352l-353 232q54 -54 54 -136q0 -19 -8.5 -64.5t-8.5 -62.5q0 -31 10 -55
t24.5 -35.5t29 -19t24.5 -8.5l10 -2q-31 -17 -57 -17q-59 0 -100 42.5t-41 103.5q0 42 -17.5 89.5t-35 74.5t-25.5 32z" />
    <glyph glyph-name="uni263E" unicode="&#x263e;" horiz-adv-x="1966" 
d="M1278 1491q-181 0 -333.5 -92.5t-241.5 -252t-89 -347.5q0 -141 52.5 -269.5t141.5 -221t212 -147.5t258 -55q99 0 197 31q-218 -157 -492 -157q-167 0 -318.5 65t-261 174.5t-174.5 261t-65 318.5t65 318.5t174.5 261t261 174.5t318.5 65q268 0 492 -158
q-109 31 -197 31z" />
    <glyph glyph-name="spade" unicode="&#x2660;" horiz-adv-x="1843" 
d="M924 1618q66 -99 199 -238t278 -233q60 -39 104 -73t90.5 -79t75.5 -90t47.5 -102t18.5 -119q0 -150 -105 -253t-256 -103q-142 0 -246 93.5t-163 235.5l-6 -2q17 -210 54 -356.5t113 -298.5h-413q76 152 113.5 299t54.5 356l-6 2q-27 -67 -65.5 -124t-89 -104
t-116.5 -74t-139 -27q-151 0 -256 103t-105 253q0 62 18.5 119t47.5 102t75.5 90t90.5 79t104 73q146 95 279 233.5t199 237.5h4z" />
    <glyph glyph-name="club" unicode="&#x2663;" horiz-adv-x="1843" 
d="M715 0q76 152 113.5 299t54.5 356l-6 2q-27 -67 -65.5 -124t-89 -104t-116.5 -74t-139 -27q-151 0 -256 103t-105 253q0 161 99 265t258 104q84 0 172 -47l4 4q-78 118 -78 239q0 154 103.5 261.5t257.5 107.5t257 -107.5t103 -261.5q0 -121 -78 -239l4 -4q88 47 172 47
q159 0 258 -104t99 -265q0 -150 -105 -253t-256 -103q-142 0 -246 93.5t-163 235.5l-6 -2q17 -210 54 -356.5t113 -298.5h-413z" />
    <glyph glyph-name="heart" unicode="&#x2665;" horiz-adv-x="1843" 
d="M924 -20h-4q-59 88 -193.5 259t-284.5 341q-64 73 -114 136.5t-105 148.5t-86 170t-31 161q0 185 107 303.5t285 118.5q92 0 163.5 -25.5t120.5 -73t80.5 -100.5t55.5 -123h8q24 70 55.5 123t80.5 100.5t120.5 73t163.5 25.5q178 0 284.5 -118.5t106.5 -303.5
q0 -76 -31 -161t-86 -170t-105 -148.5t-114 -136.5q-149 -169 -283.5 -340t-193.5 -260z" />
    <glyph glyph-name="diamond" unicode="&#x2666;" horiz-adv-x="1843" 
d="M1673 799q-218 -170 -415 -386t-334 -433h-4q-137 217 -334.5 433t-415.5 386q218 170 415.5 386t334.5 433h4q137 -217 334 -433t415 -386z" />
    <glyph glyph-name="uni267B" unicode="&#x267b;" horiz-adv-x="1966" 
d="M1767 545l2 -4l-196 -342q-41 -60 -60 -77q-44 -38 -120 -38h-117v-100l-232 278l232 277v-101h297q34 0 66.5 11t54.5 27t39.5 31.5t25.5 26.5zM381 250h-4l-197 344q-23 42 -31.5 65.5t-5.5 63t29 82.5l57 100l-86 49l357 64l121 -340l-84 49q-144 -246 -148 -256
q-27 -46 -29 -101.5t10 -87.5zM827 1595v2h396q37 -1 56 -3t46 -11t47 -29t39 -53l57 -100l88 49l-124 -340l-355 64l84 49l-147 256q-27 47 -74 76t-80 35zM410 1225l137 243q21 38 69 64q63 34 131.5 30.5t126.5 -33t80 -69.5l-237 -411zM913 84h-276q-43 0 -90 27
q-45 26 -76 70.5t-42.5 91.5t-9.5 91.5t19 73.5h475v-354zM1651 1079l141 -239q20 -36 20 -90q1 -99 -78 -178.5t-151 -79.5l-237 411z" />
    <glyph glyph-name="uni267C" unicode="&#x267c;" horiz-adv-x="1966" 
d="M598 1321l-106 -188l237 -138l184 320q-17 30 -62 52.5t-98 25.5t-102 -23q-37 -21 -53 -49zM807 1421v-2q4 0 11 -1.5t26.5 -7.5t36.5 -14.5t37.5 -26.5t33.5 -40l115 -199l-66 -38l275 -50l96 265l-67 -39l-45 78q-28 49 -60 62t-86 13h-307zM659 248h215v274h-368
q-13 -22 -15 -57t7.5 -71.5t33.5 -71t58 -54.5q36 -20 69 -20zM467 377h2q-5 10 -10.5 27.5t-5 63t21.5 81.5l115 199l65 -39l-94 264l-276 -49l67 -39l-45 -78q-20 -34 -22.5 -65t4 -48.5t24.5 -50.5zM1563 834l-109 186l-237 -137l184 -320q57 0 118 61.5t60 139.5
q0 42 -16 70zM1546 602l-2 2q-2 -3 -6.5 -8.5t-19.5 -20t-31.5 -25t-42 -19.5t-51.5 -9h-230v78l-180 -215l180 -215v78h90q57 0 85 21.5t55 66.5zM131 799q0 221 108.5 407.5t295 295t407.5 108.5t407.5 -108.5t295 -295t108.5 -407.5t-108.5 -407.5t-295 -295
t-407.5 -108.5t-407.5 108.5t-295 295t-108.5 407.5z" />
    <glyph glyph-name="uni267D" unicode="&#x267d;" horiz-adv-x="1966" 
d="M492 1133l106 188q16 28 53 49q49 26 102 23t98 -25.5t62 -52.5l-184 -320zM807 1419v2h307q54 0 86 -13t60 -62l45 -78l67 39l-96 -265l-275 50l66 38l-115 199q-21 36 -57 58.5t-62 26.5zM874 248h-215q-33 0 -69 20q-34 20 -58 54.5t-33.5 71t-7.5 71.5t15 57h368
v-274zM469 377h-2l-154 266q-18 33 -24.5 50.5t-4 48.5t22.5 65l45 78l-67 39l276 49l94 -264l-65 39l-115 -199q-21 -36 -22.5 -79t7.5 -68zM1454 1020l109 -186q16 -28 16 -70q1 -78 -60 -139.5t-118 -61.5l-184 320zM1544 604l2 -2l-153 -266q-18 -30 -31 -46t-41 -29
t-68 -13h-90v-78l-180 215l180 215v-78h230q42 0 79.5 20.5t54.5 41.5zM123 799q0 167 65 318.5t174.5 261t261 174.5t318.5 65t318.5 -65t261 -174.5t174.5 -261t65 -318.5t-65 -318.5t-174.5 -261t-261 -174.5t-318.5 -65t-318.5 65t-261 174.5t-174.5 261t-65 318.5z
M201 799q0 -202 99 -372.5t269.5 -270t372.5 -99.5t372.5 99.5t269.5 270t99 372.5q0 151 -58.5 288.5t-157.5 236.5t-236.5 157.5t-288.5 58.5t-288.5 -58.5t-236.5 -157.5t-157.5 -236.5t-58.5 -288.5z" />
    <glyph glyph-name="mediumwhitecircle" unicode="&#x26aa;" horiz-adv-x="1372" 
d="M117 543q0 154 76.5 285t207.5 207.5t285 76.5t285 -76.5t207.5 -207.5t76.5 -285t-76.5 -285.5t-207.5 -208t-285 -76.5t-285 76.5t-207.5 208t-76.5 285.5zM354 543q0 -138 97 -235t235 -97t235 97t97 235t-97 234.5t-235 96.5t-235 -96.5t-97 -234.5z" />
    <glyph glyph-name="mediumblackcircle" unicode="&#x26ab;" horiz-adv-x="1372" 
d="M117 543q0 154 76.5 285t207.5 207.5t285 76.5t285 -76.5t207.5 -207.5t76.5 -285t-76.5 -285.5t-207.5 -208t-285 -76.5t-285 76.5t-207.5 208t-76.5 285.5z" />
    <glyph glyph-name="anglebracketleft" unicode="&#x3008;" horiz-adv-x="716" 
d="M795 1720l-463 -989l200 -977h-272l-203 983l461 983h277z" />
    <glyph glyph-name="anglebracketright" unicode="&#x3009;" horiz-adv-x="716" 
d="M-86 -246l463 989l-201 977h273l202 -983l-461 -983h-276z" />
    <glyph glyph-name="fi" unicode="&#xe38c;" horiz-adv-x="1333" 
d="M545 1272l-25 -187h260l-30 -233h-261l-110 -852h-266l110 852h-166l31 233h166l29 222q13 100 49 170.5t93 111t126 58.5t158 18q52 0 99.5 -9.5t63.5 -17.5l-28 -221q-12 5 -48.5 11t-70.5 6q-78 0 -122.5 -34.5t-57.5 -127.5zM844 0l141 1085h266l-141 -1085h-266z
M1327 1563l-39 -289h-291l39 289h291z" />
    <glyph glyph-name="fi" unicode="&#xfb01;" horiz-adv-x="1333" 
d="M545 1272l-25 -187h260l-30 -233h-261l-110 -852h-266l110 852h-166l31 233h166l29 222q13 100 49 170.5t93 111t126 58.5t158 18q52 0 99.5 -9.5t63.5 -17.5l-28 -221q-12 5 -48.5 11t-70.5 6q-78 0 -122.5 -34.5t-57.5 -127.5zM844 0l141 1085h266l-141 -1085h-266z
M1327 1563l-39 -289h-291l39 289h291z" />
    <glyph glyph-name="fl" unicode="&#xe38d;" horiz-adv-x="1333" 
d="M545 1272l-25 -187h260l-30 -233h-261l-110 -852h-266l110 852h-166l31 233h166l29 222q13 100 49 170.5t93 111t126 58.5t158 18q52 0 99.5 -9.5t63.5 -17.5l-28 -221q-12 5 -48.5 11t-70.5 6q-78 0 -122.5 -34.5t-57.5 -127.5zM844 0l215 1638h266l-215 -1638h-266z
" />
    <glyph glyph-name="fl" unicode="&#xfb02;" horiz-adv-x="1333" 
d="M545 1272l-25 -187h260l-30 -233h-261l-110 -852h-266l110 852h-166l31 233h166l29 222q13 100 49 170.5t93 111t126 58.5t158 18q52 0 99.5 -9.5t63.5 -17.5l-28 -221q-12 5 -48.5 11t-70.5 6q-78 0 -122.5 -34.5t-57.5 -127.5zM844 0l215 1638h266l-215 -1638h-266z
" />
    <glyph glyph-name="invertedbreve" unicode="&#xe411;" horiz-adv-x="1024" 
d="M625 1622q193 0 267 -105t48 -286h-190q12 93 -26.5 139.5t-119.5 46.5t-131.5 -46.5t-62.5 -139.5h-203q20 181 122.5 286t295.5 105z" />
    <glyph glyph-name="doublegrave" unicode="&#xe412;" horiz-adv-x="1024" 
d="M152 1597h239l139 -366h-215zM492 1597h239l103 -366h-216z" />
    <glyph glyph-name="caronSlovak" unicode="&#xe413;" horiz-adv-x="1024" 
d="M752 1638h174l-101 -407h-127z" />
    <glyph glyph-name="commaaccent" unicode="&#xe414;" horiz-adv-x="1232" 
d="M522 -96l-14 -115q-17 -130 -92.5 -188t-214.5 -58l14 109q145 0 176 76h-141l22 176h250z" />
    <glyph glyph-name="commaaccent" unicode="&#xf6c3;" horiz-adv-x="1232" 
d="M522 -96l-14 -115q-17 -130 -92.5 -188t-214.5 -58l14 109q145 0 176 76h-141l22 176h250z" />
    <glyph glyph-name="dotbelow" unicode="&#xe415;" horiz-adv-x="1232" 
d="M518 -127l-33 -252h-249l32 252h250z" />
    <glyph glyph-name="altcedilla" unicode="&#xe416;" horiz-adv-x="1232" 
d="M358 -301q105 0 105 53q0 49 -94 49q-29 0 -63 -5.5t-46 -10.5l12 102q58 21 144 21q88 0 144 -39.5t56 -114.5q0 -90 -71 -141t-189 -51q-135 0 -202 49l57 121q54 -33 147 -33z" />
    <glyph glyph-name="grave.cap" unicode="&#xe421;" horiz-adv-x="1024" 
d="M406 1946h280l84 -226h-266z" />
    <glyph glyph-name="acute.cap" unicode="&#xe422;" horiz-adv-x="1024" 
d="M649 1946h281l-160 -226h-266z" />
    <glyph glyph-name="circumflex.cap" unicode="&#xe423;" horiz-adv-x="1024" 
d="M510 1720h-250l275 226h266l213 -226h-242l-117 107z" />
    <glyph glyph-name="tilde.cap" unicode="&#xe424;" horiz-adv-x="1024" 
d="M872 1931h150q-8 -115 -72 -170t-157 -55q-45 0 -88.5 16t-71.5 35t-62 35t-61 16q-34 0 -55.5 -19t-22.5 -54h-149q8 115 72 170t157 55q45 0 88.5 -16t71.5 -35t62 -35t61 -16q34 0 55 19t22 54z" />
    <glyph glyph-name="macron.cap" unicode="&#xe425;" horiz-adv-x="1024" 
d="M358 1747l23 172h565l-22 -172h-566z" />
    <glyph glyph-name="breve.cap" unicode="&#xe426;" horiz-adv-x="1024" 
d="M633 1692q-99 0 -167 19.5t-101 56t-44 80t-4 98.5h185q-16 -101 147 -101q160 0 176 101h193q-33 -254 -385 -254z" />
    <glyph glyph-name="invertedbreve.cap" unicode="&#xe427;" horiz-adv-x="1024" 
d="M672 1974q99 0 166.5 -19.5t101 -56t44 -79.5t3.5 -99h-184q8 49 -28 75t-120 26q-160 0 -176 -101h-192q33 254 385 254z" />
    <glyph glyph-name="dotaccent.cap" unicode="&#xe428;" horiz-adv-x="1024" 
d="M782 1927l-24 -188h-238l25 188h237z" />
    <glyph glyph-name="dieresis.cap" unicode="&#xe429;" horiz-adv-x="1024" 
d="M608 1927l-24 -188h-238l25 188h237zM956 1927l-24 -188h-238l25 188h237z" />
    <glyph glyph-name="ring.cap" unicode="&#xe42a;" horiz-adv-x="1024" 
d="M432 1751q0 94 67 158.5t158 64.5q86 0 141.5 -54.5t55.5 -141.5q0 -94 -67 -159t-158 -65q-85 0 -141 55t-56 142zM750 1778q0 42 -26 68t-67 26q-50 0 -85 -32.5t-35 -88.5q0 -43 25.5 -68.5t66.5 -25.5q50 0 85.5 32.5t35.5 88.5z" />
    <glyph glyph-name="hungarumlaut.cap" unicode="&#xe42b;" horiz-adv-x="1024" 
d="M494 1946h254l-148 -226h-242zM821 1946h254l-160 -226h-241z" />
    <glyph glyph-name="doublegrave.cap" unicode="&#xe42c;" horiz-adv-x="1024" 
d="M588 1946h254l73 -226h-241zM260 1946h254l86 -226h-242z" />
    <glyph glyph-name="caron.cap" unicode="&#xe42d;" horiz-adv-x="1024" 
d="M795 1946h249l-274 -226h-266l-213 226h241l117 -107z" />
    <glyph glyph-name="commaaccent.cap" unicode="&#xe42e;" horiz-adv-x="1024" 
d="M518 1720l8 62q12 95 81.5 145.5t195.5 50.5l-10 -77q-119 0 -150 -58h127l-14 -123h-238z" />
    <glyph glyph-name="exclamdown.cap" unicode="&#xe441;" horiz-adv-x="512" 
d="M322 0h-332l225 1155h184zM180 1309l39 288h291l-39 -288h-291z" />
    <glyph glyph-name="questiondown.cap" unicode="&#xe444;" horiz-adv-x="991" 
d="M426 1309l39 288h291l-39 -288h-291zM406 211q107 0 163 81.5t78 254.5h268l-4 -31q-18 -132 -50.5 -227.5t-90 -169t-147.5 -110t-213 -36.5q-420 0 -420 377q0 76 23.5 144t62.5 120.5t86 102t96 98t91 98t72.5 112t39.5 130.5h184q0 -84 -28 -167.5t-70.5 -147.5
t-92 -129.5t-92 -117.5t-70.5 -109t-28 -105q0 -84 31.5 -126t110.5 -42z" />
    <glyph glyph-name="guilsinglleft.cap" unicode="&#xe451;" horiz-adv-x="641" 
d="M600 1231l-33 -250l-276 -193l225 -192l-31 -229l-395 305l33 254z" />
    <glyph glyph-name="guilsinglright.cap" unicode="&#xe452;" horiz-adv-x="641" 
d="M49 367l33 249l276 193l-225 192l31 230l395 -305l-33 -254z" />
    <glyph glyph-name="guillemotleft.cap" unicode="&#xe453;" horiz-adv-x="1126" 
d="M600 1231l-33 -250l-276 -193l225 -192l-31 -229l-395 305l33 254zM1087 1231l-32 -250l-277 -193l226 -192l-31 -229l-395 305l32 254z" />
    <glyph glyph-name="guillemotright.cap" unicode="&#xe454;" horiz-adv-x="1126" 
d="M537 367l32 249l277 193l-225 192l30 230l396 -305l-33 -254zM49 367l33 249l276 193l-225 192l31 230l395 -305l-33 -254z" />
    <glyph glyph-name="slash.cap" unicode="&#xe461;" horiz-adv-x="743" 
d="M205 0h-262l602 1597h262z" />
    <glyph glyph-name="backslash.cap" unicode="&#xe462;" horiz-adv-x="743" 
d="M152 1597h262l184 -1597h-262z" />
    <glyph glyph-name="bar.cap" unicode="&#xe463;" horiz-adv-x="497" 
d="M16 0l209 1597h262l-208 -1597h-263z" />
    <glyph glyph-name="doublebar.cap" unicode="&#xe464;" horiz-adv-x="856" 
d="M487 1597l-208 -1597h-263l209 1597h262zM846 1597l-209 -1597h-262l209 1597h262z" />
    <glyph glyph-name="brokenbar.cap" unicode="&#xe465;" horiz-adv-x="497" 
d="M279 0h-263l97 743h262zM225 1597h262l-96 -743h-262z" />
    <glyph glyph-name="bullet.cap" unicode="&#xe466;" horiz-adv-x="880" 
d="M793 1108l-82 -619h-617l82 619h617z" />
    <glyph glyph-name="onethirdemdash" unicode="&#xe471;" horiz-adv-x="681" 
d="M578 600h-519l31 234h518z" />
    <glyph glyph-name="threequarteremdash" unicode="&#xe472;" horiz-adv-x="1536" 
d="M59 600l31 234h1372l-30 -234h-1373z" />
    <glyph glyph-name="periodcentered.cap" unicode="&#xe481;" horiz-adv-x="512" 
d="M424 944l-39 -289h-291l39 289h291z" />
    <glyph glyph-name="hyphen.cap" unicode="&#xe482;" horiz-adv-x="655" 
d="M70 682l30 233h543l-31 -233h-542z" />
    <glyph glyph-name="onethirdemdash.cap" unicode="&#xe483;" horiz-adv-x="681" 
d="M588 682h-512l30 233h512z" />
    <glyph glyph-name="endash.cap" unicode="&#xe484;" horiz-adv-x="1024" 
d="M70 682l30 233h861l-31 -233h-860z" />
    <glyph glyph-name="threequarteremdash.cap" unicode="&#xe485;" horiz-adv-x="1536" 
d="M70 682l30 233h1373l-31 -233h-1372z" />
    <glyph glyph-name="emdash.cap" unicode="&#xe486;" horiz-adv-x="2048" 
d="M70 682l30 233h1885l-31 -233h-1884z" />
    <glyph glyph-name="figuredash.cap" unicode="&#xe487;" horiz-adv-x="1228" 
d="M70 682l30 233h1065l-30 -233h-1065z" />
    <glyph glyph-name="uni2015.cap" unicode="&#xe488;" horiz-adv-x="2457" 
d="M70 682l30 233h2294l-31 -233h-2293z" />
    <glyph glyph-name="parenleft.cap" unicode="&#xe491;" horiz-adv-x="716" 
d="M102 776l7 45q64 470 348 776h284q-65 -79 -117 -154t-105 -172.5t-90 -212t-54 -237.5l-6 -45q-52 -376 157 -776h-274q-87 127 -134 337t-16 439z" />
    <glyph glyph-name="parenright.cap" unicode="&#xe492;" horiz-adv-x="716" 
d="M625 821l-7 -45q-64 -470 -348 -776h-284q65 79 117 154t105 172.5t90 212t54 237.5l6 45q52 376 -157 776h274q87 -127 134 -337t16 -439z" />
    <glyph glyph-name="bracketleft.cap" unicode="&#xe493;" horiz-adv-x="716" 
d="M233 1597h521l-31 -235h-254l-147 -1126h253l-30 -236h-520z" />
    <glyph glyph-name="bracketright.cap" unicode="&#xe494;" horiz-adv-x="716" 
d="M494 0h-521l31 236h254l148 1126h-254l30 235h520z" />
    <glyph glyph-name="braceleft.cap" unicode="&#xe495;" horiz-adv-x="716" 
d="M752 1597l-31 -235q-86 0 -133 -42.5t-60 -143.5l-18 -148q-12 -94 -48 -148t-108 -81q118 -60 95 -230l-19 -147q-13 -108 21 -147t122 -39l-30 -236h-51q-112 0 -192 34t-122 112t-26 194l24 182q12 85 -23 121.5t-116 36.5l31 238q86 0 128 35t54 128l22 168
q46 348 428 348h52z" />
    <glyph glyph-name="braceright.cap" unicode="&#xe496;" horiz-adv-x="716" 
d="M-29 0l31 236q86 0 133 42.5t60 143.5l18 147q12 94 48 148.5t108 81.5q-118 60 -95 229l19 148q13 108 -21 147t-122 39l30 235h51q112 0 192 -34t122 -112t26 -194l-24 -182q-12 -85 23 -121t116 -36l-31 -238q-85 0 -127.5 -35.5t-54.5 -128.5l-22 -168
q-46 -348 -428 -348h-52z" />
    <glyph glyph-name="anglebracketleft.cap" unicode="&#xe497;" horiz-adv-x="716" 
d="M446 1597h285l-377 -804l164 -793h-282l-164 799z" />
    <glyph glyph-name="anglebracketright.cap" unicode="&#xe498;" horiz-adv-x="716" 
d="M279 0h-285l377 805l-164 792h282l164 -798z" />
    <glyph glyph-name="lowline" unicode="&#xe511;" horiz-adv-x="655" 
d="M-10 0l30 233h476l-31 -233h-475z" />
    <glyph glyph-name="underscoremonospace" unicode="&#xe512;" horiz-adv-x="1228" 
d="M-57 -346l30 233h1049l-31 -233h-1048z" />
    <glyph glyph-name="underscoremonospace" unicode="&#xff3f;" horiz-adv-x="1228" 
d="M-57 -346l30 233h1049l-31 -233h-1048z" />
    <glyph glyph-name="at.cap" unicode="&#xe513;" horiz-adv-x="2009" 
d="M928 -49h20q185 0 375.5 61.5t321.5 163.5l92 -147q-352 -260 -807 -260q-139 0 -263.5 29.5t-228.5 87.5t-184.5 143t-131 195.5t-68.5 246t3 293.5l11 78q31 233 128.5 420.5t242.5 311t329 189.5t391 66q156 0 289.5 -29.5t244 -94t183 -158.5t103 -230t8.5 -303
l-11 -78q-19 -144 -63 -252t-102.5 -175t-139 -108.5t-163 -57t-183.5 -15.5h-166l-4 129q-38 -64 -122 -110t-177 -46q-135 0 -219 67t-111 174.5t-8 245.5l6 46q14 103 48.5 189t89 152.5t135 104t178.5 37.5q193 0 272 -166l39 139h209l-53 -286l-66 -498q87 0 150.5 19
t118 65t90 132.5t51.5 213.5l10 78q18 141 -8 252t-84.5 181.5t-147 116.5t-185.5 64.5t-210 18.5h-20q-234 0 -419 -90t-307.5 -273t-156.5 -442l-10 -78q-26 -197 13 -353t132 -256t228.5 -152t306.5 -52zM1157 631l47 356q-23 45 -74.5 82t-121.5 37q-197 0 -236 -270
l-6 -45q-18 -125 25 -202t147 -77q70 0 127 36t92 83z" />
    <glyph glyph-name="zero.inf" unicode="&#xe571;" 
d="M496 164l-47 -348q-14 -112 -86 -176t-201 -64q-127 0 -193.5 67t-52.5 173l47 348q14 112 86 175.5t201 63.5q127 0 193.5 -67t52.5 -172zM258 -184l47 348q5 33 -12.5 53.5t-52.5 20.5h-4q-72 0 -82 -74l-48 -348q-5 -33 13 -53.5t53 -20.5h4q73 0 82 74z" />
    <glyph glyph-name="one.inf" unicode="&#xe572;" 
d="M426 -410h-522l20 166h166l53 400l-118 -74l-76 137l272 170h144l-84 -633h165z" />
    <glyph glyph-name="two.inf" unicode="&#xe573;" 
d="M248 -244h194l-22 -166h-533l17 119l340 332q51 48 57 94l2 19q4 41 -13 62.5t-48 21.5h-11q-68 0 -84 -115h-190l2 18q15 133 86 197.5t205 64.5q72 0 125 -21t79.5 -56t37 -73t6.5 -77l-2 -18q-7 -64 -32.5 -106t-84.5 -101l-203 -197z" />
    <glyph glyph-name="three.inf" unicode="&#xe574;" 
d="M106 -154q-13 -104 66 -104h10q32 0 55 20t27 58l2 18q9 76 -67 76h-105l23 166h102q75 0 84 70l2 18q4 35 -14.5 52.5t-48.5 17.5h-11q-73 0 -84 -115h-190l2 18q15 133 86 197.5t205 64.5q75 0 128.5 -22.5t79 -58.5t35 -73t5.5 -73l-2 -18q-6 -58 -36 -99t-73 -61
q37 -17 56 -67.5t12 -114.5l-2 -19q-4 -38 -21 -74.5t-49 -70.5t-87.5 -55t-127.5 -21q-137 0 -202 63.5t-52 188.5l2 18h190z" />
    <glyph glyph-name="four.inf" unicode="&#xe575;" 
d="M362 -410h-190l21 162h-299l18 135l375 502h180l-61 -471h73l-22 -166h-74zM238 88l-129 -172l43 2h63l16 125z" />
    <glyph glyph-name="five.inf" unicode="&#xe576;" 
d="M-84 -154h190q-13 -104 66 -104h10q74 0 84 92l2 19q4 46 -14 70t-53 24h-13q-62 0 -96 -49l-155 55l75 436h508l-22 -166h-348l-25 -141q45 31 121 31q115 0 170 -70.5t43 -189.5l-2 -19q-12 -120 -86.5 -189t-204.5 -69q-136 0 -200.5 63.5t-51.5 188.5z" />
    <glyph glyph-name="six.inf" unicode="&#xe577;" 
d="M492 403l-23 -167q-173 0 -258 -82q-39 -39 -55 -97q42 37 112 37q102 0 152.5 -64t38.5 -180l-2 -20q-11 -119 -86.5 -186.5t-204.5 -67.5q-136 0 -198 80.5t-48 216.5l2 21q13 122 48 209t112 167q74 77 173 105t237 28zM199 -72q-54 0 -88 -45q-5 -24 -5 -47
q0 -45 19 -69.5t49 -24.5h10q33 0 55.5 23.5t26.5 64.5l2 18q4 41 -14 60.5t-51 19.5h-4z" />
    <glyph glyph-name="seven.inf" unicode="&#xe578;" 
d="M-55 102l37 287h553l-15 -119l-366 -680h-203l350 635l-92 -2h-82l-14 -121h-168z" />
    <glyph glyph-name="eight.inf" unicode="&#xe579;" 
d="M168 -424q-140 0 -203 69t-53 160l2 19q14 124 113 174q-30 24 -50 71t-14 101l2 18q4 38 21 73t48.5 68.5t87.5 53.5t128 20q75 0 128.5 -22.5t79 -58.5t35 -73t5.5 -73l-2 -18q-6 -58 -36 -99t-73 -61q37 -17 56 -67.5t12 -114.5l-2 -19q-4 -38 -21 -74t-49 -70.5
t-88 -55.5t-127 -21zM199 -86h-11q-33 0 -56.5 -19.5t-27.5 -58.5l-2 -18q-4 -37 15 -56.5t55 -19.5h10q32 0 55 20t27 58l2 18q9 76 -67 76zM213 80h8q73 0 82 72l2 18q3 32 -16 50t-47 18h-11q-68 0 -77 -70l-2 -18q-3 -31 12.5 -50.5t48.5 -19.5z" />
    <glyph glyph-name="nine.inf" unicode="&#xe57a;" 
d="M-78 -424l23 168q177 0 262 82q39 39 55 96q-42 -37 -112 -37q-102 0 -152.5 64t-38.5 180l2 21q11 118 86.5 185.5t204.5 67.5q136 0 198 -80.5t48 -216.5l-2 -20q-13 -123 -48 -210t-112 -167q-74 -77 -174.5 -105t-239.5 -28zM215 51h4q54 0 88 45q4 24 4 47
q0 45 -18.5 70t-48.5 25h-11q-33 0 -55 -23.5t-26 -64.5l-2 -19q-4 -41 14 -60.5t51 -19.5z" />
    <glyph glyph-name="plus.inf" unicode="&#xe57b;" 
d="M158 256h168l-25 -182h182l-22 -168h-182l-23 -182h-168l23 182h-183l23 168h182z" />
    <glyph glyph-name="minus.inf" unicode="&#xe57c;" 
d="M-72 -94l23 168h532l-22 -168h-533z" />
    <glyph glyph-name="equal.inf" unicode="&#xe57d;" 
d="M-55 18l20 168h533l-21 -168h-532zM-86 -207l23 168h532l-23 -168h-532z" />
    <glyph glyph-name="parenleft.inf" unicode="&#xe57e;" horiz-adv-x="397" 
d="M-57 -20l2 18q13 125 61 227t115 164h203q-67 -72 -123 -177.5t-68 -213.5l-2 -18q-12 -106 13.5 -209.5t64.5 -180.5h-182q-43 67 -69.5 172t-14.5 218z" />
    <glyph glyph-name="parenright.inf" unicode="&#xe57f;" horiz-adv-x="397" 
d="M248 0l-2 -18q-13 -125 -61 -227.5t-115 -164.5h-203q66 72 122 177.5t68 214.5l2 18q12 106 -13 209.5t-64 179.5h182q43 -67 69.5 -171.5t14.5 -217.5z" />
    <glyph glyph-name="Anocross" unicode="&#xe731;" horiz-adv-x="1292" 
d="M565 1606h381l209 -1606h-289l-145 1292l-483 -1292h-301z" />
    <glyph glyph-name="idotaccent" unicode="&#xe785;" horiz-adv-x="512" 
d="M23 0l141 1085h266l-141 -1085h-266zM506 1563l-39 -289h-291l39 289h291z" />
    <glyph glyph-name="interrobangdown" unicode="&#xe935;" horiz-adv-x="991" 
d="M393 643h144l-68 -809q91 62 121 289h268l-4 -31q-71 -530 -500 -530q-219 0 -319.5 86.5t-100.5 265.5q0 74 23.5 139.5t62 115t85 95.5t94.5 89t89 85.5t70 95t35 109.5zM338 797l39 288h291l-39 -288h-291zM209 -61q0 -85 53 -119l70 381q-41 -54 -63 -86.5t-41 -81
t-19 -94.5z" />
    <glyph glyph-name="interrobangdown.cap" unicode="&#xe99b;" horiz-adv-x="991" 
d="M-10 350q0 76 23.5 144t62.5 120.5t86 102t96 98t91 98t72.5 112t39.5 130.5h143l-78 -907q90 67 121 299h268l-4 -31q-18 -132 -50.5 -227.5t-90 -169t-147.5 -110t-213 -36.5q-420 0 -420 377zM406 1309l38 288h291l-39 -288h-290zM264 379q0 -114 58 -150l86 441
q-5 -8 -26.5 -38.5t-27.5 -39t-23.5 -35t-23 -38t-17 -33.5t-15 -36.5t-7.5 -33.5t-4 -37z" />
    <glyph glyph-name="registered.cap" unicode="&#xe99c;" horiz-adv-x="1884" 
d="M117 799q0 168 65.5 320.5t176 263t263 176t320.5 65.5t320.5 -65.5t263 -176t176 -263t65.5 -320.5t-65.5 -320.5t-176 -263.5t-263 -176.5t-320.5 -65.5t-320.5 65.5t-263 176.5t-176 263.5t-65.5 320.5zM223 799q0 -146 57 -279.5t153 -229.5t229.5 -153t279.5 -57
t279.5 57t229.5 153t153 229.5t57 279.5t-57 279.5t-153 229.5t-229.5 153t-279.5 57t-279.5 -57t-229.5 -153t-153 -229.5t-57 -279.5zM793 651v-334h-240v963h459q63 0 116 -13.5t102 -45t77 -94t28 -150.5v-23q0 -200 -147 -268l147 -369h-254l-108 334h-180zM793 831
h168q133 0 133 127v15q0 127 -133 127h-168v-269z" />
    <glyph glyph-name="period.T" unicode="&#xf182;" 
d="M391 289l-39 -289h-291l39 289h291z" />
    <glyph glyph-name="comma.T" unicode="&#xf183;" 
d="M391 289l-31 -228q-46 -337 -358 -337l18 139q144 0 189 137h-148l39 289h291z" />
    <glyph glyph-name="colon.T" unicode="&#xf184;" 
d="M391 289l-39 -289h-291l39 289h291zM475 942l-39 -289h-291l39 289h291z" />
    <glyph glyph-name="semicolon.T" unicode="&#xf185;" 
d="M475 942l-39 -289h-291l39 289h291zM391 289l-31 -228q-46 -337 -358 -337l18 139q144 0 189 137h-148l39 289h291z" />
    <glyph glyph-name="onesixteenth" unicode="&#xf215;" horiz-adv-x="2252" 
d="M580 803h-523l21 166h166l53 399l-119 -74l-76 138l273 170h143l-84 -633h166zM231 0h-204l1388 1597h205zM1501 0h-522l20 166h166l54 399l-119 -73l-76 137l272 170h144l-84 -633h166zM2181 813l-22 -168q-173 0 -258 -82q-41 -41 -56 -96q42 37 113 37q102 0 152 -64
t38 -180l-2 -20q-11 -119 -86.5 -186.5t-204.5 -67.5q-136 0 -197.5 80.5t-47.5 216.5l2 20q13 123 48 210t112 167q74 77 172.5 105t236.5 28zM1888 338q-54 0 -88 -45q-4 -24 -4 -47q0 -45 19 -69.5t49 -24.5h10q33 0 55.5 23.5t26.5 64.5l2 18q4 41 -14.5 60.5
t-51.5 19.5h-4z" />
    <glyph glyph-name="threesixteenths" unicode="&#xf216;" horiz-adv-x="2252" 
d="M260 1059q-7 -57 12.5 -81t53.5 -24h10q32 0 55 20t27 58l2 19q9 75 -68 75h-104l22 166h103q75 0 84 70l2 18q4 35 -15 52.5t-49 17.5h-10q-73 0 -84 -115h-190l2 19q15 133 85.5 197.5t204.5 64.5q75 0 128.5 -22.5t79 -58.5t35 -73t5.5 -73l-2 -19q-6 -58 -35.5 -99
t-72.5 -61q37 -17 55.5 -67.5t11.5 -114.5l-2 -18q-4 -38 -21 -74.5t-48.5 -71t-87 -55.5t-127.5 -21q-137 0 -202 63.5t-52 188.5l2 19h190zM231 0h-204l1388 1597h205zM1501 0h-522l20 166h166l54 399l-119 -73l-76 137l272 170h144l-84 -633h166zM2181 813l-22 -168
q-173 0 -258 -82q-41 -41 -56 -96q42 37 113 37q102 0 152 -64t38 -180l-2 -20q-11 -119 -86.5 -186.5t-204.5 -67.5q-136 0 -197.5 80.5t-47.5 216.5l2 20q13 123 48 210t112 167q74 77 172.5 105t236.5 28zM1888 338q-54 0 -88 -45q-4 -24 -4 -47q0 -45 19 -69.5t49 -24.5
h10q33 0 55.5 23.5t26.5 64.5l2 18q4 41 -14.5 60.5t-51.5 19.5h-4z" />
    <glyph glyph-name="fivesixteenths" unicode="&#xf217;" horiz-adv-x="2252" 
d="M70 1059h190q-7 -57 12.5 -81t53.5 -24h10q74 0 84 93l2 18q4 46 -14.5 70t-53.5 24h-12q-62 0 -96 -49l-156 55l76 437h508l-23 -166h-348l-24 -142q45 31 120 31q115 0 170 -70.5t43 -189.5l-2 -18q-12 -120 -86.5 -189.5t-204.5 -69.5q-136 0 -200 63.5t-51 188.5z
M231 0h-204l1388 1597h205zM1501 0h-522l20 166h166l54 399l-119 -73l-76 137l272 170h144l-84 -633h166zM2181 813l-22 -168q-173 0 -258 -82q-41 -41 -56 -96q42 37 113 37q102 0 152 -64t38 -180l-2 -20q-11 -119 -86.5 -186.5t-204.5 -67.5q-136 0 -197.5 80.5
t-47.5 216.5l2 20q13 123 48 210t112 167q74 77 172.5 105t236.5 28zM1888 338q-54 0 -88 -45q-4 -24 -4 -47q0 -45 19 -69.5t49 -24.5h10q33 0 55.5 23.5t26.5 64.5l2 18q4 41 -14.5 60.5t-51.5 19.5h-4z" />
    <glyph glyph-name="sevensixteenths" unicode="&#xf218;" horiz-adv-x="2252" 
d="M98 1315l37 287h553l-14 -119l-367 -680h-203l351 635l-93 -2h-81l-15 -121h-168zM231 0h-204l1388 1597h205zM1501 0h-522l20 166h166l54 399l-119 -73l-76 137l272 170h144l-84 -633h166zM2181 813l-22 -168q-173 0 -258 -82q-41 -41 -56 -96q42 37 113 37
q102 0 152 -64t38 -180l-2 -20q-11 -119 -86.5 -186.5t-204.5 -67.5q-136 0 -197.5 80.5t-47.5 216.5l2 20q13 123 48 210t112 167q74 77 172.5 105t236.5 28zM1888 338q-54 0 -88 -45q-4 -24 -4 -47q0 -45 19 -69.5t49 -24.5h10q33 0 55.5 23.5t26.5 64.5l2 18
q4 41 -14.5 60.5t-51.5 19.5h-4z" />
    <glyph glyph-name="ninesixteenths" unicode="&#xf219;" horiz-adv-x="2252" 
d="M76 788l22 168q177 0 262 82q40 40 56 97q-42 -37 -113 -37q-102 0 -152 63.5t-38 179.5l2 21q11 119 86.5 186.5t204.5 67.5q136 0 197.5 -80.5t47.5 -216.5l-2 -21q-13 -122 -48 -209t-112 -167q-74 -77 -174.5 -105.5t-238.5 -28.5zM369 1264h4q54 0 88 45q4 24 4 47
q0 45 -19 69.5t-49 24.5h-10q-33 0 -55.5 -23.5t-26.5 -64.5l-2 -19q-4 -40 14.5 -59.5t51.5 -19.5zM231 0h-204l1388 1597h205zM1501 0h-522l20 166h166l54 399l-119 -73l-76 137l272 170h144l-84 -633h166zM2181 813l-22 -168q-173 0 -258 -82q-41 -41 -56 -96
q42 37 113 37q102 0 152 -64t38 -180l-2 -20q-11 -119 -86.5 -186.5t-204.5 -67.5q-136 0 -197.5 80.5t-47.5 216.5l2 20q13 123 48 210t112 167q74 77 172.5 105t236.5 28zM1888 338q-54 0 -88 -45q-4 -24 -4 -47q0 -45 19 -69.5t49 -24.5h10q33 0 55.5 23.5t26.5 64.5
l2 18q4 41 -14.5 60.5t-51.5 19.5h-4z" />
    <glyph glyph-name="elevensixteenths" unicode="&#xf220;" horiz-adv-x="2867" 
d="M580 803h-523l21 166h166l53 399l-119 -74l-76 138l273 170h143l-84 -633h166zM1194 803h-522l20 166h166l53 399l-118 -74l-76 138l272 170h144l-84 -633h165zM846 0h-205l1389 1597h204zM2116 0h-523l21 166h166l53 399l-119 -73l-76 137l273 170h143l-84 -633h166z
M2796 813l-23 -168q-173 0 -258 -82q-39 -39 -55 -96q42 37 112 37q102 0 152.5 -64t38.5 -180l-2 -20q-11 -119 -86.5 -186.5t-204.5 -67.5q-136 0 -198 80.5t-48 216.5l2 20q13 123 48 210t112 167q74 77 173 105t237 28zM2503 338q-54 0 -88 -45q-5 -24 -5 -47
q0 -45 19 -69.5t49 -24.5h10q33 0 55.5 23.5t26.5 64.5l2 18q4 41 -14 60.5t-51 19.5h-4z" />
    <glyph glyph-name="thirteensixteenths" unicode="&#xf221;" horiz-adv-x="2867" 
d="M580 803h-523l21 166h166l53 399l-119 -74l-76 138l273 170h143l-84 -633h166zM874 1059q-7 -57 12.5 -81t53.5 -24h10q32 0 55 20t27 58l2 19q9 75 -67 75h-105l23 166h102q75 0 84 70l2 18q4 35 -14.5 52.5t-48.5 17.5h-11q-73 0 -84 -115h-190l2 19q15 133 86 197.5
t205 64.5q75 0 128.5 -22.5t79 -58.5t35 -73t5.5 -73l-2 -19q-6 -58 -36 -99t-73 -61q37 -17 56 -67.5t12 -114.5l-2 -18q-4 -38 -21 -74.5t-49 -71t-87.5 -55.5t-127.5 -21q-138 0 -202.5 63.5t-51.5 188.5l2 19h190zM846 0h-205l1389 1597h204zM2116 0h-523l21 166h166
l53 399l-119 -73l-76 137l273 170h143l-84 -633h166zM2796 813l-23 -168q-173 0 -258 -82q-39 -39 -55 -96q42 37 112 37q102 0 152.5 -64t38.5 -180l-2 -20q-11 -119 -86.5 -186.5t-204.5 -67.5q-136 0 -198 80.5t-48 216.5l2 20q13 123 48 210t112 167q74 77 173 105
t237 28zM2503 338q-54 0 -88 -45q-5 -24 -5 -47q0 -45 19 -69.5t49 -24.5h10q33 0 55.5 23.5t26.5 64.5l2 18q4 41 -14 60.5t-51 19.5h-4z" />
    <glyph glyph-name="fifteensixteenths" unicode="&#xf222;" horiz-adv-x="2867" 
d="M580 803h-523l21 166h166l53 399l-119 -74l-76 138l273 170h143l-84 -633h166zM684 1059h190q-7 -57 12.5 -81t53.5 -24h10q74 0 84 93l2 18q4 46 -14 70t-53 24h-13q-62 0 -96 -49l-155 55l75 437h508l-22 -166h-348l-25 -142q45 31 121 31q115 0 170 -70.5t43 -189.5
l-2 -18q-12 -120 -86.5 -189.5t-204.5 -69.5q-136 0 -200.5 63.5t-51.5 188.5zM846 0h-205l1389 1597h204zM2116 0h-523l21 166h166l53 399l-119 -73l-76 137l273 170h143l-84 -633h166zM2796 813l-23 -168q-173 0 -258 -82q-39 -39 -55 -96q42 37 112 37q102 0 152.5 -64
t38.5 -180l-2 -20q-11 -119 -86.5 -186.5t-204.5 -67.5q-136 0 -198 80.5t-48 216.5l2 20q13 123 48 210t112 167q74 77 173 105t237 28zM2503 338q-54 0 -88 -45q-5 -24 -5 -47q0 -45 19 -69.5t49 -24.5h10q33 0 55.5 23.5t26.5 64.5l2 18q4 41 -14 60.5t-51 19.5h-4z" />
    </font>
</defs>
</svg>
