<?xml version="1.0" standalone="no"?>
<!DOCTYPE svg PUBLIC "-//W3C//DTD SVG 1.1//EN" "http://www.w3.org/Graphics/SVG/1.1/DTD/svg11.dtd" >
<svg xmlns="http://www.w3.org/2000/svg" xmlns:xlink="http://www.w3.org/1999/xlink" version="1.1">
<metadata>
Created by FontForge 20170731 at Thu Jan 27 16:36:07 2022
 By Aleksey,,,
Copyright (c) 2014, Cooper Hewitt Smithsonian Design Museum (cooperhewitt.org)
</metadata>
<defs>
<font id="CooperHewitt-Thin" horiz-adv-x="614" >
  <font-face 
    font-family="Cooper Hewitt"
    font-weight="701"
    font-stretch="normal"
    units-per-em="2048"
    panose-1="0 0 0 0 0 0 0 0 0 0"
    ascent="1536"
    descent="-512"
    x-height="1085"
    cap-height="1597"
    bbox="-410 -422 2816 2109"
    underline-thickness="40"
    underline-position="-224"
    unicode-range="U+0020-F222"
  />
<missing-glyph horiz-adv-x="1972" 
d="M188 0v1597h1598v-1597h-1598zM987 707l-571 -572h1143zM416 1462l571 -571l572 571h-1143zM895 799l-563 563v-1126zM1079 799l563 -563v1126z" />
    <glyph glyph-name=".notdef" horiz-adv-x="1972" 
d="M188 0v1597h1598v-1597h-1598zM987 707l-571 -572h1143zM416 1462l571 -571l572 571h-1143zM895 799l-563 563v-1126zM1079 799l563 -563v1126z" />
    <glyph glyph-name=".null" horiz-adv-x="0" 
 />
    <glyph glyph-name="nonmarkingreturn" horiz-adv-x="682" 
 />
    <glyph glyph-name="space" unicode=" " horiz-adv-x="368" 
 />
    <glyph glyph-name="exclam" unicode="!" horiz-adv-x="368" 
d="M164 1597h41l-6 -1239h-29zM225 82v-82h-82v82h82z" />
    <glyph glyph-name="quotedbl" unicode="&#x22;" horiz-adv-x="573" 
d="M164 1597h41l-10 -512h-21zM369 1597h41l-11 -512h-20z" />
    <glyph glyph-name="numbersign" unicode="#" horiz-adv-x="1228" 
d="M205 1044v41h239l123 512h41l-123 -512h396l123 512h40l-122 -512h231v-41h-242l-118 -491h231v-41h-242l-120 -512h-41l122 512h-397l-121 -512h-41l123 512h-231v41h241l117 491h-229zM475 1044l-119 -491h398l116 491h-395z" />
    <glyph glyph-name="dollar" unicode="$" horiz-adv-x="1228" 
d="M846 1720l-64 -268q141 -39 212 -144t71 -259v-29h-41q0 322 -252 393l-137 -575q230 -25 335 -106.5t105 -233.5v-17q0 -165 -130.5 -261.5t-330.5 -96.5q-84 0 -147 14l-61 -260h-41l63 270q-137 43 -205.5 149t-68.5 249v10h41q0 -139 61 -234.5t182 -134.5l148 617
q-225 27 -323.5 103.5t-98.5 209.5v17q0 154 127.5 248t320.5 94q64 0 131 -13l62 258h41zM1034 489q0 148 -98 216t-311 94l-148 -623q58 -12 133 -12h6q182 0 300 84.5t118 230.5v10zM207 1124q0 -128 87.5 -192t299.5 -90l139 581q-64 11 -117 11h-6q-169 0 -286 -82.5
t-117 -216.5v-11z" />
    <glyph glyph-name="percent" unicode="%" horiz-adv-x="1843" 
d="M1733 338v-21q0 -154 -82.5 -241.5t-220.5 -87.5t-221 88t-83 241v21q0 154 83 242t221 88t220.5 -88t82.5 -242zM1167 344v-33q0 -123 70 -202.5t186 -79.5h13q116 0 186 79.5t70 202.5v33q0 123 -70 203t-186 80h-13q-116 0 -186 -80t-70 -203zM676 1253v33
q0 123 -70 203t-186 80h-12q-116 0 -186 -80t-70 -203v-33q0 -123 70 -202.5t186 -79.5h12q116 0 186 79.5t70 202.5zM567 0l643 1542q-145 -47 -309 -47q-138 0 -266 27q82 -92 82 -242v-20q0 -154 -82.5 -242t-220.5 -88t-220.5 88t-82.5 242v20q0 154 82.5 242t220.5 88
q59 0 114 -19q168 -55 373 -55q97 0 200.5 20t162.5 41v-30l-652 -1567h-45z" />
    <glyph glyph-name="ampersand" unicode="&#x26;" horiz-adv-x="1310" 
d="M563 -12q-209 0 -324.5 108.5t-115.5 313.5v20q0 74 23 139t67 119t90 94t111 84q-64 68 -100 110.5t-72.5 97t-52 106.5t-15.5 110v21q0 130 88 214.5t250 84.5t250 -84.5t88 -214.5v-21q0 -36 -10 -70.5t-22.5 -61t-40.5 -58t-47 -50.5t-60 -49.5t-62 -45t-69.5 -46.5
t-67.5 -45l543 -573q99 190 102 508v10h41q0 -344 -113 -549l246 -260h-53l-213 225q-151 -237 -461 -237zM557 29h12q285 0 426 225l-557 588q-61 -43 -105 -82t-85 -90t-62.5 -111.5t-21.5 -128.5v-20q0 -180 102 -280.5t291 -100.5zM215 1311v-21q0 -104 55 -189.5
t176 -211.5q17 12 52.5 35t54 35.5t50 34.5t48.5 36t42.5 36t39.5 39.5t30.5 40.5t25 44.5t14.5 47t6 52.5v21q0 112 -76 185t-213 73h-16q-137 0 -213 -73t-76 -185z" />
    <glyph glyph-name="quotesingle" unicode="'" horiz-adv-x="368" 
d="M164 1597h41l-10 -512h-21z" />
    <glyph glyph-name="parenleft" unicode="(" 
d="M133 717v41q0 171 26 316t76.5 262t102.5 202t127 182h47q-79 -100 -135.5 -192.5t-105 -209.5t-73 -257t-24.5 -303v-41q0 -163 24.5 -303.5t73 -257.5t105 -209.5t135.5 -192.5h-47q-75 97 -127 182t-102.5 202.5t-76.5 262.5t-26 316z" />
    <glyph glyph-name="parenright" unicode=")" 
d="M481 758v-41q0 -138 -18.5 -261.5t-47 -217t-74.5 -185.5t-89 -157.5t-102 -141.5h-48q79 100 135.5 192.5t105 209.5t73 257.5t24.5 303.5v41q0 163 -24.5 303t-73 257t-105 209.5t-135.5 192.5h48q59 -76 102 -141.5t89 -157t74.5 -185t47 -217t18.5 -261.5z" />
    <glyph glyph-name="asterisk" unicode="*" horiz-adv-x="778" 
d="M369 1638h41v-307h-41v307zM188 958l-32 25l180 248l33 -23zM31 1364l12 39l293 -94l-12 -39zM623 983l-33 -25l-180 250l32 23zM735 1403l13 -39l-293 -94l-13 39z" />
    <glyph glyph-name="plus" unicode="+" horiz-adv-x="1228" 
d="M594 1311h41v-492h491v-41h-491v-491h-41v491h-492v41h492v492z" />
    <glyph glyph-name="comma" unicode="," horiz-adv-x="368" 
d="M225 82v-66q0 -114 -46.5 -172.5t-127.5 -58.5v41q130 0 133 174h-41v82h82z" />
    <glyph glyph-name="hyphen" unicode="-" horiz-adv-x="655" 
d="M102 676v41h451v-41h-451z" />
    <glyph glyph-name="period" unicode="." horiz-adv-x="368" 
d="M225 82v-82h-82v82h82z" />
    <glyph glyph-name="slash" unicode="/" 
d="M563 1720l-471 -1966h-41l471 1966h41z" />
    <glyph glyph-name="zero" unicode="0" horiz-adv-x="1228" 
d="M143 1114q0 229 120.5 362.5t350.5 133.5t350.5 -133.5t120.5 -362.5v-631q0 -229 -120.5 -362t-350.5 -133t-350.5 133t-120.5 362v631zM184 512q0 -246 112 -364.5t312 -118.5h13q200 0 311.5 118.5t111.5 364.5v573q0 247 -111.5 365.5t-311.5 118.5h-13
q-200 0 -312 -119t-112 -365v-573z" />
    <glyph glyph-name="one" unicode="1" horiz-adv-x="1228" 
d="M1106 0h-942v41h450v1509l-448 -301l-23 35l482 324h30v-1567h451v-41z" />
    <glyph glyph-name="two" unicode="2" horiz-adv-x="1228" 
d="M420 41h676v-41h-963v31l715 749q119 126 163 207.5t44 200.5v20q0 163 -126 262t-306 99h-17q-123 0 -207.5 -32t-133.5 -98.5t-70 -156.5t-21 -217h-41v51q0 244 116 369t365 125q134 0 242.5 -47.5t174 -140t65.5 -214.5v-20q0 -126 -45.5 -212.5t-176.5 -223.5
l-679 -713z" />
    <glyph glyph-name="three" unicode="3" horiz-adv-x="1228" 
d="M1051 1223q0 102 -60.5 182.5t-158.5 122t-214 41.5h-12q-220 0 -326 -120.5t-106 -383.5h-41v51q0 236 118.5 365t362.5 129q206 0 344 -108t138 -290v-20q0 -150 -79.5 -248t-219.5 -129q148 -31 228.5 -130.5t80.5 -264.5v-21q0 -134 -66.5 -228.5t-175.5 -138.5
t-250 -44q-241 0 -366 136t-125 368v20h41q0 -237 115 -360t329 -123h13q197 0 320.5 95.5t123.5 268.5v31q0 178 -106 274.5t-297 96.5h-252v41h252q174 0 281.5 94.5t107.5 251.5v41z" />
    <glyph glyph-name="four" unicode="4" horiz-adv-x="1228" 
d="M840 0h-41v471h-717v31l706 1095h52v-1085h307v-41h-307v-471zM801 1542l-666 -1032l234 2h430v717z" />
    <glyph glyph-name="five" unicode="5" horiz-adv-x="1228" 
d="M608 954q-160 0 -271.5 -69t-160.5 -203l-41 12l39 903h911v-41h-872l-33 -778q132 217 434 217q139 0 250 -58.5t176.5 -171.5t65.5 -263v-21q0 -150 -65.5 -263t-176.5 -171.5t-250 -58.5q-241 0 -366 136t-125 368v20h41q0 -237 115 -360t329 -123h13q193 0 318.5 123
t125.5 323v33q0 200 -125.5 323t-318.5 123h-13z" />
    <glyph glyph-name="six" unicode="6" horiz-adv-x="1228" 
d="M1044 1610v-39q-180 0 -356 -88t-297 -256q-162 -225 -203 -494q65 117 180.5 189.5t266.5 72.5q211 0 346 -133.5t135 -359.5v-21q0 -225 -139.5 -359t-351.5 -134q-213 0 -352.5 143.5t-139.5 390.5v21q0 404 229 710q129 173 309 265t373 92zM629 954
q-153 0 -276.5 -89t-174.5 -224q-4 -66 -4 -92v-33q0 -222 125 -354.5t319 -132.5h13q193 0 318.5 123t125.5 323v33q0 201 -121 323.5t-313 122.5h-12z" />
    <glyph glyph-name="seven" unicode="7" horiz-adv-x="1228" 
d="M143 1024v573h963v-30l-649 -1567h-45l647 1559l-240 -3h-635v-532h-41z" />
    <glyph glyph-name="eight" unicode="8" horiz-adv-x="1228" 
d="M1096 1192q0 -150 -79.5 -248t-219.5 -129q148 -31 228.5 -130.5t80.5 -264.5v-21q0 -134 -66.5 -228.5t-175.5 -138.5t-250 -44t-250 44t-175 138.5t-66 228.5v21q0 166 79.5 265t227.5 130q-140 31 -218.5 129t-78.5 248v20q0 182 137.5 290t343.5 108t344 -108
t138 -290v-20zM567 795q-191 0 -297 -96.5t-106 -274.5v-31q0 -173 123.5 -268.5t320.5 -95.5h13q197 0 320.5 95.5t123.5 268.5v31q0 178 -106 274.5t-297 96.5h-95zM621 1569h-13q-116 0 -213.5 -42t-157 -122t-59.5 -182v-41q0 -157 107.5 -251.5t281.5 -94.5h95
q174 0 281.5 94.5t107.5 251.5v41q0 102 -59.5 182t-157 122t-213.5 42z" />
    <glyph glyph-name="nine" unicode="9" horiz-adv-x="1228" 
d="M184 -12v39q180 0 356.5 88t297.5 256q157 220 202 491q-68 -117 -182 -188.5t-264 -71.5q-211 0 -346 134t-135 360v20q0 225 139.5 359.5t351.5 134.5q213 0 352.5 -144t139.5 -391v-20q0 -404 -230 -711q-129 -173 -308.5 -264.5t-373.5 -91.5zM588 643h12
q152 0 275 89t176 224q4 62 4 93v32q0 222 -125.5 355t-319.5 133h-12q-193 0 -318.5 -123.5t-125.5 -323.5v-32q0 -201 121 -324t313 -123z" />
    <glyph glyph-name="colon" unicode=":" horiz-adv-x="368" 
d="M225 82v-82h-82v82h82zM225 840v-82h-82v82h82z" />
    <glyph glyph-name="semicolon" unicode=";" horiz-adv-x="368" 
d="M225 840v-82h-82v82h82zM225 82v-66q0 -114 -46.5 -172.5t-127.5 -58.5v41q130 0 133 174h-41v82h82z" />
    <glyph glyph-name="less" unicode="&#x3c;" horiz-adv-x="1228" 
d="M102 819l1024 504v-45l-983 -479l983 -480v-45l-1024 504v41z" />
    <glyph glyph-name="equal" unicode="=" horiz-adv-x="1228" 
d="M102 983v41h1024v-41h-1024zM102 573v41h1024v-41h-1024z" />
    <glyph glyph-name="greater" unicode="&#x3e;" horiz-adv-x="1228" 
d="M1126 778l-1024 -504v45l983 480l-983 479v45l1024 -504v-41z" />
    <glyph glyph-name="question" unicode="?" horiz-adv-x="901" 
d="M465 358h-29q0 83 19 158t49.5 131.5t67.5 109t74.5 100.5t68 96t50 105.5t19.5 119.5q0 60 -9.5 114t-33.5 105.5t-60.5 89t-94 60t-129.5 22.5q-181 0 -264.5 -138t-83.5 -407h-41v14q0 274 96 423t293 149q98 0 171.5 -37t115 -99t61.5 -133t20 -149q0 -70 -19.5 -133
t-50.5 -113t-68.5 -99t-75.5 -100.5t-70 -106.5t-53 -127.5t-23 -154.5zM492 82v-82h-82v82h82z" />
    <glyph glyph-name="at" unicode="@" horiz-adv-x="1904" 
d="M997 -381h13q198 0 357 45t316 158l25 -33q-159 -119 -331 -165t-373 -46q-202 0 -374.5 69.5t-295.5 195t-192.5 308.5t-69.5 402v82q0 293 117 515t325.5 341t478.5 119q136 0 260.5 -34t230 -102.5t183.5 -165.5t122 -230.5t44 -289.5v-61q0 -104 -13.5 -188.5
t-38.5 -146.5t-62.5 -109t-81.5 -77.5t-101 -49t-116 -26t-130 -7.5h-10l-14 162q-48 -67 -136.5 -120.5t-203.5 -53.5q-197 0 -305.5 130t-108.5 343v41q0 213 108.5 343t305.5 130q115 0 203.5 -53.5t136.5 -120.5l14 161h31l-11 -245v-471l9 -205q63 0 113.5 6.5
t101.5 23t90 43.5t73.5 70t57 101t35 138.5t12.5 180.5v61q0 152 -42.5 281t-117 220t-175.5 155t-216.5 94.5t-241.5 30.5h-12q-189 0 -350 -64.5t-277 -183t-181.5 -295t-65.5 -391.5v-82q0 -215 67 -391.5t185 -295t280.5 -183t351.5 -64.5zM1260 866
q-51 78 -134.5 134.5t-197.5 56.5q-178 0 -276.5 -118t-98.5 -314v-41q0 -196 98.5 -314t276.5 -118q114 0 197.5 56t134.5 134v524z" />
    <glyph glyph-name="A" unicode="A" horiz-adv-x="1208" 
d="M584 1618h41l512 -1618h-43l-148 471h-684l-147 -471h-43zM604 1556l-328 -1044h656z" />
    <glyph glyph-name="B" unicode="B" horiz-adv-x="1130" 
d="M164 1597h366q71 0 130 -9t118.5 -34.5t100.5 -66.5t66.5 -111.5t25.5 -163.5v-32q0 -306 -277 -363q318 -48 318 -379v-41q0 -93 -25.5 -164.5t-66.5 -114.5t-100.5 -70.5t-119 -37.5t-129.5 -10h-407v1597zM567 795h-362v-754h362q402 0 402 358v37q0 359 -402 359z
M526 1556h-321v-720h321q41 0 75.5 2.5t77.5 11t76.5 23t67 40.5t55.5 61.5t36 88.5t14 119v28q0 66 -14 119t-36 88.5t-55.5 61.5t-67 40.5t-76.5 23t-77.5 11t-75.5 2.5z" />
    <glyph glyph-name="C" unicode="C" horiz-adv-x="1214" 
d="M133 840q0 274 58.5 445.5t170 248t283.5 76.5q234 0 342.5 -129t108.5 -416v-41h-41q0 202 -43.5 322t-130 171.5t-230.5 51.5h-12q-155 0 -256 -71.5t-155 -234.5t-54 -423v-82q0 -260 54 -423t155 -234.5t256 -71.5h12q404 0 404 483h41v-29q0 -232 -111.5 -363.5
t-339.5 -131.5q-172 0 -283.5 76.5t-170 248t-58.5 445.5v82z" />
    <glyph glyph-name="D" unicode="D" horiz-adv-x="1259" 
d="M1137 758q0 -206 -43 -355t-123 -236t-183.5 -127t-234.5 -40h-389v1597h389q132 0 235 -40t183 -126.5t123 -235.5t43 -355v-82zM205 41h338q101 0 183.5 23t152.5 76t117 135.5t73.5 204t26.5 278.5v82q0 195 -39.5 335.5t-114.5 222.5t-173.5 120t-225.5 38h-338
v-1515z" />
    <glyph glyph-name="E" unicode="E" horiz-adv-x="1105" 
d="M164 1597h840v-41h-799v-720h696v-41h-696v-754h799v-41h-840v1597z" />
    <glyph glyph-name="F" unicode="F" horiz-adv-x="991" 
d="M164 1597h799v-41h-758v-720h655v-41h-655v-795h-41v1597z" />
    <glyph glyph-name="G" unicode="G" horiz-adv-x="1280" 
d="M688 -12q-185 0 -305.5 75.5t-185 247.5t-64.5 447v82q0 206 35.5 355t105 239.5t166 133t226.5 42.5q243 0 351.5 -140t108.5 -399v-47h-41q0 287 -97 416t-316 129h-13q-115 0 -202.5 -39.5t-152 -124.5t-97.5 -227t-33 -338v-82q0 -197 33.5 -338t99.5 -226.5
t158.5 -125t216.5 -39.5h12q139 0 239.5 43t151.5 108v520h-325v41h366v-579q-58 -74 -166.5 -124t-271.5 -50z" />
    <glyph glyph-name="H" unicode="H" horiz-adv-x="1269" 
d="M1065 1597h41v-1597h-41v795h-860v-795h-41v1597h41v-761h860v761z" />
    <glyph glyph-name="I" unicode="I" horiz-adv-x="389" 
d="M215 1597v-1597h-41v1597h41z" />
    <glyph glyph-name="J" unicode="J" horiz-adv-x="962" 
d="M764 1597h41v-1105q0 -119 -19.5 -209t-62.5 -157.5t-115 -102.5t-172 -35q-194 0 -281 130.5t-87 373.5v14h41q0 -238 74.5 -357.5t252.5 -119.5q180 0 254 119.5t74 357.5v1091z" />
    <glyph glyph-name="K" unicode="K" horiz-adv-x="1060" 
d="M205 1597v-1026l729 1026h49l-494 -694l494 -903h-49l-469 868l-260 -364v-504h-41v1597h41z" />
    <glyph glyph-name="L" unicode="L" horiz-adv-x="950" 
d="M922 0h-758v1597h41v-1556h717v-41z" />
    <glyph glyph-name="M" unicode="M" horiz-adv-x="1556" 
d="M778 57l572 1540h43v-1597h-41v1149l6 354l-559 -1503h-41l-559 1503l6 -354v-1149h-41v1597h43z" />
    <glyph glyph-name="N" unicode="N" horiz-adv-x="1310" 
d="M1108 59l-2 310v1228h41v-1597h-51l-893 1538l2 -309v-1229h-41v1597h51z" />
    <glyph glyph-name="O" unicode="O" horiz-adv-x="1290" 
d="M133 840q0 274 58.5 445.5t170 248t283.5 76.5t283.5 -76.5t170 -248t58.5 -445.5v-82q0 -274 -58.5 -445.5t-170 -248t-283.5 -76.5t-283.5 76.5t-170 248t-58.5 445.5v82zM174 758q0 -260 54 -423t155 -234.5t256 -71.5h12q155 0 256 71.5t155 234.5t54 423v82
q0 260 -54 423t-155 234.5t-256 71.5h-12q-155 0 -256 -71.5t-155 -234.5t-54 -423v-82z" />
    <glyph glyph-name="P" unicode="P" horiz-adv-x="1114" 
d="M205 696v-696h-41v1597h395q70 0 131 -11.5t121.5 -41.5t104 -77.5t70 -124t26.5 -175.5v-41q0 -99 -26.5 -175.5t-70 -124t-104 -77.5t-121.5 -41.5t-131 -11.5h-354zM205 737h352q57 0 108 8t109 33t99 66t68.5 114t27.5 170v37q0 97 -27.5 170t-68.5 114t-99 66
t-109 33t-108 8h-352v-819z" />
    <glyph glyph-name="Q" unicode="Q" horiz-adv-x="1282" 
d="M133 840q0 274 58.5 445.5t170 248t283.5 76.5t283.5 -76.5t170 -248t58.5 -445.5v-82q0 -327 -82.5 -507.5t-247.5 -236.5l84 -219h-41l-79 209q-72 -16 -146 -16q-172 0 -283.5 76.5t-170 248t-58.5 445.5v82zM174 758q0 -260 54 -423t155 -234.5t256 -71.5h12
q70 0 125 14l-141 377h41l137 -367q152 52 227.5 222t75.5 483v82q0 260 -54 423t-155 234.5t-256 71.5h-12q-155 0 -256 -71.5t-155 -234.5t-54 -423v-82z" />
    <glyph glyph-name="R" unicode="R" horiz-adv-x="1132" 
d="M205 696v-696h-41v1597h395q70 0 131 -11.5t121.5 -41.5t104 -77.5t70 -124t26.5 -175.5v-41q0 -93 -23 -166.5t-64.5 -121.5t-92.5 -78t-113 -45l293 -715h-45l-289 707q-54 -11 -119 -11h-354zM205 737h352q57 0 108 8t109 33t99 66t68.5 114t27.5 170v37
q0 97 -27.5 170t-68.5 114t-99 66t-109 33t-108 8h-352v-819z" />
    <glyph glyph-name="S" unicode="S" horiz-adv-x="1187" 
d="M586 809q-252 31 -362.5 125.5t-110.5 253.5v20q0 122 64.5 214.5t172.5 140t242 47.5q244 0 363.5 -129t119.5 -365v-51h-41q0 263 -107 383.5t-327 120.5h-12q-178 0 -304 -98t-126 -252v-21q0 -156 103 -238.5t345 -111.5q254 -30 366.5 -134.5t112.5 -281.5v-20
q0 -200 -138 -312t-353 -112q-241 0 -366.5 136t-125.5 368v20h41q0 -237 115.5 -360t329.5 -123h12q196 0 320 100t124 274v21q0 175 -107 264.5t-351 120.5z" />
    <glyph glyph-name="T" unicode="T" horiz-adv-x="1003" 
d="M522 1556v-1556h-41v1556h-430v41h901v-41h-430z" />
    <glyph glyph-name="U" unicode="U" horiz-adv-x="1269" 
d="M635 -12q-113 0 -196.5 24.5t-148.5 81.5t-98.5 158t-33.5 246v1099h41v-1093q0 -137 28.5 -230.5t87 -146.5t135.5 -75.5t185 -22.5t185 22.5t135.5 75.5t87 146.5t28.5 230.5v1093h41v-1099q0 -145 -33.5 -246t-98.5 -158t-148.5 -81.5t-196.5 -24.5z" />
    <glyph glyph-name="V" unicode="V" horiz-adv-x="1208" 
d="M625 -20h-41l-512 1617h43l489 -1556l490 1556h43z" />
    <glyph glyph-name="W" unicode="W" horiz-adv-x="1761" 
d="M901 1597l416 -1529l323 1529h43l-342 -1597h-45l-415 1530l-416 -1530h-45l-342 1597h43l323 -1529l416 1529h41z" />
    <glyph glyph-name="X" unicode="X" horiz-adv-x="1187" 
d="M594 774l-488 -774h-49l510 809l-510 788h49l488 -755l487 755h49l-509 -788l509 -809h-49z" />
    <glyph glyph-name="Y" unicode="Y" horiz-adv-x="1105" 
d="M543 530l467 1067h45l-492 -1116v-481h-41v481l-491 1116h45z" />
    <glyph glyph-name="Z" unicode="Z" horiz-adv-x="1126" 
d="M82 31l891 1528l-236 -3h-635v41h922v-30l-891 -1528l236 2h675v-41h-962v31z" />
    <glyph glyph-name="bracketleft" unicode="[" 
d="M164 1720h348v-41h-307v-1884h307v-41h-348v1966z" />
    <glyph glyph-name="backslash" unicode="\" 
d="M522 -246l-471 1966h41l471 -1966h-41z" />
    <glyph glyph-name="bracketright" unicode="]" 
d="M451 -246h-349v41h308v1884h-308v41h349v-1966z" />
    <glyph glyph-name="asciicircum" unicode="^" horiz-adv-x="1228" 
d="M635 1597l504 -1024h-45l-480 983l-479 -983h-45l504 1024h41z" />
    <glyph glyph-name="underscore" unicode="_" horiz-adv-x="655" 
d="M102 -225v41h451v-41h-451z" />
    <glyph glyph-name="grave" unicode="`" horiz-adv-x="1024" 
d="M305 1597h45l185 -327h-46z" />
    <glyph glyph-name="a" unicode="a" horiz-adv-x="993" 
d="M106 256v20q0 71 20.5 125t50.5 85.5t78 54t88.5 32t96.5 17.5l369 59v68q0 61 -6 106.5t-25.5 92t-52.5 75.5t-89.5 47.5t-133.5 18.5t-133.5 -18.5t-89.5 -47.5t-52.5 -75.5t-25.5 -92t-6 -106.5h-41v22q0 359 348 359t348 -359v-493l10 -246h-31l-16 172
q-130 -184 -403 -184q-135 0 -219.5 70.5t-84.5 197.5zM412 29q282 0 397 213v368l-383 -61q-66 -12 -109.5 -26.5t-85.5 -43.5t-63 -78.5t-21 -121.5v-23q0 -96 69 -161.5t196 -65.5z" />
    <glyph glyph-name="b" unicode="b" horiz-adv-x="1044" 
d="M184 1638v-706q51 67 133.5 116.5t198.5 49.5q203 0 309.5 -141t106.5 -394v-41q0 -253 -106.5 -393.5t-309.5 -140.5q-83 0 -155.5 30t-113 66t-69.5 78l-14 -162h-31l10 246v1392h41zM184 866v-647q124 -190 332 -190q184 0 279.5 130.5t95.5 362.5v41q0 232 -95.5 363
t-279.5 131q-207 0 -332 -191z" />
    <glyph glyph-name="c" unicode="c" horiz-adv-x="1034" 
d="M113 563q0 118 25.5 213.5t77.5 168.5t136.5 113t196.5 40q100 0 175 -33t116.5 -88t61.5 -118t20 -132v-20h-41q0 158 -81 254t-251 96q-194 0 -294.5 -132.5t-100.5 -361.5v-41q0 -229 100.5 -361t294.5 -132q171 0 251.5 89t80.5 240h41v-20q0 -52 -11.5 -100
t-39 -94.5t-69.5 -80.5t-107 -54.5t-146 -20.5q-112 0 -196.5 40t-136.5 112.5t-77.5 168t-25.5 213.5v41z" />
    <glyph glyph-name="d" unicode="d" horiz-adv-x="1044" 
d="M528 1098q116 0 198.5 -49.5t133.5 -116.5v706h41v-1392l10 -246h-30l-15 162q-49 -69 -134 -121.5t-204 -52.5q-203 0 -309 140.5t-106 393.5v41q0 253 106 394t309 141zM860 866q-125 191 -332 191q-184 0 -279 -131t-95 -363v-41q0 -232 95 -362.5t279 -130.5
q208 0 332 190v647z" />
    <glyph glyph-name="e" unicode="e" horiz-adv-x="1085" 
d="M973 522h-819q0 -226 99 -359.5t300 -133.5q81 0 146.5 19.5t108 51t71 73.5t41 86t12.5 89h41v-10q0 -61 -24 -120t-72 -112t-132 -85.5t-192 -32.5q-113 0 -198.5 41t-137.5 114.5t-78 168.5t-26 210v41q0 115 25 210t76 169t135 115t194 41t194 -41t135 -115t76 -169
t25 -210v-41zM543 1057q-129 0 -217.5 -64t-130 -173.5t-41.5 -256.5h778q0 147 -41.5 256.5t-130 173.5t-217.5 64z" />
    <glyph glyph-name="f" unicode="f" horiz-adv-x="696" 
d="M276 1362v-277h338v-41h-338v-1044h-40v1044h-175v41h175v289q0 80 21 136t60 86t84 42.5t103 12.5q78 0 131 -21v-41q-14 7 -51 14t-72 7q-116 0 -176 -53t-60 -195z" />
    <glyph glyph-name="g" unicode="g" horiz-adv-x="1044" 
d="M512 -422q-206 0 -302.5 107t-96.5 292v23h41q0 -186 83.5 -283.5t274.5 -97.5q182 0 265 98t83 283v236q-49 -67 -133.5 -116.5t-200.5 -49.5q-203 0 -308 128.5t-105 364.5v41q0 236 105 365t308 129q83 0 155.5 -30t113.5 -66t71 -78l15 161h30l-10 -245v-863
q0 -184 -96.5 -291.5t-292.5 -107.5zM860 301v565q-125 191 -332 191q-185 0 -279.5 -118.5t-94.5 -334.5v-41q0 -216 94.5 -334t279.5 -118q208 0 332 190z" />
    <glyph glyph-name="h" unicode="h" horiz-adv-x="1003" 
d="M881 0h-41v768q0 156 -72 222.5t-217 66.5q-134 0 -225.5 -56t-141.5 -135v-866h-41v1638h41v-712q53 73 145.5 122.5t225.5 49.5q326 0 326 -320v-778z" />
    <glyph glyph-name="i" unicode="i" horiz-adv-x="368" 
d="M164 0v1085h41v-1085h-41zM225 1475v-82h-82v82h82z" />
    <glyph glyph-name="j" unicode="j" horiz-adv-x="368" 
d="M164 -133v1218h41v-1230q0 -80 -21 -136t-60 -86t-84 -42.5t-103 -12.5q-79 0 -132 21v41q14 -7 51 -14t72 -7q116 0 176 53t60 195zM225 1475v-82h-82v82h82z" />
    <glyph glyph-name="k" unicode="k" horiz-adv-x="937" 
d="M195 1638v-1228l620 675h55l-381 -411l381 -674h-47l-360 643l-268 -291v-352h-41v1638h41z" />
    <glyph glyph-name="l" unicode="l" horiz-adv-x="368" 
d="M164 0v1638h41v-1638h-41z" />
    <glyph glyph-name="m" unicode="m" horiz-adv-x="1536" 
d="M1413 0h-41v788q0 143 -60.5 206t-187.5 63q-113 0 -194 -55.5t-131 -135.5v-866h-41v788q0 143 -60.5 206t-187.5 63q-113 0 -194.5 -55.5t-131.5 -135.5v-866h-41v840l-10 245h31l14 -165q50 76 134 127t202 51q225 0 272 -189q23 36 52.5 67t71 60t98 45.5t120.5 16.5
q285 0 285 -299v-799z" />
    <glyph glyph-name="n" unicode="n" horiz-adv-x="1003" 
d="M881 0h-41v768q0 156 -72 222.5t-217 66.5q-134 0 -225.5 -56t-141.5 -135v-866h-41v840l-10 245h31l14 -167q54 76 147.5 128t229.5 52q326 0 326 -320v-778z" />
    <glyph glyph-name="o" unicode="o" horiz-adv-x="1077" 
d="M539 -12q-204 0 -315 141.5t-111 392.5v41q0 251 111 393t315 142t315 -142t111 -393v-41q0 -251 -111 -392.5t-315 -141.5zM539 29q185 0 285 131.5t100 361.5v41q0 231 -100 362.5t-285 131.5t-285 -131.5t-100 -362.5v-41q0 -230 100 -361.5t285 -131.5z" />
    <glyph glyph-name="p" unicode="p" horiz-adv-x="1044" 
d="M516 -12q-116 0 -199 49t-133 117v-564h-41v1250l-10 245h31l14 -161q29 42 69.5 78t113 66t155.5 30q203 0 309.5 -141t106.5 -394v-41q0 -253 -106.5 -393.5t-309.5 -140.5zM184 866v-647q124 -190 332 -190q184 0 279.5 130.5t95.5 362.5v41q0 232 -95.5 363
t-279.5 131q-207 0 -332 -191z" />
    <glyph glyph-name="q" unicode="q" horiz-adv-x="1044" 
d="M860 -410v564q-50 -68 -133 -117t-199 -49q-203 0 -309 140.5t-106 393.5v41q0 253 106 394t309 141q119 0 204 -52.5t134 -121.5l15 161h30l-10 -245v-1250h-41zM860 219v647q-125 191 -332 191q-184 0 -279 -131t-95 -363v-41q0 -232 95 -362.5t279 -130.5
q208 0 332 190z" />
    <glyph glyph-name="r" unicode="r" horiz-adv-x="608" 
d="M492 1098l30 -2v-39h-18q-123 0 -203 -57.5t-117 -137.5v-862h-41v840l-10 245h31l14 -165q44 74 123 126t191 52z" />
    <glyph glyph-name="s" unicode="s" horiz-adv-x="983" 
d="M492 29q161 0 254.5 69t93.5 189q0 70 -21.5 115.5t-70.5 73t-112.5 40.5t-164.5 21q-106 11 -177 33t-110 57t-55 77t-16 99v12q0 128 101.5 205.5t277.5 77.5q200 0 289 -95.5t89 -257.5v-8h-41q0 157 -76 238.5t-261 81.5q-157 0 -247.5 -65.5t-90.5 -182.5
q0 -76 28.5 -121.5t107 -75.5t222.5 -43q206 -19 287.5 -79.5t81.5 -196.5v-12q0 -132 -104 -212.5t-285 -80.5q-110 0 -189.5 28.5t-121.5 78t-60.5 104.5t-18.5 120v9h41q0 -299 349 -299z" />
    <glyph glyph-name="t" unicode="t" horiz-adv-x="737" 
d="M276 1085h379v-41h-379v-768q0 -74 16.5 -124t50 -76t73.5 -36.5t96 -10.5q35 0 72 6.5t51 13.5v-41q-50 -20 -131 -20q-58 0 -103 12.5t-84 42t-60 85.5t-21 136v780h-175v41h175v308h40v-308z" />
    <glyph glyph-name="u" unicode="u" horiz-adv-x="1003" 
d="M123 1085h41v-768q0 -156 72 -222t217 -66q134 0 225.5 55.5t140.5 134.5v866h41v-839l10 -246h-30l-17 166q-52 -76 -144.5 -127t-229.5 -51q-326 0 -326 319v778z" />
    <glyph glyph-name="v" unicode="v" horiz-adv-x="983" 
d="M492 51l385 1034h45l-410 -1085h-41l-410 1085h45z" />
    <glyph glyph-name="w" unicode="w" horiz-adv-x="1372" 
d="M686 1020l-311 -1020h-49l-258 1085h43l241 -1032l314 1032h41l313 -1032l242 1032h43l-258 -1085h-50z" />
    <glyph glyph-name="x" unicode="x" horiz-adv-x="901" 
d="M43 1085h49l359 -503l358 503h49l-383 -536l383 -549h-49l-358 518l-359 -518h-49l383 549z" />
    <glyph glyph-name="y" unicode="y" horiz-adv-x="942" 
d="M471 90l371 995h45l-398 -1048l-165 -447h-39l168 447l-398 1048h45z" />
    <glyph glyph-name="z" unicode="z" horiz-adv-x="880" 
d="M72 31l663 1016l-233 -3h-410v41h696v-30l-663 -1016l233 2h451v-41h-737v31z" />
    <glyph glyph-name="braceleft" unicode="{" 
d="M512 1720v-41q-106 0 -160.5 -48t-54.5 -177v-506q0 -168 -119 -211q119 -43 119 -211v-506q0 -129 54.5 -177t160.5 -48v-41h-8q-113 0 -180.5 57t-67.5 199v514q0 111 -46.5 152t-137.5 41v41q91 0 137.5 40.5t46.5 151.5v514q0 142 67.5 199t180.5 57h8z" />
    <glyph glyph-name="bar" unicode="|" horiz-adv-x="368" 
d="M164 -246v1966h41v-1966h-41z" />
    <glyph glyph-name="braceright" unicode="}" 
d="M102 -246v41q106 0 160.5 48t54.5 177v506q0 168 119 211q-119 43 -119 211v506q0 129 -54.5 177t-160.5 48v41h9q113 0 180 -57t67 -199v-514q0 -111 47 -151.5t138 -40.5v-41q-91 0 -138 -41t-47 -152v-514q0 -142 -67 -199t-180 -57h-9z" />
    <glyph glyph-name="asciitilde" unicode="~" horiz-adv-x="1228" 
d="M879 725q43 0 81.5 13t69.5 38t43.5 37.5t32.5 34.5l31 -31q-115 -133 -256 -133q-65 0 -124 17.5t-104.5 42t-89.5 49t-99 42t-114 17.5q-43 0 -81.5 -13t-69.5 -38t-43.5 -37.5t-32.5 -34.5l-31 31q115 133 256 133q65 0 124 -17.5t104.5 -42t89.5 -49t99 -42
t114 -17.5z" />
    <glyph glyph-name="nbspace" unicode="&#xa0;" horiz-adv-x="368" 
 />
    <glyph glyph-name="exclamdown" unicode="&#xa1;" horiz-adv-x="368" 
d="M205 -410h-41l6 1137h29zM143 1004v81h82v-81h-82z" />
    <glyph glyph-name="cent" unicode="&#xa2;" horiz-adv-x="1228" 
d="M846 1720l-64 -262q148 -36 221.5 -150.5t73.5 -291.5v-31h-41q0 369 -262 434l-295 -1231q74 -24 164 -24h6q187 0 287 104t100 301h41v-24q0 -89 -26 -164t-77.5 -133.5t-135.5 -91.5t-193 -33q-97 0 -174 27l-65 -273h-41l67 287q-280 125 -280 610v47
q0 322 125.5 488t367.5 166q51 0 98 -9l62 254h41zM193 774q0 -448 249 -569l293 1222q-47 7 -86 7h-6q-217 0 -333.5 -153.5t-116.5 -459.5v-47z" />
    <glyph glyph-name="sterling" unicode="&#xa3;" horiz-adv-x="1228" 
d="M123 778v41h201q-58 227 -58 373q0 76 26.5 149t76 133.5t129.5 98t178 37.5q202 0 316 -153t114 -419v-14h-41q0 261 -101.5 403t-287.5 142q-90 0 -162.5 -34t-116.5 -90.5t-67 -125t-23 -141.5q0 -130 62 -359h450v-41h-440q6 -23 31.5 -114.5t35 -127.5t29 -117
t27.5 -131.5t16 -118.5t8 -128h580v-41h-983v41h362q-2 74 -11.5 149.5t-28.5 159.5t-33 139t-41 152.5t-37 136.5h-211z" />
    <glyph glyph-name="yen" unicode="&#xa5;" horiz-adv-x="1228" 
d="M102 922v41h271l-312 634h45l508 -1036l508 1036h45l-311 -634h270v-41h-290l-181 -369h471v-41h-491v-512h-41v512h-492v41h471l-180 369h-291z" />
    <glyph glyph-name="brokenbar" unicode="&#xa6;" horiz-adv-x="368" 
d="M164 819v901h41v-901h-41zM164 -246v901h41v-901h-41z" />
    <glyph glyph-name="section" unicode="&#xa7;" horiz-adv-x="1024" 
d="M102 797q0 106 68.5 178t194.5 98q-118 31 -164.5 89.5t-46.5 152.5v12q0 128 101 205.5t277 77.5q200 0 289.5 -95.5t89.5 -257.5v-8h-41q0 157 -76.5 238.5t-261.5 81.5q-157 0 -247 -65.5t-90 -182.5q0 -76 28.5 -121.5t107 -75.5t222.5 -43q206 -19 287.5 -79.5
t81.5 -196.5v-12q0 -106 -69.5 -179t-193.5 -98q117 -31 164 -90t47 -152v-12q0 -128 -101 -205t-277 -77q-200 0 -289.5 95t-89.5 257v8h41q0 -157 76.5 -238.5t261.5 -81.5q157 0 247 65.5t90 182.5q0 76 -28.5 121.5t-107 75.5t-222.5 43q-206 19 -287.5 79.5
t-81.5 196.5v13zM143 791q0 -70 21.5 -115.5t70.5 -73t112.5 -40.5t164.5 -21h20q162 0 255.5 69t93.5 189q0 70 -21.5 115.5t-70.5 73t-112.5 40.5t-164.5 21h-20q-162 0 -255.5 -69t-93.5 -189z" />
    <glyph glyph-name="dieresis" unicode="&#xa8;" horiz-adv-x="1024" 
d="M410 1475v-82h-82v82h82zM696 1475v-82h-82v82h82z" />
    <glyph glyph-name="copyright" unicode="&#xa9;" horiz-adv-x="1843" 
d="M111 799q0 221 108.5 407.5t295 295t407.5 108.5t407.5 -108.5t295 -295t108.5 -407.5t-108.5 -407.5t-295 -295t-407.5 -108.5t-407.5 108.5t-295 295t-108.5 407.5zM152 799q0 -157 61 -299.5t164 -245.5t245.5 -164t299.5 -61t299.5 61t245.5 164t164 245.5t61 299.5
t-61 299.5t-164 245.5t-245.5 164t-299.5 61t-299.5 -61t-245.5 -164t-164 -245.5t-61 -299.5zM922 305q-199 0 -307.5 130t-108.5 343v41q0 213 108.5 343t307.5 130q187 0 277.5 -87t90.5 -222v-20h-41q0 288 -327 288q-178 0 -276.5 -118t-98.5 -314v-41
q0 -196 98.5 -314t276.5 -118q160 0 243.5 76.5t83.5 191.5h41v-20q0 -49 -21 -97.5t-62.5 -92.5t-115.5 -71.5t-169 -27.5z" />
    <glyph glyph-name="ordfeminine" unicode="&#xaa;" horiz-adv-x="772" 
d="M86 985v19q0 52 16 92t38 63t60 40t67 24t73 14l272 45v37q0 59 -9.5 101t-33 77.5t-69 53.5t-113.5 18q-70 0 -116.5 -19t-69 -55.5t-31 -76t-8.5 -95.5h-41v16q0 271 266 271t266 -281v-336l6 -198h-30l-13 127q-103 -144 -301 -144q-102 0 -165.5 55.5t-63.5 151.5z
M317 819q200 0 295 162v262l-282 -47q-47 -7 -80.5 -19t-63 -32.5t-44.5 -55.5t-15 -83v-21q0 -71 49 -118.5t141 -47.5zM102 471v41h557v-41h-557z" />
    <glyph glyph-name="guillemotleft" unicode="&#xab;" horiz-adv-x="1024" 
d="M512 1036v-51l-373 -289l373 -288v-52l-410 320v41zM922 1036v-51l-373 -289l373 -288v-52l-410 320v41z" />
    <glyph glyph-name="logicalnot" unicode="&#xac;" horiz-adv-x="1228" 
d="M102 1106v41h1024v-696h-41v655h-983z" />
    <glyph glyph-name="uni00AD" unicode="&#xad;" horiz-adv-x="655" 
d="M102 676v41h451v-41h-451z" />
    <glyph glyph-name="registered" unicode="&#xae;" horiz-adv-x="675" 
d="M49 1362q0 120 84.5 204.5t204.5 84.5t204.5 -84.5t84.5 -204.5t-84.5 -204.5t-204.5 -84.5t-204.5 84.5t-84.5 204.5zM82 1362q0 -106 75 -181t181 -75t181 75t75 181t-75 181t-181 75t-181 -75t-75 -181zM449 1425q0 -71 -66 -90l66 -149h-35l-66 143h-88v-143h-33v352
h113q51 0 80 -25t29 -71v-17zM418 1440q0 35 -19.5 50t-64.5 15h-74v-143h74q45 0 64.5 15t19.5 50v13z" />
    <glyph glyph-name="macron" unicode="&#xaf;" horiz-adv-x="1024" 
d="M307 1413v41h410v-41h-410z" />
    <glyph glyph-name="degree" unicode="&#xb0;" horiz-adv-x="819" 
d="M668 1300v21q0 113 -72.5 180.5t-179.5 67.5h-13q-107 0 -179 -67.5t-72 -180.5v-21q0 -113 72 -180t179 -67h13q108 0 180 67.5t72 179.5zM709 1315v-8q0 -134 -84.5 -214.5t-214.5 -80.5t-214.5 80.5t-84.5 214.5v8q0 134 84.5 214.5t214.5 80.5t214.5 -80.5
t84.5 -214.5z" />
    <glyph glyph-name="plusminus" unicode="&#xb1;" horiz-adv-x="1228" 
d="M594 1311h41v-328h491v-41h-491v-328h-41v328h-492v41h492v328zM102 369v41h1024v-41h-1024z" />
    <glyph glyph-name="twosuperior" unicode="&#xb2;" 
d="M209 840h334v-41h-482v24l359 377q52 55 71 94.5t19 87.5v11q0 79 -55 127.5t-146 48.5h-6q-103 0 -152 -57t-49 -181h-41v25q0 252 246 252q113 0 179.5 -56t66.5 -155v-11q0 -60 -19 -102.5t-75 -101.5l-328 -344z" />
    <glyph glyph-name="threesuperior" unicode="&#xb3;" 
d="M301 827h10q86 0 144.5 43.5t58.5 126.5v17q0 84 -53 128t-137 44h-119v39h114q84 0 137.5 40t53.5 119v9q0 80 -54 128t-145 48h-10q-102 0 -150.5 -56.5t-48.5 -181.5h-41v25q0 252 246 252q113 0 179.5 -56t66.5 -155v-15q0 -140 -145 -178q70 -18 109.5 -66
t39.5 -122v-17q0 -98 -72 -154.5t-178 -56.5q-127 0 -189.5 67.5t-62.5 188.5v11h41q0 -115 53 -171.5t152 -56.5z" />
    <glyph glyph-name="acute" unicode="&#xb4;" horiz-adv-x="1024" 
d="M674 1597h45l-184 -327h-46z" />
    <glyph glyph-name="paragraph" unicode="&#xb6;" horiz-adv-x="1024" 
d="M819 0v1556h-184v-1556h-41v696h-39q-70 0 -131 11.5t-121.5 41.5t-104 77.5t-70 124t-26.5 175.5v41q0 99 26.5 175.5t70 124t104 77.5t121.5 41.5t131 11.5h305v-1597h-41zM145 1128q0 -97 27.5 -170t68.5 -114t99 -66t109 -33t108 -8h37v819h-37q-57 0 -108 -8
t-109 -33t-99 -66t-68.5 -114t-27.5 -170v-37z" />
    <glyph glyph-name="periodcentered" unicode="&#xb7;" horiz-adv-x="368" 
d="M225 737v-82h-82v82h82z" />
    <glyph glyph-name="cedilla" unicode="&#xb8;" horiz-adv-x="1232" 
d="M350 -385l12 33q25 -14 69 -23.5t81 -9.5q27 0 46 2t40 8.5t34 18t21.5 32t8.5 48.5q0 66 -39 87t-111 21l-51 -4l-23 22l54 150h40l-47 -133q10 2 37 2q34 0 62.5 -6.5t55.5 -21.5t42.5 -45t15.5 -72q0 -146 -186 -146q-90 0 -162 37z" />
    <glyph glyph-name="onesuperior" unicode="&#xb9;" 
d="M557 799h-481v41h221v700l-209 -143l-22 35l251 170h21v-762h219v-41z" />
    <glyph glyph-name="ordmasculine" unicode="&#xba;" horiz-adv-x="839" 
d="M420 819q137 0 211 96.5t74 264.5v28q0 168 -74 264.5t-211 96.5t-211 -96.5t-74 -264.5v-28q0 -168 74 -264.5t211 -96.5zM420 778q-158 0 -242 108.5t-84 293.5v28q0 185 84 293.5t242 108.5t241.5 -108.5t83.5 -293.5v-28q0 -185 -83.5 -293.5t-241.5 -108.5zM115 471
v41h610v-41h-610z" />
    <glyph glyph-name="guillemotright" unicode="&#xbb;" horiz-adv-x="1024" 
d="M512 985v51l410 -319v-41l-410 -320v52l373 288zM102 985v51l410 -319v-41l-410 -320v52l373 288z" />
    <glyph glyph-name="onequarter" unicode="&#xbc;" horiz-adv-x="1638" 
d="M1454 0h-41v225h-354v25l354 549h41v-533h148v-41h-148v-225zM254 0h-49l1179 1597h50zM1413 725l-295 -461l101 2h194v459zM557 799h-481v41h221v700l-209 -143l-22 35l251 170h21v-762h219v-41z" />
    <glyph glyph-name="onehalf" unicode="&#xbd;" horiz-adv-x="1638" 
d="M1233 41h334v-41h-482v25l359 376q51 54 70.5 94.5t19.5 88.5v10q0 79 -55 127.5t-146 48.5h-6q-103 0 -152 -57t-49 -181h-41v25q0 252 246 252q113 0 179.5 -56t66.5 -155v-10q0 -60 -19 -103t-75 -102l-328 -344zM254 0h-49l1179 1597h50zM557 799h-481v41h221v700
l-209 -143l-22 35l251 170h21v-762h219v-41z" />
    <glyph glyph-name="threequarters" unicode="&#xbe;" horiz-adv-x="1638" 
d="M1454 0h-41v225h-354v25l354 549h41v-533h148v-41h-148v-225zM301 827h10q86 0 144.5 43.5t58.5 126.5v17q0 84 -53 128t-137 44h-119v39h114q84 0 137.5 40t53.5 119v9q0 80 -54 128t-145 48h-10q-102 0 -150.5 -56.5t-48.5 -181.5h-41v25q0 252 246 252
q113 0 179.5 -56t66.5 -155v-15q0 -140 -145 -178q70 -18 109.5 -66t39.5 -122v-17q0 -98 -72 -154.5t-178 -56.5q-127 0 -189.5 67.5t-62.5 188.5v11h41q0 -115 53 -171.5t152 -56.5zM254 0h-49l1179 1597h50zM1413 725l-295 -461l101 2h194v459z" />
    <glyph glyph-name="questiondown" unicode="&#xbf;" horiz-adv-x="901" 
d="M410 1004v81h82v-81h-82zM436 727h29q0 -89 -19 -164.5t-49.5 -128t-67.5 -99t-74.5 -88.5t-68 -85.5t-50 -100t-19.5 -122.5q0 -49 9.5 -93t33.5 -86t60.5 -73t94 -49.5t129.5 -18.5q349 0 349 504h41v-14q0 -251 -96.5 -391t-293.5 -140q-98 0 -171.5 31t-115 83
t-61.5 111.5t-20 124.5q0 73 19.5 135t50.5 107.5t68.5 89t75.5 89t70 96.5t53 123.5t23 158.5z" />
    <glyph glyph-name="Agrave" unicode="&#xc0;" horiz-adv-x="1208" 
d="M584 1618h41l512 -1618h-43l-148 471h-684l-147 -471h-43zM604 1556l-328 -1044h656zM455 1946h45l127 -226h-45z" />
    <glyph glyph-name="Aacute" unicode="&#xc1;" horiz-adv-x="1208" 
d="M584 1618h41l512 -1618h-43l-148 471h-684l-147 -471h-43zM604 1556l-328 -1044h656zM709 1946h45l-127 -226h-45z" />
    <glyph glyph-name="Acircumflex" unicode="&#xc2;" horiz-adv-x="1208" 
d="M584 1618h41l512 -1618h-43l-148 471h-684l-147 -471h-43zM604 1556l-328 -1044h656zM428 1720h-49l205 226h41l204 -226h-49l-176 195z" />
    <glyph glyph-name="Atilde" unicode="&#xc3;" horiz-adv-x="1208" 
d="M584 1618h41l512 -1618h-43l-148 471h-684l-147 -471h-43zM604 1556l-328 -1044h656zM844 1898h37q0 -77 -35 -110t-88 -33q-47 0 -102 30t-107 59.5t-92 29.5q-42 0 -67 -22t-25 -85h-37q0 77 35 110.5t88 33.5q47 0 102 -30t107 -59.5t92 -29.5q43 0 67.5 21.5
t24.5 84.5z" />
    <glyph glyph-name="Adieresis" unicode="&#xc4;" horiz-adv-x="1208" 
d="M584 1618h41l512 -1618h-43l-148 471h-684l-147 -471h-43zM604 1556l-328 -1044h656zM502 1874v-82h-82v82h82zM788 1874v-82h-81v82h81z" />
    <glyph glyph-name="Aring" unicode="&#xc5;" horiz-adv-x="1208" 
d="M428 1782q0 72 52 124t124 52t124 -52t52 -124q0 -66 -44 -116.5t-109 -59.5l510 -1606h-43l-148 471h-684l-147 -471h-43l508 1606q-65 9 -108.5 59.5t-43.5 116.5zM604 1556l-328 -1044h656zM465 1782q0 -59 40.5 -99.5t98.5 -40.5t98.5 40.5t40.5 99.5
q0 58 -40.5 98.5t-98.5 40.5t-98.5 -40.5t-40.5 -98.5z" />
    <glyph glyph-name="AE" unicode="&#xc6;" horiz-adv-x="1679" 
d="M666 1597h911v-41h-850l117 -720h631v-41h-623l123 -754h602v-41h-639l-78 471h-577l-179 -471h-43zM690 1550l-391 -1038h555z" />
    <glyph glyph-name="Ccedilla" unicode="&#xc7;" horiz-adv-x="1214" 
d="M483 -385l13 33q25 -14 68.5 -23.5t80.5 -9.5q27 0 46 2t40 8.5t34 18t21.5 32t8.5 48.5q0 66 -39 87t-111 21l-51 -4l-23 22l50 138q-164 5 -270.5 83.5t-162 248.5t-55.5 438v82q0 274 58.5 445.5t170 248t283.5 76.5q234 0 342.5 -129t108.5 -416v-41h-41
q0 202 -43.5 322t-130 171.5t-230.5 51.5h-12q-155 0 -256 -71.5t-155 -234.5t-54 -423v-82q0 -260 54 -423t155 -234.5t256 -71.5h12q404 0 404 483h41v-29q0 -228 -107 -358.5t-327 -136.5l-44 -121q10 2 37 2q34 0 62.5 -6.5t55.5 -21.5t42.5 -45t15.5 -72
q0 -146 -186 -146q-90 0 -162 37z" />
    <glyph glyph-name="Egrave" unicode="&#xc8;" horiz-adv-x="1105" 
d="M164 1597h840v-41h-799v-720h696v-41h-696v-754h799v-41h-840v1597zM444 1946h45l127 -226h-45z" />
    <glyph glyph-name="Eacute" unicode="&#xc9;" horiz-adv-x="1105" 
d="M164 1597h840v-41h-799v-720h696v-41h-696v-754h799v-41h-840v1597zM698 1946h45l-127 -226h-45z" />
    <glyph glyph-name="Ecircumflex" unicode="&#xca;" horiz-adv-x="1105" 
d="M164 1597h840v-41h-799v-720h696v-41h-696v-754h799v-41h-840v1597zM418 1720h-49l204 226h41l205 -226h-49l-176 195z" />
    <glyph glyph-name="Edieresis" unicode="&#xcb;" horiz-adv-x="1105" 
d="M164 1597h840v-41h-799v-720h696v-41h-696v-754h799v-41h-840v1597zM778 1874v-82h-82v82h82zM492 1874v-82h-82v82h82z" />
    <glyph glyph-name="Igrave" unicode="&#xcc;" horiz-adv-x="389" 
d="M215 1597v-1597h-41v1597h41zM45 1946h45l127 -226h-45z" />
    <glyph glyph-name="Iacute" unicode="&#xcd;" horiz-adv-x="389" 
d="M215 1597v-1597h-41v1597h41zM299 1946h45l-127 -226h-45z" />
    <glyph glyph-name="Icircumflex" unicode="&#xce;" horiz-adv-x="389" 
d="M215 1597v-1597h-41v1597h41zM18 1720h-49l205 226h41l205 -226h-49l-176 195z" />
    <glyph glyph-name="Idieresis" unicode="&#xcf;" horiz-adv-x="389" 
d="M215 1597v-1597h-41v1597h41zM379 1874v-82h-82v82h82zM92 1874v-82h-82v82h82z" />
    <glyph glyph-name="Eth" unicode="&#xd0;" horiz-adv-x="1372" 
d="M51 836h225v761h390q583 0 583 -757v-82q0 -165 -28.5 -294.5t-79 -216t-124.5 -142.5t-160.5 -80.5t-190.5 -24.5h-390v795h-225v41zM317 41h338q101 0 183.5 23t152.5 76t117 135.5t73.5 204t26.5 278.5v82q0 195 -39.5 335.5t-114.5 222.5t-173.5 120t-225.5 38h-338
v-720h471v-41h-471v-754z" />
    <glyph glyph-name="Ntilde" unicode="&#xd1;" horiz-adv-x="1310" 
d="M1108 59l-2 310v1228h41v-1597h-51l-893 1538l2 -309v-1229h-41v1597h51zM895 1898h37q0 -77 -35 -110t-88 -33q-47 0 -102 30t-107 59.5t-92 29.5q-42 0 -67 -22t-25 -85h-37q0 77 35 110.5t88 33.5q47 0 102 -30t107 -59.5t92 -29.5q43 0 67.5 21.5t24.5 84.5z" />
    <glyph glyph-name="Ograve" unicode="&#xd2;" horiz-adv-x="1290" 
d="M133 840q0 274 58.5 445.5t170 248t283.5 76.5t283.5 -76.5t170 -248t58.5 -445.5v-82q0 -274 -58.5 -445.5t-170 -248t-283.5 -76.5t-283.5 76.5t-170 248t-58.5 445.5v82zM174 758q0 -260 54 -423t155 -234.5t256 -71.5h12q155 0 256 71.5t155 234.5t54 423v82
q0 260 -54 423t-155 234.5t-256 71.5h-12q-155 0 -256 -71.5t-155 -234.5t-54 -423v-82zM496 1946h45l127 -226h-45z" />
    <glyph glyph-name="Oacute" unicode="&#xd3;" horiz-adv-x="1290" 
d="M133 840q0 274 58.5 445.5t170 248t283.5 76.5t283.5 -76.5t170 -248t58.5 -445.5v-82q0 -274 -58.5 -445.5t-170 -248t-283.5 -76.5t-283.5 76.5t-170 248t-58.5 445.5v82zM174 758q0 -260 54 -423t155 -234.5t256 -71.5h12q155 0 256 71.5t155 234.5t54 423v82
q0 260 -54 423t-155 234.5t-256 71.5h-12q-155 0 -256 -71.5t-155 -234.5t-54 -423v-82zM750 1946h45l-127 -226h-45z" />
    <glyph glyph-name="Ocircumflex" unicode="&#xd4;" horiz-adv-x="1290" 
d="M133 840q0 274 58.5 445.5t170 248t283.5 76.5t283.5 -76.5t170 -248t58.5 -445.5v-82q0 -274 -58.5 -445.5t-170 -248t-283.5 -76.5t-283.5 76.5t-170 248t-58.5 445.5v82zM174 758q0 -260 54 -423t155 -234.5t256 -71.5h12q155 0 256 71.5t155 234.5t54 423v82
q0 260 -54 423t-155 234.5t-256 71.5h-12q-155 0 -256 -71.5t-155 -234.5t-54 -423v-82zM469 1720h-49l205 226h41l204 -226h-49l-176 195z" />
    <glyph glyph-name="Otilde" unicode="&#xd5;" horiz-adv-x="1290" 
d="M133 840q0 274 58.5 445.5t170 248t283.5 76.5t283.5 -76.5t170 -248t58.5 -445.5v-82q0 -274 -58.5 -445.5t-170 -248t-283.5 -76.5t-283.5 76.5t-170 248t-58.5 445.5v82zM174 758q0 -260 54 -423t155 -234.5t256 -71.5h12q155 0 256 71.5t155 234.5t54 423v82
q0 260 -54 423t-155 234.5t-256 71.5h-12q-155 0 -256 -71.5t-155 -234.5t-54 -423v-82zM885 1898h37q0 -77 -35 -110t-88 -33q-47 0 -102 30t-107 59.5t-92 29.5q-42 0 -67 -22t-25 -85h-37q0 77 35 110.5t88 33.5q47 0 102 -30t107 -59.5t92 -29.5q43 0 67.5 21.5
t24.5 84.5z" />
    <glyph glyph-name="Odieresis" unicode="&#xd6;" horiz-adv-x="1290" 
d="M133 840q0 274 58.5 445.5t170 248t283.5 76.5t283.5 -76.5t170 -248t58.5 -445.5v-82q0 -274 -58.5 -445.5t-170 -248t-283.5 -76.5t-283.5 76.5t-170 248t-58.5 445.5v82zM174 758q0 -260 54 -423t155 -234.5t256 -71.5h12q155 0 256 71.5t155 234.5t54 423v82
q0 260 -54 423t-155 234.5t-256 71.5h-12q-155 0 -256 -71.5t-155 -234.5t-54 -423v-82zM543 1874v-82h-82v82h82zM829 1874v-82h-81v82h81z" />
    <glyph glyph-name="multiply" unicode="&#xd7;" horiz-adv-x="1228" 
d="M92 1290l31 31l491 -492l492 492l31 -31l-492 -491l492 -492l-31 -31l-492 492l-491 -492l-31 31l492 492z" />
    <glyph glyph-name="Oslash" unicode="&#xd8;" horiz-adv-x="1282" 
d="M1157 1597l-115 -188q115 -186 115 -569v-82q0 -274 -58.5 -445.5t-170 -248t-283.5 -76.5q-250 0 -373 164l-92 -152h-47l115 186q-115 189 -115 572v82q0 274 58.5 445.5t170 248t283.5 76.5q248 0 373 -164l92 151h47zM1116 840q0 354 -98 528l-723 -1178
q111 -161 344 -161h12q155 0 256 71.5t155 234.5t54 423v82zM174 758q0 -357 98 -531l721 1180q-112 162 -342 162h-12q-155 0 -256 -71.5t-155 -234.5t-54 -423v-82z" />
    <glyph glyph-name="Ugrave" unicode="&#xd9;" horiz-adv-x="1269" 
d="M635 -12q-113 0 -196.5 24.5t-148.5 81.5t-98.5 158t-33.5 246v1099h41v-1093q0 -137 28.5 -230.5t87 -146.5t135.5 -75.5t185 -22.5t185 22.5t135.5 75.5t87 146.5t28.5 230.5v1093h41v-1099q0 -145 -33.5 -246t-98.5 -158t-148.5 -81.5t-196.5 -24.5zM485 1946h45
l127 -226h-45z" />
    <glyph glyph-name="Uacute" unicode="&#xda;" horiz-adv-x="1269" 
d="M635 -12q-113 0 -196.5 24.5t-148.5 81.5t-98.5 158t-33.5 246v1099h41v-1093q0 -137 28.5 -230.5t87 -146.5t135.5 -75.5t185 -22.5t185 22.5t135.5 75.5t87 146.5t28.5 230.5v1093h41v-1099q0 -145 -33.5 -246t-98.5 -158t-148.5 -81.5t-196.5 -24.5zM739 1946h45
l-127 -226h-45z" />
    <glyph glyph-name="Ucircumflex" unicode="&#xdb;" horiz-adv-x="1269" 
d="M635 -12q-113 0 -196.5 24.5t-148.5 81.5t-98.5 158t-33.5 246v1099h41v-1093q0 -137 28.5 -230.5t87 -146.5t135.5 -75.5t185 -22.5t185 22.5t135.5 75.5t87 146.5t28.5 230.5v1093h41v-1099q0 -145 -33.5 -246t-98.5 -158t-148.5 -81.5t-196.5 -24.5zM459 1720h-49
l204 226h41l205 -226h-49l-176 195z" />
    <glyph glyph-name="Udieresis" unicode="&#xdc;" horiz-adv-x="1269" 
d="M635 -12q-113 0 -196.5 24.5t-148.5 81.5t-98.5 158t-33.5 246v1099h41v-1093q0 -137 28.5 -230.5t87 -146.5t135.5 -75.5t185 -22.5t185 22.5t135.5 75.5t87 146.5t28.5 230.5v1093h41v-1099q0 -145 -33.5 -246t-98.5 -158t-148.5 -81.5t-196.5 -24.5zM819 1874v-82h-82
v82h82zM532 1874v-82h-81v82h81z" />
    <glyph glyph-name="Yacute" unicode="&#xdd;" horiz-adv-x="1105" 
d="M543 530l467 1067h45l-492 -1116v-481h-41v481l-491 1116h45zM647 1946h45l-127 -226h-45z" />
    <glyph glyph-name="Thorn" unicode="&#xde;" horiz-adv-x="1114" 
d="M205 1597v-348h354q70 0 131 -11.5t121.5 -41.5t104 -77.5t70 -124t26.5 -175.5v-41q0 -99 -26.5 -175.5t-70 -124t-104 -77.5t-121.5 -41.5t-131 -11.5h-354v-348h-41v1597h41zM205 389h352q57 0 108 8t109 33t99 66t68.5 114t27.5 170v37q0 97 -27.5 170t-68.5 114
t-99 66t-109 33t-108 8h-352v-819z" />
    <glyph glyph-name="germandbls" unicode="&#xdf;" horiz-adv-x="1126" 
d="M532 1610q-170 0 -248.5 -95.5t-78.5 -265.5v-1249h-41v1257q0 86 20.5 155.5t63 124t115 84.5t169.5 30q189 0 279 -108t90 -286v-12q0 -135 -70.5 -228.5t-250.5 -197.5l106 -69q54 -36 74.5 -49.5t63.5 -43.5t59 -43.5t47 -40t42.5 -42.5t29.5 -41.5t24.5 -48t12 -50
t5.5 -57.5v-12q0 -64 -17 -121t-53.5 -106t-102.5 -78t-154 -29t-154 28.5t-102.5 77.5t-54 105t-17.5 120v9h41q0 -61 15 -112t47 -94.5t89.5 -68t135.5 -24.5t135.5 24.5t89.5 68t47 94.5t15 112t-19 109t-70 96t-89.5 76t-128.5 86q-34 22 -52 34l-115 76v31
q121 67 189 123t104.5 126.5t36.5 163.5q0 170 -79 265.5t-249 95.5z" />
    <glyph glyph-name="agrave" unicode="&#xe0;" horiz-adv-x="993" 
d="M106 256v20q0 71 20.5 125t50.5 85.5t78 54t88.5 32t96.5 17.5l369 59v68q0 61 -6 106.5t-25.5 92t-52.5 75.5t-89.5 47.5t-133.5 18.5t-133.5 -18.5t-89.5 -47.5t-52.5 -75.5t-25.5 -92t-6 -106.5h-41v22q0 359 348 359t348 -359v-493l10 -246h-31l-16 172
q-130 -184 -403 -184q-135 0 -219.5 70.5t-84.5 197.5zM412 29q282 0 397 213v368l-383 -61q-66 -12 -109.5 -26.5t-85.5 -43.5t-63 -78.5t-21 -121.5v-23q0 -96 69 -161.5t196 -65.5zM295 1597h45l184 -327h-45z" />
    <glyph glyph-name="aacute" unicode="&#xe1;" horiz-adv-x="993" 
d="M106 256v20q0 71 20.5 125t50.5 85.5t78 54t88.5 32t96.5 17.5l369 59v68q0 61 -6 106.5t-25.5 92t-52.5 75.5t-89.5 47.5t-133.5 18.5t-133.5 -18.5t-89.5 -47.5t-52.5 -75.5t-25.5 -92t-6 -106.5h-41v22q0 359 348 359t348 -359v-493l10 -246h-31l-16 172
q-130 -184 -403 -184q-135 0 -219.5 70.5t-84.5 197.5zM412 29q282 0 397 213v368l-383 -61q-66 -12 -109.5 -26.5t-85.5 -43.5t-63 -78.5t-21 -121.5v-23q0 -96 69 -161.5t196 -65.5zM664 1597h45l-185 -327h-45z" />
    <glyph glyph-name="acircumflex" unicode="&#xe2;" horiz-adv-x="993" 
d="M106 256v20q0 71 20.5 125t50.5 85.5t78 54t88.5 32t96.5 17.5l369 59v68q0 61 -6 106.5t-25.5 92t-52.5 75.5t-89.5 47.5t-133.5 18.5t-133.5 -18.5t-89.5 -47.5t-52.5 -75.5t-25.5 -92t-6 -106.5h-41v22q0 359 348 359t348 -359v-493l10 -246h-31l-16 172
q-130 -184 -403 -184q-135 0 -219.5 70.5t-84.5 197.5zM412 29q282 0 397 213v368l-383 -61q-66 -12 -109.5 -26.5t-85.5 -43.5t-63 -78.5t-21 -121.5v-23q0 -96 69 -161.5t196 -65.5zM276 1270h-51l256 327h41l256 -327h-51l-225 291z" />
    <glyph glyph-name="atilde" unicode="&#xe3;" horiz-adv-x="993" 
d="M106 256v20q0 71 20.5 125t50.5 85.5t78 54t88.5 32t96.5 17.5l369 59v68q0 61 -6 106.5t-25.5 92t-52.5 75.5t-89.5 47.5t-133.5 18.5t-133.5 -18.5t-89.5 -47.5t-52.5 -75.5t-25.5 -92t-6 -106.5h-41v22q0 359 348 359t348 -359v-493l10 -246h-31l-16 172
q-130 -184 -403 -184q-135 0 -219.5 70.5t-84.5 197.5zM412 29q282 0 397 213v368l-383 -61q-66 -12 -109.5 -26.5t-85.5 -43.5t-63 -78.5t-21 -121.5v-23q0 -96 69 -161.5t196 -65.5zM741 1499h37q0 -77 -35 -110t-88 -33q-47 0 -102 30t-107 59.5t-92 29.5q-42 0 -67 -22
t-25 -85h-37q0 77 35 110t88 33q47 0 102 -29.5t107 -59t92 -29.5q43 0 67.5 21.5t24.5 84.5z" />
    <glyph glyph-name="adieresis" unicode="&#xe4;" horiz-adv-x="993" 
d="M106 256v20q0 71 20.5 125t50.5 85.5t78 54t88.5 32t96.5 17.5l369 59v68q0 61 -6 106.5t-25.5 92t-52.5 75.5t-89.5 47.5t-133.5 18.5t-133.5 -18.5t-89.5 -47.5t-52.5 -75.5t-25.5 -92t-6 -106.5h-41v22q0 359 348 359t348 -359v-493l10 -246h-31l-16 172
q-130 -184 -403 -184q-135 0 -219.5 70.5t-84.5 197.5zM412 29q282 0 397 213v368l-383 -61q-66 -12 -109.5 -26.5t-85.5 -43.5t-63 -78.5t-21 -121.5v-23q0 -96 69 -161.5t196 -65.5zM399 1475v-82h-82v82h82zM686 1475v-82h-82v82h82z" />
    <glyph glyph-name="aring" unicode="&#xe5;" horiz-adv-x="983" 
d="M96 256v20q0 71 20.5 125t50.5 85.5t78 54t88.5 32t96.5 17.5l369 59v68q0 61 -6 106.5t-25.5 92t-52.5 75.5t-89.5 47.5t-133.5 18.5t-134 -18.5t-90 -47.5t-52 -75t-25.5 -92t-6.5 -107h-41v22q0 359 349 359q348 0 348 -359v-493l10 -246h-31l-16 172
q-130 -184 -404 -184q-135 0 -219 70.5t-84 197.5zM401 29q283 0 398 213v368l-383 -61q-66 -12 -109.5 -26.5t-85.5 -43.5t-63 -78.5t-21 -121.5v-23q0 -96 68.5 -161.5t195.5 -65.5zM315 1434q0 72 52.5 124t124.5 52t124 -52t52 -124t-52 -124.5t-124 -52.5t-124.5 52.5
t-52.5 124.5zM352 1434q0 -58 41 -99t99 -41t98.5 40.5t40.5 99.5q0 58 -40.5 98.5t-98.5 40.5q-59 0 -99.5 -40.5t-40.5 -98.5z" />
    <glyph glyph-name="ae" unicode="&#xe6;" horiz-adv-x="1771" 
d="M96 256v20q0 71 20.5 125t50.5 85.5t78 54t88.5 32t96.5 17.5l369 59v68q0 61 -6 106.5t-25.5 92t-52.5 75.5t-89.5 47.5t-133.5 18.5t-134 -18.5t-90 -47.5t-52 -75t-25.5 -92t-6.5 -107h-41v22q0 359 349 359q319 0 342 -305q40 143 138.5 224t256.5 81q110 0 194 -41
t135 -115t76 -169t25 -210v-41h-819q0 -226 99 -359.5t300 -133.5q81 0 146.5 19.5t108 51t71 73.5t41 86t12.5 89h41v-10q0 -61 -24 -120t-72 -112t-132 -85.5t-192 -32.5q-287 0 -391 254q-23 -45 -56 -84.5t-85.5 -80.5t-132 -65t-175.5 -24q-135 0 -219 70.5t-84 197.5z
M1229 1057q-129 0 -217.5 -64t-130 -173.5t-41.5 -256.5h778q0 147 -41.5 256.5t-130 173.5t-217.5 64zM401 29q307 0 428 264q-30 105 -30 229v88l-383 -61q-64 -11 -109 -26t-86.5 -44t-62.5 -79t-21 -121v-23q0 -96 68.5 -161.5t195.5 -65.5z" />
    <glyph glyph-name="ccedilla" unicode="&#xe7;" horiz-adv-x="1034" 
d="M387 -385l12 33q25 -14 69 -23.5t81 -9.5q34 0 57 3.5t46 14t34.5 33.5t11.5 58t-11.5 58t-34.5 33t-46 13.5t-57 3.5l-51 -4l-23 22l49 138q-106 4 -186 46t-128.5 114t-72.5 165.5t-24 208.5v41q0 118 25.5 213.5t77.5 168.5t136.5 113t196.5 40q100 0 175 -33
t116.5 -88t61.5 -118t20 -132v-20h-41q0 158 -81 254t-251 96q-194 0 -294.5 -132.5t-100.5 -361.5v-41q0 -229 100.5 -361t294.5 -132q171 0 251.5 89t80.5 240h41v-20q0 -65 -19 -123.5t-59 -109.5t-111.5 -82.5t-167.5 -34.5l-43 -121q10 2 37 2q34 0 62.5 -6.5
t55.5 -21.5t42.5 -45t15.5 -72q0 -146 -186 -146q-90 0 -162 37z" />
    <glyph glyph-name="egrave" unicode="&#xe8;" horiz-adv-x="1085" 
d="M973 522h-819q0 -226 99 -359.5t300 -133.5q81 0 146.5 19.5t108 51t71 73.5t41 86t12.5 89h41v-10q0 -61 -24 -120t-72 -112t-132 -85.5t-192 -32.5q-113 0 -198.5 41t-137.5 114.5t-78 168.5t-26 210v41q0 115 25 210t76 169t135 115t194 41t194 -41t135 -115t76 -169
t25 -210v-41zM543 1057q-129 0 -217.5 -64t-130 -173.5t-41.5 -256.5h778q0 147 -41.5 256.5t-130 173.5t-217.5 64zM336 1597h45l184 -327h-45z" />
    <glyph glyph-name="eacute" unicode="&#xe9;" horiz-adv-x="1085" 
d="M973 522h-819q0 -226 99 -359.5t300 -133.5q81 0 146.5 19.5t108 51t71 73.5t41 86t12.5 89h41v-10q0 -61 -24 -120t-72 -112t-132 -85.5t-192 -32.5q-113 0 -198.5 41t-137.5 114.5t-78 168.5t-26 210v41q0 115 25 210t76 169t135 115t194 41t194 -41t135 -115t76 -169
t25 -210v-41zM543 1057q-129 0 -217.5 -64t-130 -173.5t-41.5 -256.5h778q0 147 -41.5 256.5t-130 173.5t-217.5 64zM705 1597h45l-185 -327h-45z" />
    <glyph glyph-name="ecircumflex" unicode="&#xea;" horiz-adv-x="1085" 
d="M973 522h-819q0 -226 99 -359.5t300 -133.5q81 0 146.5 19.5t108 51t71 73.5t41 86t12.5 89h41v-10q0 -61 -24 -120t-72 -112t-132 -85.5t-192 -32.5q-113 0 -198.5 41t-137.5 114.5t-78 168.5t-26 210v41q0 115 25 210t76 169t135 115t194 41t194 -41t135 -115t76 -169
t25 -210v-41zM543 1057q-129 0 -217.5 -64t-130 -173.5t-41.5 -256.5h778q0 147 -41.5 256.5t-130 173.5t-217.5 64zM317 1270h-51l256 327h41l256 -327h-51l-225 291z" />
    <glyph glyph-name="edieresis" unicode="&#xeb;" horiz-adv-x="1085" 
d="M973 522h-819q0 -226 99 -359.5t300 -133.5q81 0 146.5 19.5t108 51t71 73.5t41 86t12.5 89h41v-10q0 -61 -24 -120t-72 -112t-132 -85.5t-192 -32.5q-113 0 -198.5 41t-137.5 114.5t-78 168.5t-26 210v41q0 115 25 210t76 169t135 115t194 41t194 -41t135 -115t76 -169
t25 -210v-41zM543 1057q-129 0 -217.5 -64t-130 -173.5t-41.5 -256.5h778q0 147 -41.5 256.5t-130 173.5t-217.5 64zM440 1475v-82h-82v82h82zM727 1475v-82h-82v82h82z" />
    <glyph glyph-name="igrave" unicode="&#xec;" horiz-adv-x="368" 
d="M164 0v1085h41v-1085h-41zM-23 1597h46l184 -327h-45z" />
    <glyph glyph-name="iacute" unicode="&#xed;" horiz-adv-x="368" 
d="M164 0v1085h41v-1085h-41zM346 1597h45l-184 -327h-45z" />
    <glyph glyph-name="icircumflex" unicode="&#xee;" horiz-adv-x="368" 
d="M164 0v1085h41v-1085h-41zM-41 1270h-51l256 327h41l256 -327h-51l-226 291z" />
    <glyph glyph-name="idieresis" unicode="&#xef;" horiz-adv-x="368" 
d="M164 0v1085h41v-1085h-41zM369 1475v-82h-82v82h82zM82 1475v-82h-82v82h82z" />
    <glyph glyph-name="eth" unicode="&#xf0;" horiz-adv-x="1077" 
d="M709 1276q-87 102 -203 180l-311 -182v49l270 160q-164 100 -350 127v41q207 -26 391 -144l244 144v-49l-205 -123q101 -72 190 -174q230 -269 230 -742v-41q0 -251 -111 -392.5t-315 -141.5t-315 141.5t-111 392.5v41q0 251 111 393t315 142q252 0 356 -219
q-53 238 -186 397zM539 29q185 0 285 131.5t100 361.5v41q0 231 -100 362.5t-285 131.5t-285 -131.5t-100 -362.5v-41q0 -230 100 -361.5t285 -131.5z" />
    <glyph glyph-name="ntilde" unicode="&#xf1;" horiz-adv-x="1003" 
d="M881 0h-41v768q0 156 -72 222.5t-217 66.5q-134 0 -225.5 -56t-141.5 -135v-866h-41v840l-10 245h31l14 -167q54 76 147.5 128t229.5 52q326 0 326 -320v-778zM752 1499h36q0 -77 -34.5 -110t-87.5 -33q-47 0 -102 30t-107 59.5t-92 29.5q-42 0 -67.5 -22t-25.5 -85h-36
q0 77 34.5 110t87.5 33q47 0 102 -29.5t107 -59t92 -29.5q43 0 68 21.5t25 84.5z" />
    <glyph glyph-name="ograve" unicode="&#xf2;" horiz-adv-x="1077" 
d="M539 -12q-204 0 -315 141.5t-111 392.5v41q0 251 111 393t315 142t315 -142t111 -393v-41q0 -251 -111 -392.5t-315 -141.5zM539 29q185 0 285 131.5t100 361.5v41q0 231 -100 362.5t-285 131.5t-285 -131.5t-100 -362.5v-41q0 -230 100 -361.5t285 -131.5zM332 1597h45
l184 -327h-45z" />
    <glyph glyph-name="oacute" unicode="&#xf3;" horiz-adv-x="1077" 
d="M539 -12q-204 0 -315 141.5t-111 392.5v41q0 251 111 393t315 142t315 -142t111 -393v-41q0 -251 -111 -392.5t-315 -141.5zM539 29q185 0 285 131.5t100 361.5v41q0 231 -100 362.5t-285 131.5t-285 -131.5t-100 -362.5v-41q0 -230 100 -361.5t285 -131.5zM700 1597h45
l-184 -327h-45z" />
    <glyph glyph-name="ocircumflex" unicode="&#xf4;" horiz-adv-x="1077" 
d="M539 -12q-204 0 -315 141.5t-111 392.5v41q0 251 111 393t315 142t315 -142t111 -393v-41q0 -251 -111 -392.5t-315 -141.5zM539 29q185 0 285 131.5t100 361.5v41q0 231 -100 362.5t-285 131.5t-285 -131.5t-100 -362.5v-41q0 -230 100 -361.5t285 -131.5zM313 1270h-51
l256 327h41l256 -327h-51l-225 291z" />
    <glyph glyph-name="otilde" unicode="&#xf5;" horiz-adv-x="1077" 
d="M539 -12q-204 0 -315 141.5t-111 392.5v41q0 251 111 393t315 142t315 -142t111 -393v-41q0 -251 -111 -392.5t-315 -141.5zM539 29q185 0 285 131.5t100 361.5v41q0 231 -100 362.5t-285 131.5t-285 -131.5t-100 -362.5v-41q0 -230 100 -361.5t285 -131.5zM778 1499h37
q0 -77 -35 -110t-88 -33q-47 0 -102 30t-107 59.5t-92 29.5q-42 0 -67 -22t-25 -85h-37q0 77 35 110t88 33q47 0 102 -29.5t107 -59t92 -29.5q43 0 67.5 21.5t24.5 84.5z" />
    <glyph glyph-name="odieresis" unicode="&#xf6;" horiz-adv-x="1077" 
d="M539 -12q-204 0 -315 141.5t-111 392.5v41q0 251 111 393t315 142t315 -142t111 -393v-41q0 -251 -111 -392.5t-315 -141.5zM539 29q185 0 285 131.5t100 361.5v41q0 231 -100 362.5t-285 131.5t-285 -131.5t-100 -362.5v-41q0 -230 100 -361.5t285 -131.5zM436 1475v-82
h-82v82h82zM723 1475v-82h-82v82h82z" />
    <glyph glyph-name="divide" unicode="&#xf7;" horiz-adv-x="1228" 
d="M102 778v41h1024v-41h-1024zM655 1311v-82h-82v82h82zM655 369v-82h-82v82h82z" />
    <glyph glyph-name="oslash" unicode="&#xf8;" horiz-adv-x="1077" 
d="M965 1085l-105 -139q105 -142 105 -383v-41q0 -251 -111 -392.5t-315 -141.5q-185 0 -297 121l-80 -109h-49l102 139q-102 138 -102 383v41q0 251 111 393t315 142q185 0 297 -121l79 108h50zM539 29q185 0 285 131.5t100 361.5v41q0 218 -90 346l-568 -766
q102 -114 273 -114zM154 522q0 -215 88 -348l567 768q-98 115 -270 115q-185 0 -285 -131.5t-100 -362.5v-41z" />
    <glyph glyph-name="ugrave" unicode="&#xf9;" horiz-adv-x="1003" 
d="M123 1085h41v-768q0 -156 72 -222t217 -66q134 0 225.5 55.5t140.5 134.5v866h41v-839l10 -246h-30l-17 166q-52 -76 -144.5 -127t-229.5 -51q-326 0 -326 319v778zM285 1597h45l184 -327h-45z" />
    <glyph glyph-name="uacute" unicode="&#xfa;" horiz-adv-x="1003" 
d="M123 1085h41v-768q0 -156 72 -222t217 -66q134 0 225.5 55.5t140.5 134.5v866h41v-839l10 -246h-30l-17 166q-52 -76 -144.5 -127t-229.5 -51q-326 0 -326 319v778zM653 1597h45l-184 -327h-45z" />
    <glyph glyph-name="ucircumflex" unicode="&#xfb;" horiz-adv-x="1003" 
d="M123 1085h41v-768q0 -156 72 -222t217 -66q134 0 225.5 55.5t140.5 134.5v866h41v-839l10 -246h-30l-17 166q-52 -76 -144.5 -127t-229.5 -51q-326 0 -326 319v778zM266 1270h-51l256 327h41l256 -327h-51l-225 291z" />
    <glyph glyph-name="udieresis" unicode="&#xfc;" horiz-adv-x="1003" 
d="M123 1085h41v-768q0 -156 72 -222t217 -66q134 0 225.5 55.5t140.5 134.5v866h41v-839l10 -246h-30l-17 166q-52 -76 -144.5 -127t-229.5 -51q-326 0 -326 319v778zM676 1475v-82h-82v82h82zM389 1475v-82h-82v82h82z" />
    <glyph glyph-name="yacute" unicode="&#xfd;" horiz-adv-x="942" 
d="M471 90l371 995h45l-398 -1048l-165 -447h-39l168 447l-398 1048h45zM633 1597h45l-184 -327h-45z" />
    <glyph glyph-name="thorn" unicode="&#xfe;" horiz-adv-x="1044" 
d="M184 866v-647q124 -190 332 -190q184 0 279.5 130.5t95.5 362.5v41q0 232 -95.5 363t-279.5 131q-207 0 -332 -191zM143 -410v2048h41v-706q50 68 133 117t199 49q203 0 309.5 -141t106.5 -394v-41q0 -253 -106.5 -393.5t-309.5 -140.5q-116 0 -199 49t-133 117v-564h-41
z" />
    <glyph glyph-name="ydieresis" unicode="&#xff;" horiz-adv-x="942" 
d="M471 90l371 995h45l-398 -1048l-165 -447h-39l168 447l-398 1048h45zM655 1475v-82h-82v82h82zM369 1475v-82h-82v82h82z" />
    <glyph glyph-name="Amacron" unicode="&#x100;" horiz-adv-x="1208" 
d="M584 1618h41l512 -1618h-43l-148 471h-684l-147 -471h-43zM604 1556l-328 -1044h656zM399 1812v41h410v-41h-410z" />
    <glyph glyph-name="amacron" unicode="&#x101;" horiz-adv-x="993" 
d="M106 256v20q0 71 20.5 125t50.5 85.5t78 54t88.5 32t96.5 17.5l369 59v68q0 61 -6 106.5t-25.5 92t-52.5 75.5t-89.5 47.5t-133.5 18.5t-133.5 -18.5t-89.5 -47.5t-52.5 -75.5t-25.5 -92t-6 -106.5h-41v22q0 359 348 359t348 -359v-493l10 -246h-31l-16 172
q-130 -184 -403 -184q-135 0 -219.5 70.5t-84.5 197.5zM412 29q282 0 397 213v368l-383 -61q-66 -12 -109.5 -26.5t-85.5 -43.5t-63 -78.5t-21 -121.5v-23q0 -96 69 -161.5t196 -65.5zM297 1413v41h410v-41h-410z" />
    <glyph glyph-name="Abreve" unicode="&#x102;" horiz-adv-x="1208" 
d="M584 1618h41l512 -1618h-43l-148 471h-684l-147 -471h-43zM604 1556l-328 -1044h656zM604 1745q108 0 169 54t61 147h36q0 -108 -71.5 -173t-194.5 -65t-194.5 65t-71.5 173h37q0 -93 60.5 -147t168.5 -54z" />
    <glyph glyph-name="abreve" unicode="&#x103;" horiz-adv-x="993" 
d="M106 256v20q0 71 20.5 125t50.5 85.5t78 54t88.5 32t96.5 17.5l369 59v68q0 61 -6 106.5t-25.5 92t-52.5 75.5t-89.5 47.5t-133.5 18.5t-133.5 -18.5t-89.5 -47.5t-52.5 -75.5t-25.5 -92t-6 -106.5h-41v22q0 359 348 359t348 -359v-493l10 -246h-31l-16 172
q-130 -184 -403 -184q-135 0 -219.5 70.5t-84.5 197.5zM412 29q282 0 397 213v368l-383 -61q-66 -12 -109.5 -26.5t-85.5 -43.5t-63 -78.5t-21 -121.5v-23q0 -96 69 -161.5t196 -65.5zM502 1257q-147 0 -227 97t-80 243h36q0 -131 69 -217t202 -86q90 0 152 42.5t90 109
t28 151.5h37q0 -146 -80 -243t-227 -97z" />
    <glyph glyph-name="Aogonek" unicode="&#x104;" horiz-adv-x="1208" 
d="M1217 -352l12 -33q-76 -37 -162 -37q-79 0 -132.5 46t-53.5 140q0 53 16.5 95.5t47.5 72t64.5 49.5t77.5 37l-141 453h-684l-147 -471h-43l512 1618h41l512 -1618q-219 -71 -219 -236q0 -79 41.5 -114t107.5 -35q77 0 150 33zM604 1556l-328 -1044h656z" />
    <glyph glyph-name="aogonek" unicode="&#x105;" horiz-adv-x="993" 
d="M940 -352l12 -33q-76 -37 -161 -37q-79 0 -133 46.5t-54 139.5q0 56 18 100t52 74.5t69.5 50t83.5 36.5l-14 147q-130 -184 -403 -184q-135 0 -219.5 70.5t-84.5 197.5v20q0 71 20.5 125t50.5 85.5t78 54t88.5 32t96.5 17.5l369 59v68q0 61 -6 106.5t-25.5 92t-52.5 75.5
t-89.5 47.5t-133.5 18.5t-133.5 -18.5t-89.5 -47.5t-52.5 -75.5t-25.5 -92t-6 -106.5h-41v22q0 359 348 359t348 -359v-493l10 -246q-219 -71 -219 -236q0 -79 42 -114t108 -35q76 0 149 33zM412 29q282 0 397 213v368l-383 -61q-66 -12 -109.5 -26.5t-85.5 -43.5t-63 -78.5
t-21 -121.5v-23q0 -96 69 -161.5t196 -65.5z" />
    <glyph glyph-name="Cacute" unicode="&#x106;" horiz-adv-x="1214" 
d="M133 840q0 274 58.5 445.5t170 248t283.5 76.5q234 0 342.5 -129t108.5 -416v-41h-41q0 202 -43.5 322t-130 171.5t-230.5 51.5h-12q-155 0 -256 -71.5t-155 -234.5t-54 -423v-82q0 -260 54 -423t155 -234.5t256 -71.5h12q404 0 404 483h41v-29q0 -232 -111.5 -363.5
t-339.5 -131.5q-172 0 -283.5 76.5t-170 248t-58.5 445.5v82zM750 1946h45l-127 -226h-45z" />
    <glyph glyph-name="cacute" unicode="&#x107;" horiz-adv-x="1034" 
d="M113 563q0 118 25.5 213.5t77.5 168.5t136.5 113t196.5 40q100 0 175 -33t116.5 -88t61.5 -118t20 -132v-20h-41q0 158 -81 254t-251 96q-194 0 -294.5 -132.5t-100.5 -361.5v-41q0 -229 100.5 -361t294.5 -132q171 0 251.5 89t80.5 240h41v-20q0 -52 -11.5 -100
t-39 -94.5t-69.5 -80.5t-107 -54.5t-146 -20.5q-112 0 -196.5 40t-136.5 112.5t-77.5 168t-25.5 213.5v41zM711 1597h45l-185 -327h-45z" />
    <glyph glyph-name="Ccircumflex" unicode="&#x108;" horiz-adv-x="1214" 
d="M133 840q0 274 58.5 445.5t170 248t283.5 76.5q234 0 342.5 -129t108.5 -416v-41h-41q0 202 -43.5 322t-130 171.5t-230.5 51.5h-12q-155 0 -256 -71.5t-155 -234.5t-54 -423v-82q0 -260 54 -423t155 -234.5t256 -71.5h12q404 0 404 483h41v-29q0 -232 -111.5 -363.5
t-339.5 -131.5q-172 0 -283.5 76.5t-170 248t-58.5 445.5v82zM469 1720h-49l205 226h41l204 -226h-49l-176 195z" />
    <glyph glyph-name="ccircumflex" unicode="&#x109;" horiz-adv-x="1034" 
d="M113 563q0 118 25.5 213.5t77.5 168.5t136.5 113t196.5 40q100 0 175 -33t116.5 -88t61.5 -118t20 -132v-20h-41q0 158 -81 254t-251 96q-194 0 -294.5 -132.5t-100.5 -361.5v-41q0 -229 100.5 -361t294.5 -132q171 0 251.5 89t80.5 240h41v-20q0 -52 -11.5 -100
t-39 -94.5t-69.5 -80.5t-107 -54.5t-146 -20.5q-112 0 -196.5 40t-136.5 112.5t-77.5 168t-25.5 213.5v41zM324 1270h-52l256 327h41l256 -327h-51l-225 291z" />
    <glyph glyph-name="Cdotaccent" unicode="&#x10a;" horiz-adv-x="1214" 
d="M133 840q0 274 58.5 445.5t170 248t283.5 76.5q234 0 342.5 -129t108.5 -416v-41h-41q0 202 -43.5 322t-130 171.5t-230.5 51.5h-12q-155 0 -256 -71.5t-155 -234.5t-54 -423v-82q0 -260 54 -423t155 -234.5t256 -71.5h12q404 0 404 483h41v-29q0 -232 -111.5 -363.5
t-339.5 -131.5q-172 0 -283.5 76.5t-170 248t-58.5 445.5v82zM686 1874v-82h-82v82h82z" />
    <glyph glyph-name="cdotaccent" unicode="&#x10b;" horiz-adv-x="1034" 
d="M113 563q0 118 25.5 213.5t77.5 168.5t136.5 113t196.5 40q100 0 175 -33t116.5 -88t61.5 -118t20 -132v-20h-41q0 158 -81 254t-251 96q-194 0 -294.5 -132.5t-100.5 -361.5v-41q0 -229 100.5 -361t294.5 -132q171 0 251.5 89t80.5 240h41v-20q0 -52 -11.5 -100
t-39 -94.5t-69.5 -80.5t-107 -54.5t-146 -20.5q-112 0 -196.5 40t-136.5 112.5t-77.5 168t-25.5 213.5v41zM590 1475v-82h-82v82h82z" />
    <glyph glyph-name="Ccaron" unicode="&#x10c;" horiz-adv-x="1214" 
d="M133 840q0 274 58.5 445.5t170 248t283.5 76.5q234 0 342.5 -129t108.5 -416v-41h-41q0 202 -43.5 322t-130 171.5t-230.5 51.5h-12q-155 0 -256 -71.5t-155 -234.5t-54 -423v-82q0 -260 54 -423t155 -234.5t256 -71.5h12q404 0 404 483h41v-29q0 -232 -111.5 -363.5
t-339.5 -131.5q-172 0 -283.5 76.5t-170 248t-58.5 445.5v82zM821 1946h49l-204 -226h-41l-205 226h49l176 -195z" />
    <glyph glyph-name="ccaron" unicode="&#x10d;" horiz-adv-x="1034" 
d="M113 563q0 118 25.5 213.5t77.5 168.5t136.5 113t196.5 40q100 0 175 -33t116.5 -88t61.5 -118t20 -132v-20h-41q0 158 -81 254t-251 96q-194 0 -294.5 -132.5t-100.5 -361.5v-41q0 -229 100.5 -361t294.5 -132q171 0 251.5 89t80.5 240h41v-20q0 -52 -11.5 -100
t-39 -94.5t-69.5 -80.5t-107 -54.5t-146 -20.5q-112 0 -196.5 40t-136.5 112.5t-77.5 168t-25.5 213.5v41zM272 1597h52l225 -290l225 290h51l-256 -327h-41z" />
    <glyph glyph-name="Dcaron" unicode="&#x10e;" horiz-adv-x="1259" 
d="M1137 758q0 -206 -43 -355t-123 -236t-183.5 -127t-234.5 -40h-389v1597h389q132 0 235 -40t183 -126.5t123 -235.5t43 -355v-82zM205 41h338q101 0 183.5 23t152.5 76t117 135.5t73.5 204t26.5 278.5v82q0 195 -39.5 335.5t-114.5 222.5t-173.5 120t-225.5 38h-338
v-1515zM729 1946h49l-205 -226h-41l-204 226h49l176 -195z" />
    <glyph glyph-name="dcaron" unicode="&#x10f;" horiz-adv-x="1044" 
d="M528 1098q116 0 198.5 -49.5t133.5 -116.5v706h41v-1392l10 -246h-30l-15 162q-49 -69 -134 -121.5t-204 -52.5q-203 0 -309 140.5t-106 393.5v41q0 253 106 394t309 141zM860 866q-125 191 -332 191q-184 0 -279 -131t-95 -363v-41q0 -232 95 -362.5t279 -130.5
q208 0 332 190v647zM1085 1638h43l-22 -368h-21v368z" />
    <glyph glyph-name="Dcroat" unicode="&#x110;" horiz-adv-x="1372" 
d="M51 836h225v761h390q583 0 583 -757v-82q0 -165 -28.5 -294.5t-79 -216t-124.5 -142.5t-160.5 -80.5t-190.5 -24.5h-390v795h-225v41zM317 41h338q101 0 183.5 23t152.5 76t117 135.5t73.5 204t26.5 278.5v82q0 195 -39.5 335.5t-114.5 222.5t-173.5 120t-225.5 38h-338
v-720h471v-41h-471v-754z" />
    <glyph glyph-name="dcroat" unicode="&#x111;" horiz-adv-x="1044" 
d="M522 1341v41h338v256h41v-256h215v-41h-215v-1095l10 -246h-30l-15 162q-49 -69 -134 -121.5t-204 -52.5q-203 0 -309 140.5t-106 393.5v41q0 253 106 394t309 141q116 0 198.5 -49.5t133.5 -116.5v409h-338zM860 866q-125 191 -332 191q-184 0 -279 -131t-95 -363v-41
q0 -232 95 -362.5t279 -130.5q208 0 332 190v647z" />
    <glyph glyph-name="Emacron" unicode="&#x112;" horiz-adv-x="1105" 
d="M164 1597h840v-41h-799v-720h696v-41h-696v-754h799v-41h-840v1597zM389 1812v41h410v-41h-410z" />
    <glyph glyph-name="emacron" unicode="&#x113;" horiz-adv-x="1085" 
d="M973 522h-819q0 -226 99 -359.5t300 -133.5q81 0 146.5 19.5t108 51t71 73.5t41 86t12.5 89h41v-10q0 -61 -24 -120t-72 -112t-132 -85.5t-192 -32.5q-113 0 -198.5 41t-137.5 114.5t-78 168.5t-26 210v41q0 115 25 210t76 169t135 115t194 41t194 -41t135 -115t76 -169
t25 -210v-41zM543 1057q-129 0 -217.5 -64t-130 -173.5t-41.5 -256.5h778q0 147 -41.5 256.5t-130 173.5t-217.5 64zM338 1413v41h410v-41h-410z" />
    <glyph glyph-name="Ebreve" unicode="&#x114;" horiz-adv-x="1105" 
d="M164 1597h840v-41h-799v-720h696v-41h-696v-754h799v-41h-840v1597zM594 1745q108 0 168.5 54t60.5 147h37q0 -108 -71.5 -173t-194.5 -65t-194.5 65t-71.5 173h37q0 -93 60.5 -147t168.5 -54z" />
    <glyph glyph-name="ebreve" unicode="&#x115;" horiz-adv-x="1085" 
d="M973 522h-819q0 -226 99 -359.5t300 -133.5q81 0 146.5 19.5t108 51t71 73.5t41 86t12.5 89h41v-10q0 -61 -24 -120t-72 -112t-132 -85.5t-192 -32.5q-113 0 -198.5 41t-137.5 114.5t-78 168.5t-26 210v41q0 115 25 210t76 169t135 115t194 41t194 -41t135 -115t76 -169
t25 -210v-41zM543 1057q-129 0 -217.5 -64t-130 -173.5t-41.5 -256.5h778q0 147 -41.5 256.5t-130 173.5t-217.5 64zM543 1257q-147 0 -227 97t-80 243h36q0 -131 69 -217t202 -86q68 0 120.5 24t84.5 66t48.5 96t16.5 117h37q0 -146 -80 -243t-227 -97z" />
    <glyph glyph-name="Edotaccent" unicode="&#x116;" horiz-adv-x="1105" 
d="M164 1597h840v-41h-799v-720h696v-41h-696v-754h799v-41h-840v1597zM635 1874v-82h-82v82h82z" />
    <glyph glyph-name="edotaccent" unicode="&#x117;" horiz-adv-x="1085" 
d="M973 522h-819q0 -226 99 -359.5t300 -133.5q81 0 146.5 19.5t108 51t71 73.5t41 86t12.5 89h41v-10q0 -61 -24 -120t-72 -112t-132 -85.5t-192 -32.5q-113 0 -198.5 41t-137.5 114.5t-78 168.5t-26 210v41q0 115 25 210t76 169t135 115t194 41t194 -41t135 -115t76 -169
t25 -210v-41zM543 1057q-129 0 -217.5 -64t-130 -173.5t-41.5 -256.5h778q0 147 -41.5 256.5t-130 173.5t-217.5 64zM584 1475v-82h-82v82h82z" />
    <glyph glyph-name="Eogonek" unicode="&#x118;" horiz-adv-x="1105" 
d="M1083 -352l13 -33q-76 -37 -162 -37q-79 0 -132.5 46t-53.5 140q0 88 43 143.5t118 92.5h-745v1597h840v-41h-799v-720h696v-41h-696v-754h799v-41q-220 -71 -220 -236q0 -79 42 -114t108 -35q76 0 149 33z" />
    <glyph glyph-name="eogonek" unicode="&#x119;" horiz-adv-x="1085" 
d="M756 -352l12 -33q-76 -37 -162 -37q-79 0 -132.5 46t-53.5 140q0 148 137 224h-4q-113 0 -198.5 41t-137.5 114.5t-78 168.5t-26 210v41q0 115 25 210t76 169t135 115t194 41t194 -41t135 -115t76 -169t25 -210v-41h-819q0 -226 99 -359.5t300 -133.5q81 0 146.5 19.5
t108 51t71 73.5t41 86t12.5 89h41v-10q0 -70 -29 -136t-98.5 -123.5t-169.5 -78.5q-36 -7 -72.5 -25t-70.5 -46t-55 -71t-21 -94q0 -79 41.5 -114t107.5 -35q77 0 150 33zM543 1057q-129 0 -217.5 -64t-130 -173.5t-41.5 -256.5h778q0 147 -41.5 256.5t-130 173.5t-217.5 64
z" />
    <glyph glyph-name="Ecaron" unicode="&#x11a;" horiz-adv-x="1105" 
d="M164 1597h840v-41h-799v-720h696v-41h-696v-754h799v-41h-840v1597zM770 1946h49l-205 -226h-41l-204 226h49l176 -195z" />
    <glyph glyph-name="ecaron" unicode="&#x11b;" horiz-adv-x="1085" 
d="M973 522h-819q0 -226 99 -359.5t300 -133.5q81 0 146.5 19.5t108 51t71 73.5t41 86t12.5 89h41v-10q0 -61 -24 -120t-72 -112t-132 -85.5t-192 -32.5q-113 0 -198.5 41t-137.5 114.5t-78 168.5t-26 210v41q0 115 25 210t76 169t135 115t194 41t194 -41t135 -115t76 -169
t25 -210v-41zM543 1057q-129 0 -217.5 -64t-130 -173.5t-41.5 -256.5h778q0 147 -41.5 256.5t-130 173.5t-217.5 64zM266 1597h51l226 -290l225 290h51l-256 -327h-41z" />
    <glyph glyph-name="Gcircumflex" unicode="&#x11c;" horiz-adv-x="1280" 
d="M688 -12q-185 0 -305.5 75.5t-185 247.5t-64.5 447v82q0 206 35.5 355t105 239.5t166 133t226.5 42.5q243 0 351.5 -140t108.5 -399v-47h-41q0 287 -97 416t-316 129h-13q-115 0 -202.5 -39.5t-152 -124.5t-97.5 -227t-33 -338v-82q0 -197 33.5 -338t99.5 -226.5
t158.5 -125t216.5 -39.5h12q139 0 239.5 43t151.5 108v520h-325v41h366v-579q-58 -74 -166.5 -124t-271.5 -50zM489 1720h-49l205 226h41l205 -226h-49l-176 195z" />
    <glyph glyph-name="gcircumflex" unicode="&#x11d;" horiz-adv-x="1044" 
d="M512 -422q-206 0 -302.5 107t-96.5 292v23h41q0 -186 83.5 -283.5t274.5 -97.5q182 0 265 98t83 283v236q-49 -67 -133.5 -116.5t-200.5 -49.5q-203 0 -308 128.5t-105 364.5v41q0 236 105 365t308 129q83 0 155.5 -30t113.5 -66t71 -78l15 161h30l-10 -245v-863
q0 -184 -96.5 -291.5t-292.5 -107.5zM860 301v565q-125 191 -332 191q-185 0 -279.5 -118.5t-94.5 -334.5v-41q0 -216 94.5 -334t279.5 -118q208 0 332 190zM301 1270h-51l256 327h41l256 -327h-51l-226 291z" />
    <glyph glyph-name="Gbreve" unicode="&#x11e;" horiz-adv-x="1280" 
d="M688 -12q-185 0 -305.5 75.5t-185 247.5t-64.5 447v82q0 206 35.5 355t105 239.5t166 133t226.5 42.5q243 0 351.5 -140t108.5 -399v-47h-41q0 287 -97 416t-316 129h-13q-115 0 -202.5 -39.5t-152 -124.5t-97.5 -227t-33 -338v-82q0 -197 33.5 -338t99.5 -226.5
t158.5 -125t216.5 -39.5h12q139 0 239.5 43t151.5 108v520h-325v41h366v-579q-58 -74 -166.5 -124t-271.5 -50zM666 1745q108 0 168.5 54t60.5 147h37q0 -108 -71.5 -173t-194.5 -65q-124 0 -195.5 65t-71.5 173h37q0 -93 61 -147t169 -54z" />
    <glyph glyph-name="gbreve" unicode="&#x11f;" horiz-adv-x="1044" 
d="M512 -422q-206 0 -302.5 107t-96.5 292v23h41q0 -186 83.5 -283.5t274.5 -97.5q182 0 265 98t83 283v236q-49 -67 -133.5 -116.5t-200.5 -49.5q-203 0 -308 128.5t-105 364.5v41q0 236 105 365t308 129q83 0 155.5 -30t113.5 -66t71 -78l15 161h30l-10 -245v-863
q0 -184 -96.5 -291.5t-292.5 -107.5zM860 301v565q-125 191 -332 191q-185 0 -279.5 -118.5t-94.5 -334.5v-41q0 -216 94.5 -334t279.5 -118q208 0 332 190zM526 1257q-147 0 -227 97t-80 243h37q0 -85 28 -151.5t90 -109t152 -42.5q133 0 202 86t69 217h37
q0 -146 -80.5 -243t-227.5 -97z" />
    <glyph glyph-name="Gdotaccent" unicode="&#x120;" horiz-adv-x="1280" 
d="M688 -12q-185 0 -305.5 75.5t-185 247.5t-64.5 447v82q0 206 35.5 355t105 239.5t166 133t226.5 42.5q243 0 351.5 -140t108.5 -399v-47h-41q0 287 -97 416t-316 129h-13q-115 0 -202.5 -39.5t-152 -124.5t-97.5 -227t-33 -338v-82q0 -197 33.5 -338t99.5 -226.5
t158.5 -125t216.5 -39.5h12q139 0 239.5 43t151.5 108v520h-325v41h366v-579q-58 -74 -166.5 -124t-271.5 -50zM707 1874v-82h-82v82h82z" />
    <glyph glyph-name="gdotaccent" unicode="&#x121;" horiz-adv-x="1044" 
d="M512 -422q-206 0 -302.5 107t-96.5 292v23h41q0 -186 83.5 -283.5t274.5 -97.5q182 0 265 98t83 283v236q-49 -67 -133.5 -116.5t-200.5 -49.5q-203 0 -308 128.5t-105 364.5v41q0 236 105 365t308 129q83 0 155.5 -30t113.5 -66t71 -78l15 161h30l-10 -245v-863
q0 -184 -96.5 -291.5t-292.5 -107.5zM860 301v565q-125 191 -332 191q-185 0 -279.5 -118.5t-94.5 -334.5v-41q0 -216 94.5 -334t279.5 -118q208 0 332 190zM567 1475v-82h-82v82h82z" />
    <glyph glyph-name="Gcommaaccent" unicode="&#x122;" horiz-adv-x="1280" 
d="M688 -12q-185 0 -305.5 75.5t-185 247.5t-64.5 447v82q0 206 35.5 355t105 239.5t166 133t226.5 42.5q243 0 351.5 -140t108.5 -399v-47h-41q0 287 -97 416t-316 129h-13q-115 0 -202.5 -39.5t-152 -124.5t-97.5 -227t-33 -338v-82q0 -197 33.5 -338t99.5 -226.5
t158.5 -125t216.5 -39.5h12q139 0 239.5 43t151.5 108v520h-325v41h366v-579q-58 -74 -166.5 -124t-271.5 -50zM729 -143v-66q0 -115 -37 -164t-117 -49v37q60 0 86 32t27 128h-41v82h82z" />
    <glyph glyph-name="gcommaaccent" unicode="&#x123;" horiz-adv-x="1044" 
d="M512 -422q-206 0 -302.5 107t-96.5 292v23h41q0 -186 83.5 -283.5t274.5 -97.5q182 0 265 98t83 283v236q-49 -67 -133.5 -116.5t-200.5 -49.5q-203 0 -308 128.5t-105 364.5v41q0 236 105 365t308 129q83 0 155.5 -30t113.5 -66t71 -78l15 161h30l-10 -245v-863
q0 -184 -96.5 -291.5t-292.5 -107.5zM860 301v565q-125 191 -332 191q-185 0 -279.5 -118.5t-94.5 -334.5v-41q0 -216 94.5 -334t279.5 -118q208 0 332 190zM485 1331v66q0 115 37 164t117 49v-37q-60 0 -86 -32t-27 -128h41v-82h-82z" />
    <glyph glyph-name="Hcircumflex" unicode="&#x124;" horiz-adv-x="1269" 
d="M1065 1597h41v-1597h-41v795h-860v-795h-41v1597h41v-761h860v761zM459 1720h-49l204 226h41l205 -226h-49l-176 195z" />
    <glyph glyph-name="hcircumflex" unicode="&#x125;" horiz-adv-x="1003" 
d="M881 0h-41v768q0 156 -72 222.5t-217 66.5q-134 0 -225.5 -56t-141.5 -135v-866h-41v1638h41v-712q53 73 145.5 122.5t225.5 49.5q326 0 326 -320v-778zM-12 1720h-49l204 226h41l205 -226h-49l-176 195z" />
    <glyph glyph-name="Hbar" unicode="&#x126;" horiz-adv-x="1269" 
d="M1065 1597h41v-1597h-41v795h-860v-795h-41v1597h41v-360h860v360zM205 836h860v360h-860v-360z" />
    <glyph glyph-name="hbar" unicode="&#x127;" horiz-adv-x="1003" 
d="M-72 1341v41h215v256h41v-256h338v-41h-338v-415q53 73 145.5 122.5t225.5 49.5q326 0 326 -320v-778h-41v768q0 156 -72 222.5t-217 66.5q-134 0 -225.5 -56t-141.5 -135v-866h-41v1341h-215z" />
    <glyph glyph-name="Itilde" unicode="&#x128;" horiz-adv-x="389" 
d="M215 1597v-1597h-41v1597h41zM434 1898h37q0 -77 -35 -110t-88 -33q-47 0 -102 30t-107 59.5t-92 29.5q-42 0 -67 -22t-25 -85h-37q0 77 35 110.5t88 33.5q47 0 102 -30t107 -59.5t92 -29.5q43 0 67.5 21.5t24.5 84.5z" />
    <glyph glyph-name="itilde" unicode="&#x129;" horiz-adv-x="368" 
d="M164 0v1085h41v-1085h-41zM424 1499h37q0 -77 -35 -110t-88 -33q-47 0 -102 30t-107 59.5t-92 29.5q-42 0 -67 -22t-25 -85h-37q0 77 35 110t88 33q47 0 102 -29.5t107 -59t92 -29.5q43 0 67.5 21.5t24.5 84.5z" />
    <glyph glyph-name="Imacron" unicode="&#x12a;" horiz-adv-x="389" 
d="M215 1597v-1597h-41v1597h41zM-10 1812v41h409v-41h-409z" />
    <glyph glyph-name="imacron" unicode="&#x12b;" horiz-adv-x="368" 
d="M164 0v1085h41v-1085h-41zM-20 1413v41h409v-41h-409z" />
    <glyph glyph-name="Ibreve" unicode="&#x12c;" horiz-adv-x="389" 
d="M215 1597v-1597h-41v1597h41zM195 1745q108 0 168.5 54t60.5 147h37q0 -108 -71.5 -173t-194.5 -65q-124 0 -195.5 65t-71.5 173h37q0 -93 61 -147t169 -54z" />
    <glyph glyph-name="ibreve" unicode="&#x12d;" horiz-adv-x="368" 
d="M164 0v1085h41v-1085h-41zM184 1257q-147 0 -227 97t-80 243h37q0 -85 28 -151.5t90 -109t152 -42.5q133 0 202 86t69 217h37q0 -146 -80.5 -243t-227.5 -97z" />
    <glyph glyph-name="Iogonek" unicode="&#x12e;" horiz-adv-x="389" 
d="M295 -352l12 -33q-76 -37 -162 -37q-79 0 -132.5 46t-53.5 140q0 55 17 98.5t49.5 73.5t67.5 50t81 37v1574h41v-1597q-219 -71 -219 -236q0 -79 41.5 -114t107.5 -35q77 0 150 33z" />
    <glyph glyph-name="iogonek" unicode="&#x12f;" horiz-adv-x="368" 
d="M285 -352l12 -33q-76 -37 -162 -37q-79 0 -132.5 46t-53.5 140q0 55 17 98.5t49.5 73.5t67.5 50t81 37v1062h41v-1085q-219 -71 -219 -236q0 -79 41.5 -114t107.5 -35q77 0 150 33zM225 1475v-82h-82v82h82z" />
    <glyph glyph-name="Idotaccent" unicode="&#x130;" horiz-adv-x="389" 
d="M215 1597v-1597h-41v1597h41zM236 1874v-82h-82v82h82z" />
    <glyph glyph-name="dotlessi" unicode="&#x131;" horiz-adv-x="368" 
d="M164 0v1085h41v-1085h-41z" />
    <glyph glyph-name="IJ" unicode="&#x132;" horiz-adv-x="921" 
d="M215 1597v-1597h-41v1597h41zM723 276v1321h41v-1333q0 -80 -21 -136t-60 -85.5t-84 -42t-103 -12.5q-81 0 -131 20v41q14 -7 50.5 -13.5t71.5 -6.5q56 0 96 10.5t73.5 36.5t50 76t16.5 124z" />
    <glyph glyph-name="ij" unicode="&#x133;" horiz-adv-x="655" 
d="M451 -133v1218h41v-1230q0 -277 -269 -277q-79 0 -131 21v41q14 -7 51 -14t72 -7q116 0 176 53t60 195zM164 0v1085h41v-1085h-41zM225 1475v-82h-82v82h82zM512 1475v-82h-82v82h82z" />
    <glyph glyph-name="Jcircumflex" unicode="&#x134;" horiz-adv-x="962" 
d="M764 1597h41v-1105q0 -119 -19.5 -209t-62.5 -157.5t-115 -102.5t-172 -35q-194 0 -281 130.5t-87 373.5v14h41q0 -238 74.5 -357.5t252.5 -119.5q180 0 254 119.5t74 357.5v1091zM608 1720h-49l205 226h41l205 -226h-49l-177 195z" />
    <glyph glyph-name="jcircumflex" unicode="&#x135;" horiz-adv-x="368" 
d="M164 -133v1218h41v-1230q0 -80 -21 -136t-60 -86t-84 -42.5t-103 -12.5q-79 0 -132 21v41q14 -7 51 -14t72 -7q116 0 176 53t60 195zM-41 1270h-51l256 327h41l256 -327h-51l-226 291z" />
    <glyph glyph-name="Kcommaaccent" unicode="&#x136;" horiz-adv-x="1060" 
d="M205 1597v-1026l729 1026h49l-494 -694l494 -903h-49l-469 868l-260 -364v-504h-41v1597h41zM573 -143v-66q0 -115 -36.5 -164t-116.5 -49v37q60 0 85.5 32t26.5 128h-40v82h81z" />
    <glyph glyph-name="kcommaaccent" unicode="&#x137;" horiz-adv-x="937" 
d="M195 1638v-1228l620 675h55l-381 -411l381 -674h-47l-360 643l-268 -291v-352h-41v1638h41zM532 -143v-66q0 -115 -36.5 -164t-116.5 -49v37q60 0 86 32t27 128h-41v82h81z" />
    <glyph glyph-name="kgreenlandic" unicode="&#x138;" horiz-adv-x="937" 
d="M195 1085v-675l620 675h55l-381 -411l381 -674h-47l-360 643l-268 -291v-352h-41v1085h41z" />
    <glyph glyph-name="Lacute" unicode="&#x139;" horiz-adv-x="950" 
d="M922 0h-758v1597h41v-1556h717v-41zM289 1946h45l-127 -226h-45z" />
    <glyph glyph-name="lacute" unicode="&#x13a;" horiz-adv-x="368" 
d="M164 0v1638h41v-1638h-41zM289 1946h45l-127 -226h-45z" />
    <glyph glyph-name="Lcommaaccent" unicode="&#x13b;" horiz-adv-x="950" 
d="M922 0h-758v1597h41v-1556h717v-41zM584 -143v-66q0 -115 -37 -164t-117 -49v37q60 0 86 32t27 128h-41v82h82z" />
    <glyph glyph-name="lcommaaccent" unicode="&#x13c;" horiz-adv-x="368" 
d="M164 0v1638h41v-1638h-41zM225 -143v-66q0 -115 -36.5 -164t-116.5 -49v37q60 0 85.5 32t26.5 128h-41v82h82z" />
    <glyph glyph-name="Lcaron" unicode="&#x13d;" horiz-adv-x="950" 
d="M922 0h-758v1597h41v-1556h717v-41zM614 1638h43l-22 -368h-21v368z" />
    <glyph glyph-name="lcaron" unicode="&#x13e;" horiz-adv-x="368" 
d="M164 0v1638h41v-1638h-41zM389 1638h43l-22 -368h-21v368z" />
    <glyph glyph-name="Ldot" unicode="&#x13f;" horiz-adv-x="950" 
d="M922 0h-758v1597h41v-1556h717v-41zM618 774v82h82v-82h-82z" />
    <glyph glyph-name="ldot" unicode="&#x140;" horiz-adv-x="573" 
d="M164 0v1638h41v-1638h-41zM512 737v-82h-82v82h82z" />
    <glyph glyph-name="Lslash" unicode="&#x141;" horiz-adv-x="1062" 
d="M51 627l225 129v841h41v-817l471 273v-49l-471 -273v-690h717v-41h-758v707l-225 -129v49z" />
    <glyph glyph-name="lslash" unicode="&#x142;" horiz-adv-x="532" 
d="M492 1085v-51l-205 -151v-883h-41v854l-185 -135v51l185 135v733h41v-704z" />
    <glyph glyph-name="Nacute" unicode="&#x143;" horiz-adv-x="1310" 
d="M1108 59l-2 310v1228h41v-1597h-51l-893 1538l2 -309v-1229h-41v1597h51zM760 1946h45l-127 -226h-45z" />
    <glyph glyph-name="nacute" unicode="&#x144;" horiz-adv-x="1003" 
d="M881 0h-41v768q0 156 -72 222.5t-217 66.5q-134 0 -225.5 -56t-141.5 -135v-866h-41v840l-10 245h31l14 -167q54 76 147.5 128t229.5 52q326 0 326 -320v-778zM674 1597h45l-184 -327h-46z" />
    <glyph glyph-name="Ncommaaccent" unicode="&#x145;" horiz-adv-x="1310" 
d="M1108 59l-2 310v1228h41v-1597h-51l-893 1538l2 -309v-1229h-41v1597h51zM696 -143v-66q0 -115 -36.5 -164t-116.5 -49v37q59 0 85 32t27 128h-41v82h82z" />
    <glyph glyph-name="ncommaaccent" unicode="&#x146;" horiz-adv-x="1003" 
d="M881 0h-41v768q0 156 -72 222.5t-217 66.5q-134 0 -225.5 -56t-141.5 -135v-866h-41v840l-10 245h31l14 -167q54 76 147.5 128t229.5 52q326 0 326 -320v-778zM553 -143v-66q0 -115 -37 -164t-117 -49v37q60 0 86 32t27 128h-41v82h82z" />
    <glyph glyph-name="Ncaron" unicode="&#x147;" horiz-adv-x="1310" 
d="M1108 59l-2 310v1228h41v-1597h-51l-893 1538l2 -309v-1229h-41v1597h51zM831 1946h50l-205 -226h-41l-205 226h49l176 -195z" />
    <glyph glyph-name="ncaron" unicode="&#x148;" horiz-adv-x="1003" 
d="M881 0h-41v768q0 156 -72 222.5t-217 66.5q-134 0 -225.5 -56t-141.5 -135v-866h-41v840l-10 245h31l14 -167q54 76 147.5 128t229.5 52q326 0 326 -320v-778zM236 1597h51l225 -290l225 290h51l-256 -327h-40z" />
    <glyph glyph-name="Eng" unicode="&#x14a;" horiz-adv-x="1310" 
d="M1106 -133v115l-903 1556l2 -309v-1229h-41v1597h51l893 -1538l-2 310v1228h41v-1742q0 -80 -21 -136t-60 -86t-84 -42.5t-103 -12.5q-79 0 -131 21v41q14 -7 50.5 -14t71.5 -7q116 0 176 53t60 195z" />
    <glyph glyph-name="eng" unicode="&#x14b;" horiz-adv-x="1003" 
d="M840 -133v901q0 156 -72 222.5t-217 66.5q-134 0 -225.5 -56t-141.5 -135v-866h-41v840l-10 245h31l14 -167q54 76 147.5 128t229.5 52q326 0 326 -320v-923q0 -277 -269 -277q-78 0 -131 21v41q14 -7 51 -14t72 -7q116 0 176 53t60 195z" />
    <glyph glyph-name="Omacron" unicode="&#x14c;" horiz-adv-x="1290" 
d="M133 840q0 274 58.5 445.5t170 248t283.5 76.5t283.5 -76.5t170 -248t58.5 -445.5v-82q0 -274 -58.5 -445.5t-170 -248t-283.5 -76.5t-283.5 76.5t-170 248t-58.5 445.5v82zM174 758q0 -260 54 -423t155 -234.5t256 -71.5h12q155 0 256 71.5t155 234.5t54 423v82
q0 260 -54 423t-155 234.5t-256 71.5h-12q-155 0 -256 -71.5t-155 -234.5t-54 -423v-82zM440 1812v41h410v-41h-410z" />
    <glyph glyph-name="omacron" unicode="&#x14d;" horiz-adv-x="1077" 
d="M539 -12q-204 0 -315 141.5t-111 392.5v41q0 251 111 393t315 142t315 -142t111 -393v-41q0 -251 -111 -392.5t-315 -141.5zM539 29q185 0 285 131.5t100 361.5v41q0 231 -100 362.5t-285 131.5t-285 -131.5t-100 -362.5v-41q0 -230 100 -361.5t285 -131.5zM334 1413v41
h409v-41h-409z" />
    <glyph glyph-name="Obreve" unicode="&#x14e;" horiz-adv-x="1290" 
d="M133 840q0 274 58.5 445.5t170 248t283.5 76.5t283.5 -76.5t170 -248t58.5 -445.5v-82q0 -274 -58.5 -445.5t-170 -248t-283.5 -76.5t-283.5 76.5t-170 248t-58.5 445.5v82zM174 758q0 -260 54 -423t155 -234.5t256 -71.5h12q155 0 256 71.5t155 234.5t54 423v82
q0 260 -54 423t-155 234.5t-256 71.5h-12q-155 0 -256 -71.5t-155 -234.5t-54 -423v-82zM645 1745q108 0 168.5 54t60.5 147h37q0 -108 -71.5 -173t-194.5 -65t-194.5 65t-71.5 173h37q0 -93 60.5 -147t168.5 -54z" />
    <glyph glyph-name="obreve" unicode="&#x14f;" horiz-adv-x="1077" 
d="M539 -12q-204 0 -315 141.5t-111 392.5v41q0 251 111 393t315 142t315 -142t111 -393v-41q0 -251 -111 -392.5t-315 -141.5zM539 29q185 0 285 131.5t100 361.5v41q0 231 -100 362.5t-285 131.5t-285 -131.5t-100 -362.5v-41q0 -230 100 -361.5t285 -131.5zM539 1257
q-147 0 -227.5 97t-80.5 243h37q0 -131 69 -217t202 -86q68 0 120.5 24t84.5 66t48.5 96t16.5 117h37q0 -146 -80 -243t-227 -97z" />
    <glyph glyph-name="Ohungarumlaut" unicode="&#x150;" horiz-adv-x="1290" 
d="M133 840q0 274 58.5 445.5t170 248t283.5 76.5t283.5 -76.5t170 -248t58.5 -445.5v-82q0 -274 -58.5 -445.5t-170 -248t-283.5 -76.5t-283.5 76.5t-170 248t-58.5 445.5v82zM174 758q0 -260 54 -423t155 -234.5t256 -71.5h12q155 0 256 71.5t155 234.5t54 423v82
q0 260 -54 423t-155 234.5t-256 71.5h-12q-155 0 -256 -71.5t-155 -234.5t-54 -423v-82zM852 1946h45l-127 -226h-45zM647 1946h45l-127 -226h-45z" />
    <glyph glyph-name="ohungarumlaut" unicode="&#x151;" horiz-adv-x="1077" 
d="M539 -12q-204 0 -315 141.5t-111 392.5v41q0 251 111 393t315 142t315 -142t111 -393v-41q0 -251 -111 -392.5t-315 -141.5zM539 29q185 0 285 131.5t100 361.5v41q0 231 -100 362.5t-285 131.5t-285 -131.5t-100 -362.5v-41q0 -230 100 -361.5t285 -131.5zM803 1597h45
l-184 -327h-46zM598 1597h45l-184 -327h-45z" />
    <glyph glyph-name="OE" unicode="&#x152;" horiz-adv-x="1925" 
d="M123 758v82q0 206 43 355t123 235.5t183 126.5t235 40h1116v-41h-799v-720h696v-41h-696v-754h799v-41h-1116q-131 0 -234.5 40t-183.5 127t-123 236t-43 355zM983 1556h-266q-127 0 -225.5 -38t-173.5 -120t-114.5 -222.5t-39.5 -335.5v-82q0 -157 26.5 -278.5
t73.5 -204t117 -135.5t152.5 -76t183.5 -23h266v1515z" />
    <glyph glyph-name="oe" unicode="&#x153;" horiz-adv-x="1896" 
d="M1784 522h-819q0 -226 99 -359.5t300 -133.5q81 0 146.5 19.5t108 51t71 73.5t41 86t12.5 89h41v-10q0 -61 -24 -120t-72 -112t-132 -85.5t-192 -32.5q-177 0 -281.5 95.5t-138.5 262.5q-34 -172 -137.5 -265t-267.5 -93q-204 0 -315 141.5t-111 392.5v41q0 251 111 393
t315 142q164 0 267.5 -94t137.5 -265q32 166 134.5 262.5t275.5 96.5q110 0 194 -41t135 -115t76 -169t25 -210v-41zM539 29q185 0 285 131.5t100 361.5v41q0 231 -100 362.5t-285 131.5t-285 -131.5t-100 -362.5v-41q0 -230 100 -361.5t285 -131.5zM1354 1057
q-129 0 -217.5 -64t-130 -173.5t-41.5 -256.5h778q0 147 -41.5 256.5t-130 173.5t-217.5 64z" />
    <glyph glyph-name="Racute" unicode="&#x154;" horiz-adv-x="1132" 
d="M205 696v-696h-41v1597h395q70 0 131 -11.5t121.5 -41.5t104 -77.5t70 -124t26.5 -175.5v-41q0 -93 -23 -166.5t-64.5 -121.5t-92.5 -78t-113 -45l293 -715h-45l-289 707q-54 -11 -119 -11h-354zM205 737h352q57 0 108 8t109 33t99 66t68.5 114t27.5 170v37
q0 97 -27.5 170t-68.5 114t-99 66t-109 33t-108 8h-352v-819zM657 1946h45l-127 -226h-45z" />
    <glyph glyph-name="racute" unicode="&#x155;" horiz-adv-x="608" 
d="M492 1098l30 -2v-39h-18q-123 0 -203 -57.5t-117 -137.5v-862h-41v840l-10 245h31l14 -165q44 74 123 126t191 52zM489 1597h46l-185 -327h-45z" />
    <glyph glyph-name="Rcommaaccent" unicode="&#x156;" horiz-adv-x="1132" 
d="M205 696v-696h-41v1597h395q70 0 131 -11.5t121.5 -41.5t104 -77.5t70 -124t26.5 -175.5v-41q0 -93 -23 -166.5t-64.5 -121.5t-92.5 -78t-113 -45l293 -715h-45l-289 707q-54 -11 -119 -11h-354zM205 737h352q57 0 108 8t109 33t99 66t68.5 114t27.5 170v37
q0 97 -27.5 170t-68.5 114t-99 66t-109 33t-108 8h-352v-819zM594 -143v-66q0 -115 -37 -164t-117 -49v37q60 0 86 32t27 128h-41v82h82z" />
    <glyph glyph-name="rcommaaccent" unicode="&#x157;" horiz-adv-x="608" 
d="M492 1098l30 -2v-39h-18q-123 0 -203 -57.5t-117 -137.5v-862h-41v840l-10 245h31l14 -165q44 74 123 126t191 52zM205 -143v-66q0 -115 -37 -164t-117 -49v37q60 0 86 32t27 128h-41v82h82z" />
    <glyph glyph-name="Rcaron" unicode="&#x158;" horiz-adv-x="1132" 
d="M205 696v-696h-41v1597h395q70 0 131 -11.5t121.5 -41.5t104 -77.5t70 -124t26.5 -175.5v-41q0 -93 -23 -166.5t-64.5 -121.5t-92.5 -78t-113 -45l293 -715h-45l-289 707q-54 -11 -119 -11h-354zM205 737h352q57 0 108 8t109 33t99 66t68.5 114t27.5 170v37
q0 97 -27.5 170t-68.5 114t-99 66t-109 33t-108 8h-352v-819zM729 1946h49l-205 -226h-41l-204 226h49l176 -195z" />
    <glyph glyph-name="rcaron" unicode="&#x159;" horiz-adv-x="608" 
d="M492 1098l30 -2v-39h-18q-123 0 -203 -57.5t-117 -137.5v-862h-41v840l-10 245h31l14 -165q44 74 123 126t191 52zM51 1597h51l226 -290l225 290h51l-256 -327h-41z" />
    <glyph glyph-name="Sacute" unicode="&#x15a;" horiz-adv-x="1187" 
d="M586 809q-252 31 -362.5 125.5t-110.5 253.5v20q0 122 64.5 214.5t172.5 140t242 47.5q244 0 363.5 -129t119.5 -365v-51h-41q0 263 -107 383.5t-327 120.5h-12q-178 0 -304 -98t-126 -252v-21q0 -156 103 -238.5t345 -111.5q254 -30 366.5 -134.5t112.5 -281.5v-20
q0 -200 -138 -312t-353 -112q-241 0 -366.5 136t-125.5 368v20h41q0 -237 115.5 -360t329.5 -123h12q196 0 320 100t124 274v21q0 175 -107 264.5t-351 120.5zM698 1946h45l-127 -226h-45z" />
    <glyph glyph-name="sacute" unicode="&#x15b;" horiz-adv-x="983" 
d="M492 29q161 0 254.5 69t93.5 189q0 70 -21.5 115.5t-70.5 73t-112.5 40.5t-164.5 21q-106 11 -177 33t-110 57t-55 77t-16 99v12q0 128 101.5 205.5t277.5 77.5q200 0 289 -95.5t89 -257.5v-8h-41q0 157 -76 238.5t-261 81.5q-157 0 -247.5 -65.5t-90.5 -182.5
q0 -76 28.5 -121.5t107 -75.5t222.5 -43q206 -19 287.5 -79.5t81.5 -196.5v-12q0 -132 -104 -212.5t-285 -80.5q-110 0 -189.5 28.5t-121.5 78t-60.5 104.5t-18.5 120v9h41q0 -299 349 -299zM653 1597h45l-184 -327h-45z" />
    <glyph glyph-name="Scircumflex" unicode="&#x15c;" horiz-adv-x="1187" 
d="M586 809q-252 31 -362.5 125.5t-110.5 253.5v20q0 122 64.5 214.5t172.5 140t242 47.5q244 0 363.5 -129t119.5 -365v-51h-41q0 263 -107 383.5t-327 120.5h-12q-178 0 -304 -98t-126 -252v-21q0 -156 103 -238.5t345 -111.5q254 -30 366.5 -134.5t112.5 -281.5v-20
q0 -200 -138 -312t-353 -112q-241 0 -366.5 136t-125.5 368v20h41q0 -237 115.5 -360t329.5 -123h12q196 0 320 100t124 274v21q0 175 -107 264.5t-351 120.5zM418 1720h-49l204 226h41l205 -226h-49l-176 195z" />
    <glyph glyph-name="scircumflex" unicode="&#x15d;" horiz-adv-x="983" 
d="M492 29q161 0 254.5 69t93.5 189q0 70 -21.5 115.5t-70.5 73t-112.5 40.5t-164.5 21q-106 11 -177 33t-110 57t-55 77t-16 99v12q0 128 101.5 205.5t277.5 77.5q200 0 289 -95.5t89 -257.5v-8h-41q0 157 -76 238.5t-261 81.5q-157 0 -247.5 -65.5t-90.5 -182.5
q0 -76 28.5 -121.5t107 -75.5t222.5 -43q206 -19 287.5 -79.5t81.5 -196.5v-12q0 -132 -104 -212.5t-285 -80.5q-110 0 -189.5 28.5t-121.5 78t-60.5 104.5t-18.5 120v9h41q0 -299 349 -299zM266 1270h-51l256 327h41l256 -327h-51l-225 291z" />
    <glyph glyph-name="Scedilla" unicode="&#x15e;" horiz-adv-x="1187" 
d="M432 -385l12 33q25 -14 69 -23.5t81 -9.5q34 0 57 3.5t46 14t34.5 33.5t11.5 58t-11.5 58t-34.5 33t-46 13.5t-57 3.5l-51 -4l-23 22l49 138q-229 7 -348 142.5t-119 361.5v20h41q0 -237 115.5 -360t329.5 -123h12q196 0 320 100t124 274v21q0 175 -107 264.5t-351 120.5
q-252 31 -362.5 125.5t-110.5 253.5v20q0 122 64.5 214.5t172.5 140t242 47.5q244 0 363.5 -129t119.5 -365v-51h-41q0 263 -107 383.5t-327 120.5h-12q-178 0 -304 -98t-126 -252v-21q0 -156 103 -238.5t345 -111.5q254 -30 366.5 -134.5t112.5 -281.5v-20
q0 -197 -133 -308t-342 -116l-43 -121q10 2 37 2q34 0 62.5 -6.5t55.5 -21.5t42.5 -45t15.5 -72q0 -146 -186 -146q-90 0 -162 37z" />
    <glyph glyph-name="scedilla" unicode="&#x15f;" horiz-adv-x="983" 
d="M330 -385l12 33q25 -14 69 -23.5t81 -9.5q34 0 57 3.5t46 14t34.5 33.5t11.5 58t-11.5 58t-34.5 33t-46 13.5t-57 3.5l-52 -4l-22 22l49 138q-103 4 -177.5 33.5t-113.5 78t-56.5 102.5t-17.5 117v9h41q0 -299 349 -299q161 0 254.5 69t93.5 189q0 70 -21.5 115.5
t-70.5 73t-112.5 40.5t-164.5 21q-106 11 -177 33t-110 57t-55 77t-16 99v12q0 128 101.5 205.5t277.5 77.5q200 0 289 -95.5t89 -257.5v-8h-41q0 157 -76 238.5t-261 81.5q-157 0 -247.5 -65.5t-90.5 -182.5q0 -76 28.5 -121.5t107 -75.5t222.5 -43q206 -19 287.5 -79.5
t81.5 -196.5v-12q0 -129 -100 -209t-273 -84l-43 -121q10 2 37 2q34 0 62.5 -6.5t55.5 -21.5t42.5 -45t15.5 -72q0 -146 -186 -146q-90 0 -162 37z" />
    <glyph glyph-name="Scaron" unicode="&#x160;" horiz-adv-x="1187" 
d="M586 809q-252 31 -362.5 125.5t-110.5 253.5v20q0 122 64.5 214.5t172.5 140t242 47.5q244 0 363.5 -129t119.5 -365v-51h-41q0 263 -107 383.5t-327 120.5h-12q-178 0 -304 -98t-126 -252v-21q0 -156 103 -238.5t345 -111.5q254 -30 366.5 -134.5t112.5 -281.5v-20
q0 -200 -138 -312t-353 -112q-241 0 -366.5 136t-125.5 368v20h41q0 -237 115.5 -360t329.5 -123h12q196 0 320 100t124 274v21q0 175 -107 264.5t-351 120.5zM770 1946h49l-205 -226h-41l-204 226h49l176 -195z" />
    <glyph glyph-name="scaron" unicode="&#x161;" horiz-adv-x="983" 
d="M492 29q161 0 254.5 69t93.5 189q0 70 -21.5 115.5t-70.5 73t-112.5 40.5t-164.5 21q-106 11 -177 33t-110 57t-55 77t-16 99v12q0 128 101.5 205.5t277.5 77.5q200 0 289 -95.5t89 -257.5v-8h-41q0 157 -76 238.5t-261 81.5q-157 0 -247.5 -65.5t-90.5 -182.5
q0 -76 28.5 -121.5t107 -75.5t222.5 -43q206 -19 287.5 -79.5t81.5 -196.5v-12q0 -132 -104 -212.5t-285 -80.5q-110 0 -189.5 28.5t-121.5 78t-60.5 104.5t-18.5 120v9h41q0 -299 349 -299zM215 1597h51l226 -290l225 290h51l-256 -327h-41z" />
    <glyph glyph-name="Tcommaaccent" unicode="&#x162;" horiz-adv-x="1003" 
d="M522 1556v-1556h-41v1556h-430v41h901v-41h-430zM543 -143v-66q0 -115 -37 -164t-117 -49v37q60 0 86 32t27 128h-41v82h82z" />
    <glyph glyph-name="tcommaaccent" unicode="&#x163;" horiz-adv-x="737" 
d="M276 1085h379v-41h-379v-768q0 -74 16.5 -124t50 -76t73.5 -36.5t96 -10.5q35 0 72 6.5t51 13.5v-41q-50 -20 -131 -20q-58 0 -103 12.5t-84 42t-60 85.5t-21 136v780h-175v41h175v308h40v-308zM471 -143v-66q0 -115 -37 -164t-117 -49v37q60 0 86 32t27 128h-41v82h82z
" />
    <glyph glyph-name="Tcaron" unicode="&#x164;" horiz-adv-x="1003" 
d="M522 1556v-1556h-41v1556h-430v41h901v-41h-430zM678 1946h49l-205 -226h-41l-205 226h50l176 -195z" />
    <glyph glyph-name="tcaron" unicode="&#x165;" horiz-adv-x="737" 
d="M276 1085h379v-41h-379v-768q0 -74 16.5 -124t50 -76t73.5 -36.5t96 -10.5q35 0 72 6.5t51 13.5v-41q-50 -20 -131 -20q-58 0 -103 12.5t-84 42t-60 85.5t-21 136v780h-175v41h175v308h40v-308zM461 1638h43l-23 -368h-20v368z" />
    <glyph glyph-name="Tbar" unicode="&#x166;" horiz-adv-x="1003" 
d="M481 836v720h-430v41h901v-41h-430v-720h246v-41h-246v-795h-41v795h-245v41h245z" />
    <glyph glyph-name="tbar" unicode="&#x167;" horiz-adv-x="737" 
d="M61 522v41h175v481h-175v41h175v308h40v-308h379v-41h-379v-481h297v-41h-297v-246q0 -74 16.5 -124t50 -76t73.5 -36.5t96 -10.5q35 0 72 6.5t51 13.5v-41q-50 -20 -131 -20q-58 0 -103 12.5t-84 42t-60 85.5t-21 136v258h-175z" />
    <glyph glyph-name="Utilde" unicode="&#x168;" horiz-adv-x="1269" 
d="M635 -12q-113 0 -196.5 24.5t-148.5 81.5t-98.5 158t-33.5 246v1099h41v-1093q0 -137 28.5 -230.5t87 -146.5t135.5 -75.5t185 -22.5t185 22.5t135.5 75.5t87 146.5t28.5 230.5v1093h41v-1099q0 -145 -33.5 -246t-98.5 -158t-148.5 -81.5t-196.5 -24.5zM874 1898h37
q0 -77 -35 -110t-88 -33q-47 0 -102 30t-107 59.5t-92 29.5q-42 0 -67 -22t-25 -85h-37q0 77 35 110.5t88 33.5q47 0 102 -30t107 -59.5t92 -29.5q43 0 67.5 21.5t24.5 84.5z" />
    <glyph glyph-name="utilde" unicode="&#x169;" horiz-adv-x="1003" 
d="M123 1085h41v-768q0 -156 72 -222t217 -66q134 0 225.5 55.5t140.5 134.5v866h41v-839l10 -246h-30l-17 166q-52 -76 -144.5 -127t-229.5 -51q-326 0 -326 319v778zM731 1499h37q0 -77 -35 -110t-88 -33q-47 0 -102 30t-107 59.5t-92 29.5q-42 0 -67 -22t-25 -85h-37
q0 77 35 110t88 33q47 0 102 -29.5t107 -59t92 -29.5q43 0 67.5 21.5t24.5 84.5z" />
    <glyph glyph-name="Umacron" unicode="&#x16a;" horiz-adv-x="1269" 
d="M635 -12q-113 0 -196.5 24.5t-148.5 81.5t-98.5 158t-33.5 246v1099h41v-1093q0 -137 28.5 -230.5t87 -146.5t135.5 -75.5t185 -22.5t185 22.5t135.5 75.5t87 146.5t28.5 230.5v1093h41v-1099q0 -145 -33.5 -246t-98.5 -158t-148.5 -81.5t-196.5 -24.5zM430 1812v41h410
v-41h-410z" />
    <glyph glyph-name="umacron" unicode="&#x16b;" horiz-adv-x="1003" 
d="M123 1085h41v-768q0 -156 72 -222t217 -66q134 0 225.5 55.5t140.5 134.5v866h41v-839l10 -246h-30l-17 166q-52 -76 -144.5 -127t-229.5 -51q-326 0 -326 319v778zM287 1413v41h409v-41h-409z" />
    <glyph glyph-name="Ubreve" unicode="&#x16c;" horiz-adv-x="1269" 
d="M635 -12q-113 0 -196.5 24.5t-148.5 81.5t-98.5 158t-33.5 246v1099h41v-1093q0 -137 28.5 -230.5t87 -146.5t135.5 -75.5t185 -22.5t185 22.5t135.5 75.5t87 146.5t28.5 230.5v1093h41v-1099q0 -145 -33.5 -246t-98.5 -158t-148.5 -81.5t-196.5 -24.5zM635 1745
q108 0 168.5 54t60.5 147h37q0 -108 -71.5 -173t-194.5 -65t-194.5 65t-71.5 173h37q0 -93 60.5 -147t168.5 -54z" />
    <glyph glyph-name="ubreve" unicode="&#x16d;" horiz-adv-x="1003" 
d="M123 1085h41v-768q0 -156 72 -222t217 -66q134 0 225.5 55.5t140.5 134.5v866h41v-839l10 -246h-30l-17 166q-52 -76 -144.5 -127t-229.5 -51q-326 0 -326 319v778zM492 1257q-147 0 -227.5 97t-80.5 243h37q0 -131 69 -217t202 -86q90 0 152 42.5t90 109t28 151.5h37
q0 -146 -80 -243t-227 -97z" />
    <glyph glyph-name="Uring" unicode="&#x16e;" horiz-adv-x="1269" 
d="M635 -12q-113 0 -196.5 24.5t-148.5 81.5t-98.5 158t-33.5 246v1099h41v-1093q0 -137 28.5 -230.5t87 -146.5t135.5 -75.5t185 -22.5t185 22.5t135.5 75.5t87 146.5t28.5 230.5v1093h41v-1099q0 -145 -33.5 -246t-98.5 -158t-148.5 -81.5t-196.5 -24.5zM459 1782
q0 72 52 124t124 52t124 -52t52 -124t-52 -124t-124 -52t-124 52t-52 124zM496 1782q0 -59 40.5 -99.5t98.5 -40.5t98.5 40.5t40.5 99.5q0 58 -40 98.5t-99 40.5t-99 -40.5t-40 -98.5z" />
    <glyph glyph-name="uring" unicode="&#x16f;" horiz-adv-x="1003" 
d="M123 1085h41v-768q0 -156 72 -222t217 -66q134 0 225.5 55.5t140.5 134.5v866h41v-839l10 -246h-30l-17 166q-52 -76 -144.5 -127t-229.5 -51q-326 0 -326 319v778zM315 1434q0 72 52.5 124t124.5 52t124 -52t52 -124t-52 -124.5t-124 -52.5t-124.5 52.5t-52.5 124.5z
M352 1434q0 -58 41 -99t99 -41t98.5 40.5t40.5 99.5q0 58 -40.5 98.5t-98.5 40.5q-59 0 -99.5 -40.5t-40.5 -98.5z" />
    <glyph glyph-name="Uhungarumlaut" unicode="&#x170;" horiz-adv-x="1269" 
d="M635 -12q-113 0 -196.5 24.5t-148.5 81.5t-98.5 158t-33.5 246v1099h41v-1093q0 -137 28.5 -230.5t87 -146.5t135.5 -75.5t185 -22.5t185 22.5t135.5 75.5t87 146.5t28.5 230.5v1093h41v-1099q0 -145 -33.5 -246t-98.5 -158t-148.5 -81.5t-196.5 -24.5zM637 1946h45
l-127 -226h-45zM842 1946h45l-127 -226h-45z" />
    <glyph glyph-name="uhungarumlaut" unicode="&#x171;" horiz-adv-x="1003" 
d="M123 1085h41v-768q0 -156 72 -222t217 -66q134 0 225.5 55.5t140.5 134.5v866h41v-839l10 -246h-30l-17 166q-52 -76 -144.5 -127t-229.5 -51q-326 0 -326 319v778zM551 1597h45l-184 -327h-45zM756 1597h45l-185 -327h-45z" />
    <glyph glyph-name="Uogonek" unicode="&#x172;" horiz-adv-x="1269" 
d="M860 -352l12 -33q-76 -37 -161 -37q-79 0 -133 46.5t-54 139.5q0 148 138 224h-27q-113 0 -196.5 24.5t-148.5 81.5t-98.5 158t-33.5 246v1099h41v-1093q0 -137 28.5 -230.5t87 -146.5t135.5 -75.5t185 -22.5t185 22.5t135.5 75.5t87 146.5t28.5 230.5v1093h41v-1099
q0 -232 -86.5 -350t-245.5 -148q-81 -14 -150 -76.5t-69 -159.5q0 -79 42 -114t108 -35q76 0 149 33z" />
    <glyph glyph-name="uogonek" unicode="&#x173;" horiz-adv-x="1003" 
d="M950 -352l13 -33q-76 -37 -162 -37q-79 0 -133 46.5t-54 139.5q0 56 18 100t51.5 74.5t69 50t83.5 36.5l-13 141q-52 -76 -144.5 -127t-229.5 -51q-326 0 -326 319v778h41v-768q0 -156 72 -222t217 -66q134 0 225.5 55.5t140.5 134.5v866h41v-839l10 -246
q-219 -71 -219 -236q0 -79 42 -114t108 -35q76 0 149 33z" />
    <glyph glyph-name="Wcircumflex" unicode="&#x174;" horiz-adv-x="1761" 
d="M901 1597l416 -1529l323 1529h43l-342 -1597h-45l-415 1530l-416 -1530h-45l-342 1597h43l323 -1529l416 1529h41zM705 1720h-50l205 226h41l205 -226h-49l-176 195z" />
    <glyph glyph-name="wcircumflex" unicode="&#x175;" horiz-adv-x="1372" 
d="M686 1020l-311 -1020h-49l-258 1085h43l241 -1032l314 1032h41l313 -1032l242 1032h43l-258 -1085h-50zM461 1270h-51l256 327h41l256 -327h-52l-225 291z" />
    <glyph glyph-name="Ycircumflex" unicode="&#x176;" horiz-adv-x="1105" 
d="M543 530l467 1067h45l-492 -1116v-481h-41v481l-491 1116h45zM367 1720h-50l205 226h41l205 -226h-49l-176 195z" />
    <glyph glyph-name="ycircumflex" unicode="&#x177;" horiz-adv-x="942" 
d="M471 90l371 995h45l-398 -1048l-165 -447h-39l168 447l-398 1048h45zM246 1270h-51l256 327h41l256 -327h-52l-225 291z" />
    <glyph glyph-name="Ydieresis" unicode="&#x178;" horiz-adv-x="1105" 
d="M543 530l467 1067h45l-492 -1116v-481h-41v481l-491 1116h45zM727 1874v-82h-82v82h82zM440 1874v-82h-82v82h82z" />
    <glyph glyph-name="Zacute" unicode="&#x179;" horiz-adv-x="1126" 
d="M82 31l891 1528l-236 -3h-635v41h922v-30l-891 -1528l236 2h675v-41h-962v31zM668 1946h45l-127 -226h-45z" />
    <glyph glyph-name="zacute" unicode="&#x17a;" horiz-adv-x="880" 
d="M72 31l663 1016l-233 -3h-410v41h696v-30l-663 -1016l233 2h451v-41h-737v31zM602 1597h45l-184 -327h-45z" />
    <glyph glyph-name="Zdotaccent" unicode="&#x17b;" horiz-adv-x="1126" 
d="M82 31l891 1528l-236 -3h-635v41h922v-30l-891 -1528l236 2h675v-41h-962v31zM604 1874v-82h-82v82h82z" />
    <glyph glyph-name="zdotaccent" unicode="&#x17c;" horiz-adv-x="880" 
d="M72 31l663 1016l-233 -3h-410v41h696v-30l-663 -1016l233 2h451v-41h-737v31zM481 1475v-82h-82v82h82z" />
    <glyph glyph-name="Zcaron" unicode="&#x17d;" horiz-adv-x="1126" 
d="M82 31l891 1528l-236 -3h-635v41h922v-30l-891 -1528l236 2h675v-41h-962v31zM739 1946h49l-204 -226h-41l-205 226h49l176 -195z" />
    <glyph glyph-name="zcaron" unicode="&#x17e;" horiz-adv-x="880" 
d="M72 31l663 1016l-233 -3h-410v41h696v-30l-663 -1016l233 2h451v-41h-737v31zM164 1597h51l225 -290l226 290h51l-256 -327h-41z" />
    <glyph glyph-name="Scommaaccent" unicode="&#x218;" horiz-adv-x="1187" 
d="M586 809q-252 31 -362.5 125.5t-110.5 253.5v20q0 122 64.5 214.5t172.5 140t242 47.5q244 0 363.5 -129t119.5 -365v-51h-41q0 263 -107 383.5t-327 120.5h-12q-178 0 -304 -98t-126 -252v-21q0 -156 103 -238.5t345 -111.5q254 -30 366.5 -134.5t112.5 -281.5v-20
q0 -200 -138 -312t-353 -112q-241 0 -366.5 136t-125.5 368v20h41q0 -237 115.5 -360t329.5 -123h12q196 0 320 100t124 274v21q0 175 -107 264.5t-351 120.5zM635 -143v-66q0 -115 -37 -164t-117 -49v37q60 0 86 32t27 128h-41v82h82z" />
    <glyph glyph-name="scommaaccent" unicode="&#x219;" horiz-adv-x="983" 
d="M492 29q161 0 254.5 69t93.5 189q0 70 -21.5 115.5t-70.5 73t-112.5 40.5t-164.5 21q-106 11 -177 33t-110 57t-55 77t-16 99v12q0 128 101.5 205.5t277.5 77.5q200 0 289 -95.5t89 -257.5v-8h-41q0 157 -76 238.5t-261 81.5q-157 0 -247.5 -65.5t-90.5 -182.5
q0 -76 28.5 -121.5t107 -75.5t222.5 -43q206 -19 287.5 -79.5t81.5 -196.5v-12q0 -132 -104 -212.5t-285 -80.5q-110 0 -189.5 28.5t-121.5 78t-60.5 104.5t-18.5 120v9h41q0 -299 349 -299zM532 -143v-66q0 -115 -36.5 -164t-116.5 -49v37q60 0 86 32t27 128h-41v82h81z
" />
    <glyph glyph-name="Ymacron" unicode="&#x232;" horiz-adv-x="1105" 
d="M543 530l467 1067h45l-492 -1116v-481h-41v481l-491 1116h45zM338 1812v41h410v-41h-410z" />
    <glyph glyph-name="ymacron" unicode="&#x233;" horiz-adv-x="942" 
d="M471 90l371 995h45l-398 -1048l-165 -447h-39l168 447l-398 1048h45zM266 1413v41h410v-41h-410z" />
    <glyph glyph-name="dotlessj" unicode="&#x237;" horiz-adv-x="368" 
d="M164 -133v1218h41v-1230q0 -80 -21 -136t-60 -86t-84 -42.5t-103 -12.5q-79 0 -132 21v41q14 -7 51 -14t72 -7q116 0 176 53t60 195z" />
    <glyph glyph-name="circumflex" unicode="&#x2c6;" horiz-adv-x="1024" 
d="M287 1270h-51l256 327h40l256 -327h-51l-225 291z" />
    <glyph glyph-name="caron" unicode="&#x2c7;" horiz-adv-x="1024" 
d="M236 1597h51l225 -290l225 290h51l-256 -327h-40z" />
    <glyph glyph-name="breve" unicode="&#x2d8;" horiz-adv-x="1024" 
d="M512 1257q-147 0 -227 97t-80 243h37q0 -85 28 -151.5t90 -109t152 -42.5t152 42.5t90 109t28 151.5h37q0 -146 -80 -243t-227 -97z" />
    <glyph glyph-name="dotaccent" unicode="&#x2d9;" horiz-adv-x="1024" 
d="M553 1475v-82h-82v82h82z" />
    <glyph glyph-name="ring" unicode="&#x2da;" horiz-adv-x="1024" 
d="M336 1434q0 72 52 124t124 52t124 -52t52 -124t-52 -124.5t-124 -52.5t-124 52.5t-52 124.5zM373 1434q0 -59 40.5 -99.5t98.5 -40.5t98.5 40.5t40.5 99.5q0 58 -40.5 98.5t-98.5 40.5t-98.5 -40.5t-40.5 -98.5z" />
    <glyph glyph-name="ogonek" unicode="&#x2db;" horiz-adv-x="1232" 
d="M662 -352l12 -33q-76 -37 -162 -37q-79 0 -132.5 46t-53.5 140q0 47 14 86.5t35.5 66.5t55.5 50t64.5 37t71.5 29l15 -33q-220 -71 -220 -236q0 -79 42 -114t108 -35q77 0 150 33z" />
    <glyph glyph-name="tilde" unicode="&#x2dc;" horiz-adv-x="1024" 
d="M752 1499h36q0 -77 -34.5 -110t-87.5 -33q-47 0 -102 30t-107 59.5t-92 29.5q-42 0 -67.5 -22t-25.5 -85h-36q0 77 34.5 110t87.5 33q47 0 102 -29.5t107 -59t92 -29.5q43 0 68 21.5t25 84.5z" />
    <glyph glyph-name="hungarumlaut" unicode="&#x2dd;" horiz-adv-x="1024" 
d="M776 1597h45l-184 -327h-45zM571 1597h45l-184 -327h-45z" />
    <glyph glyph-name="Bdotaccent" unicode="&#x1e02;" horiz-adv-x="1130" 
d="M164 1597h366q71 0 130 -9t118.5 -34.5t100.5 -66.5t66.5 -111.5t25.5 -163.5v-32q0 -306 -277 -363q318 -48 318 -379v-41q0 -93 -25.5 -164.5t-66.5 -114.5t-100.5 -70.5t-119 -37.5t-129.5 -10h-407v1597zM567 795h-362v-754h362q402 0 402 358v37q0 359 -402 359z
M526 1556h-321v-720h321q41 0 75.5 2.5t77.5 11t76.5 23t67 40.5t55.5 61.5t36 88.5t14 119v28q0 66 -14 119t-36 88.5t-55.5 61.5t-67 40.5t-76.5 23t-77.5 11t-75.5 2.5zM573 1874v-82h-81v82h81z" />
    <glyph glyph-name="bdotaccent" unicode="&#x1e03;" horiz-adv-x="1044" 
d="M184 1638v-706q51 67 133.5 116.5t198.5 49.5q203 0 309.5 -141t106.5 -394v-41q0 -253 -106.5 -393.5t-309.5 -140.5q-83 0 -155.5 30t-113 66t-69.5 78l-14 -162h-31l10 246v1392h41zM184 866v-647q124 -190 332 -190q184 0 279.5 130.5t95.5 362.5v41q0 232 -95.5 363
t-279.5 131q-207 0 -332 -191zM205 1874v-82h-82v82h82z" />
    <glyph glyph-name="Ddotaccent" unicode="&#x1e0a;" horiz-adv-x="1259" 
d="M1137 758q0 -206 -43 -355t-123 -236t-183.5 -127t-234.5 -40h-389v1597h389q132 0 235 -40t183 -126.5t123 -235.5t43 -355v-82zM205 41h338q101 0 183.5 23t152.5 76t117 135.5t73.5 204t26.5 278.5v82q0 195 -39.5 335.5t-114.5 222.5t-173.5 120t-225.5 38h-338
v-1515zM594 1874v-82h-82v82h82z" />
    <glyph glyph-name="ddotaccent" unicode="&#x1e0b;" horiz-adv-x="1044" 
d="M528 1098q116 0 198.5 -49.5t133.5 -116.5v706h41v-1392l10 -246h-30l-15 162q-49 -69 -134 -121.5t-204 -52.5q-203 0 -309 140.5t-106 393.5v41q0 253 106 394t309 141zM860 866q-125 191 -332 191q-184 0 -279 -131t-95 -363v-41q0 -232 95 -362.5t279 -130.5
q208 0 332 190v647zM922 1874v-82h-82v82h82z" />
    <glyph glyph-name="Fdotaccent" unicode="&#x1e1e;" horiz-adv-x="991" 
d="M164 1597h799v-41h-758v-720h655v-41h-655v-795h-41v1597zM604 1874v-82h-82v82h82z" />
    <glyph glyph-name="fdotaccent" unicode="&#x1e1f;" horiz-adv-x="696" 
d="M276 1362v-277h338v-41h-338v-1044h-40v1044h-175v41h175v289q0 80 21 136t60 86t84 42.5t103 12.5q78 0 131 -21v-41q-14 7 -51 14t-72 7q-116 0 -176 -53t-60 -195zM451 1874v-82h-82v82h82z" />
    <glyph glyph-name="Mdotaccent" unicode="&#x1e40;" horiz-adv-x="1550" 
d="M778 57l572 1540h43v-1597h-41v1149l6 354l-559 -1503h-41l-559 1503l6 -354v-1149h-41v1597h43zM819 1874v-82h-82v82h82z" />
    <glyph glyph-name="mdotaccent" unicode="&#x1e41;" horiz-adv-x="1536" 
d="M1413 0h-41v788q0 143 -60.5 206t-187.5 63q-113 0 -194 -55.5t-131 -135.5v-866h-41v788q0 143 -60.5 206t-187.5 63q-113 0 -194.5 -55.5t-131.5 -135.5v-866h-41v840l-10 245h31l14 -165q50 76 134 127t202 51q225 0 272 -189q23 36 52.5 67t71 60t98 45.5t120.5 16.5
q285 0 285 -299v-799zM819 1475v-82h-82v82h82z" />
    <glyph glyph-name="Pdotaccent" unicode="&#x1e56;" horiz-adv-x="1114" 
d="M205 696v-696h-41v1597h395q70 0 131 -11.5t121.5 -41.5t104 -77.5t70 -124t26.5 -175.5v-41q0 -99 -26.5 -175.5t-70 -124t-104 -77.5t-121.5 -41.5t-131 -11.5h-354zM205 737h352q57 0 108 8t109 33t99 66t68.5 114t27.5 170v37q0 97 -27.5 170t-68.5 114t-99 66
t-109 33t-108 8h-352v-819zM604 1874v-82h-82v82h82z" />
    <glyph glyph-name="pdotaccent" unicode="&#x1e57;" horiz-adv-x="1044" 
d="M516 -12q-116 0 -199 49t-133 117v-564h-41v1250l-10 245h31l14 -161q29 42 69.5 78t113 66t155.5 30q203 0 309.5 -141t106.5 -394v-41q0 -253 -106.5 -393.5t-309.5 -140.5zM184 866v-647q124 -190 332 -190q184 0 279.5 130.5t95.5 362.5v41q0 232 -95.5 363
t-279.5 131q-207 0 -332 -191zM557 1475v-82h-82v82h82z" />
    <glyph glyph-name="Tdotaccent" unicode="&#x1e6a;" horiz-adv-x="1003" 
d="M522 1556v-1556h-41v1556h-430v41h901v-41h-430zM543 1874v-82h-82v82h82z" />
    <glyph glyph-name="tdotaccent" unicode="&#x1e6b;" horiz-adv-x="737" 
d="M276 1085h379v-41h-379v-768q0 -74 16.5 -124t50 -76t73.5 -36.5t96 -10.5q35 0 72 6.5t51 13.5v-41q-50 -20 -131 -20q-58 0 -103 12.5t-84 42t-60 85.5t-21 136v780h-175v41h175v308h40v-308zM297 1628v-82h-82v82h82z" />
    <glyph glyph-name="Wgrave" unicode="&#x1e80;" horiz-adv-x="1761" 
d="M901 1597l416 -1529l323 1529h43l-342 -1597h-45l-415 1530l-416 -1530h-45l-342 1597h43l323 -1529l416 1529h41zM731 1946h45l127 -226h-45z" />
    <glyph glyph-name="wgrave" unicode="&#x1e81;" horiz-adv-x="1372" 
d="M686 1020l-311 -1020h-49l-258 1085h43l241 -1032l314 1032h41l313 -1032l242 1032h43l-258 -1085h-50zM479 1597h45l185 -327h-45z" />
    <glyph glyph-name="Wacute" unicode="&#x1e82;" horiz-adv-x="1761" 
d="M901 1597l416 -1529l323 1529h43l-342 -1597h-45l-415 1530l-416 -1530h-45l-342 1597h43l323 -1529l416 1529h41zM985 1946h45l-127 -226h-45z" />
    <glyph glyph-name="wacute" unicode="&#x1e83;" horiz-adv-x="1372" 
d="M686 1020l-311 -1020h-49l-258 1085h43l241 -1032l314 1032h41l313 -1032l242 1032h43l-258 -1085h-50zM848 1597h45l-184 -327h-45z" />
    <glyph glyph-name="Wdieresis" unicode="&#x1e84;" horiz-adv-x="1761" 
d="M901 1597l416 -1529l323 1529h43l-342 -1597h-45l-415 1530l-416 -1530h-45l-342 1597h43l323 -1529l416 1529h41zM1065 1874v-82h-82v82h82zM778 1874v-82h-82v82h82z" />
    <glyph glyph-name="wdieresis" unicode="&#x1e85;" horiz-adv-x="1372" 
d="M686 1020l-311 -1020h-49l-258 1085h43l241 -1032l314 1032h41l313 -1032l242 1032h43l-258 -1085h-50zM870 1475v-82h-82v82h82zM584 1475v-82h-82v82h82z" />
    <glyph glyph-name="Eszett" unicode="&#x1e9e;" horiz-adv-x="1433" 
d="M627 870l372 633q-118 66 -303 66q-87 0 -158 -13.5t-135.5 -47t-108.5 -86.5t-69.5 -136.5t-25.5 -191.5v-1094h-41v1100q0 115 29 204.5t77.5 146t118.5 93t146.5 51.5t166.5 15q215 0 344 -84v-31l-366 -621l219 -26q128 -16 217.5 -51t142 -89t76 -121t23.5 -155v-20
q0 -205 -116 -314.5t-325 -109.5q-217 0 -328.5 126t-111.5 378v20h41q0 -132 27 -226t80 -150t123 -81.5t163 -25.5h13q190 0 291.5 97.5t101.5 276.5v21q0 177 -99 266t-340 119l-245 31v30z" />
    <glyph glyph-name="Ygrave" unicode="&#x1ef2;" horiz-adv-x="1105" 
d="M543 530l467 1067h45l-492 -1116v-481h-41v481l-491 1116h45zM438 2109h45l185 -327h-45z" />
    <glyph glyph-name="ygrave" unicode="&#x1ef3;" horiz-adv-x="942" 
d="M471 90l371 995h45l-398 -1048l-165 -447h-39l168 447l-398 1048h45zM264 1597h45l185 -327h-45z" />
    <glyph glyph-name="enspace" unicode="&#x2002;" horiz-adv-x="1024" 
 />
    <glyph glyph-name="emspace" unicode="&#x2003;" horiz-adv-x="2048" 
 />
    <glyph glyph-name="threeperemspace" unicode="&#x2004;" horiz-adv-x="681" 
 />
    <glyph glyph-name="fourperemspace" unicode="&#x2005;" horiz-adv-x="512" 
 />
    <glyph glyph-name="sixperemspace" unicode="&#x2006;" horiz-adv-x="342" 
 />
    <glyph glyph-name="figurespace" unicode="&#x2007;" horiz-adv-x="1228" 
 />
    <glyph glyph-name="punctuationspace" unicode="&#x2008;" horiz-adv-x="368" 
 />
    <glyph glyph-name="thinspace" unicode="&#x2009;" horiz-adv-x="307" 
 />
    <glyph glyph-name="hairspace" unicode="&#x200a;" horiz-adv-x="102" 
 />
    <glyph glyph-name="zerowidthspace" unicode="&#x200b;" horiz-adv-x="0" 
 />
    <glyph glyph-name="figuredash" unicode="&#x2012;" horiz-adv-x="1228" 
d="M102 676v41h1024v-41h-1024z" />
    <glyph glyph-name="endash" unicode="&#x2013;" horiz-adv-x="1024" 
d="M102 676v41h820v-41h-820z" />
    <glyph glyph-name="emdash" unicode="&#x2014;" horiz-adv-x="2048" 
d="M102 676v41h1844v-41h-1844z" />
    <glyph glyph-name="uni2015" unicode="&#x2015;" horiz-adv-x="2457" 
d="M102 676v41h2253v-41h-2253z" />
    <glyph glyph-name="doublebar" unicode="&#x2016;" horiz-adv-x="573" 
d="M164 -246v1966h41v-1966h-41zM369 -246v1966h41v-1966h-41z" />
    <glyph glyph-name="quoteleft" unicode="&#x2018;" horiz-adv-x="368" 
d="M143 1313v65q0 114 47 173t127 59v-41q-130 0 -133 -174h41v-82h-82z" />
    <glyph glyph-name="quoteright" unicode="&#x2019;" horiz-adv-x="368" 
d="M225 1597v-65q0 -114 -47 -173t-127 -59v41q130 0 133 175h-41v81h82z" />
    <glyph glyph-name="quotesinglbase" unicode="&#x201a;" horiz-adv-x="368" 
d="M225 82v-66q0 -114 -46.5 -172.5t-127.5 -58.5v41q130 0 133 174h-41v82h82z" />
    <glyph glyph-name="reversequoteleft" unicode="&#x201b;" horiz-adv-x="368" 
d="M143 1532v65h82v-81h-41q3 -175 133 -175v-41q-80 0 -127 59t-47 173z" />
    <glyph glyph-name="quotedblleft" unicode="&#x201c;" horiz-adv-x="532" 
d="M143 1313v65q0 114 47 173t127 59v-41q-130 0 -133 -174h41v-82h-82zM307 1313v65q0 114 47 173t127 59v-41q-130 0 -133 -174h41v-82h-82z" />
    <glyph glyph-name="quotedblright" unicode="&#x201d;" horiz-adv-x="532" 
d="M225 1597v-65q0 -114 -47 -173t-127 -59v41q130 0 133 175h-41v81h82zM389 1597v-65q0 -114 -47 -173t-127 -59v41q130 0 133 175h-41v81h82z" />
    <glyph glyph-name="quotedblbase" unicode="&#x201e;" horiz-adv-x="532" 
d="M225 82v-66q0 -114 -46.5 -172.5t-127.5 -58.5v41q130 0 133 174h-41v82h82zM389 82v-66q0 -114 -46.5 -172.5t-127.5 -58.5v41q130 0 133 174h-41v82h82z" />
    <glyph glyph-name="reversequotedblleft" unicode="&#x201f;" horiz-adv-x="532" 
d="M143 1532v65h82v-81h-41q3 -175 133 -175v-41q-80 0 -127 59t-47 173zM307 1532v65h82v-81h-41q3 -175 133 -175v-41q-80 0 -127 59t-47 173z" />
    <glyph glyph-name="dagger" unicode="&#x2020;" horiz-adv-x="778" 
d="M369 1638h41v-307h-41v307zM41 1249v41h287v-41h-287zM410 696h-41v512h41v-512zM737 1290v-41h-286v41h286z" />
    <glyph glyph-name="daggerdbl" unicode="&#x2021;" horiz-adv-x="778" 
d="M369 1638h41v-307h-41v307zM41 1249v41h287v-41h-287zM410 901h-41v307h41v-307zM737 1290v-41h-286v41h286zM41 819v41h287v-41h-287zM410 266h-41v512h41v-512zM737 860v-41h-286v41h286z" />
    <glyph glyph-name="bullet" unicode="&#x2022;" horiz-adv-x="778" 
d="M635 942v-491h-492v491h492z" />
    <glyph glyph-name="ellipsis" unicode="&#x2026;" horiz-adv-x="2048" 
d="M410 82v-82h-82v82h82zM1720 82v-82h-82v82h82zM1065 82v-82h-82v82h82z" />
    <glyph glyph-name="perthousand" unicode="&#x2030;" horiz-adv-x="2580" 
d="M567 0l643 1542q-145 -47 -309 -47q-138 0 -266 27q82 -92 82 -242v-20q0 -154 -82.5 -242t-220.5 -88t-220.5 88t-82.5 242v20q0 154 82.5 242t220.5 88q59 0 114 -19q168 -55 373 -55q97 0 200.5 20t162.5 41v-30l-652 -1567h-45zM1733 338v-21q0 -154 -82.5 -241.5
t-220.5 -87.5t-221 88t-83 241v21q0 154 83 242t221 88t220.5 -88t82.5 -242zM2470 338v-21q0 -154 -82.5 -241.5t-220.5 -87.5t-220.5 87.5t-82.5 241.5v21q0 154 82.5 242t220.5 88t220.5 -88t82.5 -242zM1167 344v-33q0 -123 70 -202.5t186 -79.5h13q116 0 186 79.5
t70 202.5v33q0 123 -70 203t-186 80h-13q-116 0 -186 -80t-70 -203zM1905 344v-33q0 -123 70 -202.5t186 -79.5h12q116 0 186 79.5t70 202.5v33q0 123 -70 203t-186 80h-12q-116 0 -186 -80t-70 -203zM676 1253v33q0 123 -70 203t-186 80h-12q-116 0 -186 -80t-70 -203v-33
q0 -123 70 -202.5t186 -79.5h12q116 0 186 79.5t70 202.5z" />
    <glyph glyph-name="tripleprime" unicode="&#x2034;" horiz-adv-x="778" 
d="M164 1597h41l-10 -512h-21zM573 1597h41l-10 -512h-20zM369 1597h41l-11 -512h-20z" />
    <glyph glyph-name="guilsinglleft" unicode="&#x2039;" 
d="M512 1036v-51l-373 -289l373 -288v-52l-410 320v41z" />
    <glyph glyph-name="guilsinglright" unicode="&#x203a;" 
d="M102 985v51l410 -319v-41l-410 -320v52l373 288z" />
    <glyph glyph-name="interrobang" unicode="&#x203d;" horiz-adv-x="901" 
d="M465 358h-29l-6 1211q-167 -10 -244 -147.5t-77 -397.5h-41v14q0 274 96 423t293 149q98 0 171.5 -37t115 -99t61.5 -133t20 -149q0 -70 -19.5 -133t-50.5 -113t-68.5 -99t-75.5 -100.5t-70 -106.5t-53 -127.5t-23 -154.5zM784 1178q0 59 -9.5 112t-32.5 103.5t-58 88
t-89.5 61.5t-123.5 26l-6 -1030q21 73 62.5 144t84 125.5t82.5 110.5t65 122t25 137zM492 82v-82h-82v82h82z" />
    <glyph glyph-name="fraction" unicode="&#x2044;" horiz-adv-x="409" 
d="M-360 0h-50l1180 1597h49z" />
    <glyph glyph-name="uni2070" unicode="&#x2070;" 
d="M545 1028q0 -110 -57 -175t-181 -65t-180.5 65t-56.5 175v338q0 112 56.5 177t180.5 65t181 -65t57 -177v-338zM502 1356q0 103 -44.5 158t-148.5 55h-6q-103 0 -146.5 -54.5t-43.5 -158.5v-318q0 -102 43.5 -156.5t146.5 -54.5h6q104 0 148.5 54.5t44.5 156.5v318z" />
    <glyph glyph-name="uni2074" unicode="&#x2074;" 
d="M430 799h-41v225h-354v25l354 548h41v-532h148v-41h-148v-225zM389 1524l-295 -461l101 2h194v459z" />
    <glyph glyph-name="uni2075" unicode="&#x2075;" 
d="M96 1137l-35 8l21 452h465v-41h-426l-15 -342q67 86 201 86q107 0 178.5 -65.5t71.5 -185.5v-11q0 -119 -71.5 -184.5t-178.5 -65.5q-127 0 -189.5 67.5t-62.5 188.5v11h41q0 -115 53 -171.5t152 -56.5h10q86 0 144.5 52t58.5 155v21q0 101 -58.5 154t-144.5 53h-10
q-67 0 -124 -32.5t-81 -92.5z" />
    <glyph glyph-name="uni2076" unicode="&#x2076;" 
d="M526 1608v-41q-85 0 -171.5 -38t-145.5 -116q-70 -91 -94 -209q76 96 202 96q110 0 178 -63.5t68 -187.5v-11q0 -124 -69 -187t-183 -63q-108 0 -179 73t-71 204v10q0 214 113 365q62 83 159.5 125.5t192.5 42.5zM313 1260q-70 0 -125 -35.5t-84 -94.5q-2 -18 -2 -55v-10
q0 -107 59 -171.5t148 -64.5h6q96 0 150.5 54t54.5 153v17q0 97 -54 152t-147 55h-6z" />
    <glyph glyph-name="uni2077" unicode="&#x2077;" 
d="M66 1311v286h491v-26l-313 -772h-45l309 757h-402v-245h-40z" />
    <glyph glyph-name="uni2078" unicode="&#x2078;" 
d="M307 788q-108 0 -180 55t-72 154v15q0 76 40 124.5t110 67.5q-144 42 -144 182v15q0 99 65.5 153t180.5 54q114 0 180 -54t66 -153v-15q0 -141 -145 -182q70 -19 109.5 -67.5t39.5 -124.5v-15q0 -99 -71.5 -154t-178.5 -55zM289 1186q-82 0 -136.5 -46t-54.5 -130v-15
q0 -83 59 -125.5t144 -42.5h10q86 0 144.5 42.5t58.5 125.5v15q0 84 -53.5 130t-136.5 46h-35zM311 1569h-10q-90 0 -143.5 -46.5t-53.5 -127.5v-6q0 -81 53.5 -122.5t137.5 -41.5h24q83 0 137 41.5t54 122.5v6q0 81 -54 127.5t-145 46.5z" />
    <glyph glyph-name="uni2079" unicode="&#x2079;" 
d="M86 788v41q86 0 174 37.5t146 116.5q68 88 92 209q-73 -96 -201 -96q-110 0 -178 63t-68 187v10q0 124 69 188t181 64q109 0 180.5 -73.5t71.5 -203.5v-10q0 -213 -113 -365q-62 -84 -159 -126t-195 -42zM293 1137h6q71 0 127 35.5t84 95.5q0 9 1 27t1 26v10
q0 107 -59 171.5t-148 64.5h-6q-96 0 -150.5 -54.5t-54.5 -152.5v-17q0 -98 53.5 -152t145.5 -54z" />
    <glyph glyph-name="uni207A" unicode="&#x207a;" 
d="M287 1454h41v-235h235v-41h-235v-236h-41v236h-236v41h236v235z" />
    <glyph glyph-name="uni207B" unicode="&#x207b;" 
d="M51 1178v41h512v-41h-512z" />
    <glyph glyph-name="uni207C" unicode="&#x207c;" 
d="M51 1280v41h512v-41h-512zM51 1075v41h512v-41h-512z" />
    <glyph glyph-name="uni207D" unicode="&#x207d;" horiz-adv-x="307" 
d="M66 1188v20q0 202 127 389h45q-132 -186 -132 -389v-20q0 -203 132 -389h-45q-127 183 -127 389z" />
    <glyph glyph-name="uni207E" unicode="&#x207e;" horiz-adv-x="307" 
d="M240 1208v-20q0 -208 -125 -389h-45q129 186 129 389v20q0 203 -129 389h45q125 -184 125 -389z" />
    <glyph glyph-name="uni2080" unicode="&#x2080;" 
d="M545 229q0 -110 -57 -174.5t-181 -64.5t-180.5 64.5t-56.5 174.5v338q0 112 56.5 177t180.5 65t181 -65t57 -177v-338zM502 557q0 103 -44.5 158t-148.5 55h-6q-103 0 -146.5 -54.5t-43.5 -158.5v-317q0 -102 43.5 -156.5t146.5 -54.5h6q104 0 148.5 54.5t44.5 156.5v317
z" />
    <glyph glyph-name="uni2081" unicode="&#x2081;" 
d="M557 0h-481v41h221v700l-209 -143l-22 35l251 170h21v-762h219v-41z" />
    <glyph glyph-name="uni2082" unicode="&#x2082;" 
d="M209 41h334v-41h-482v25l359 376q51 54 70.5 94.5t19.5 88.5v10q0 79 -55 127.5t-146 48.5h-6q-103 0 -152 -57t-49 -181h-41v25q0 252 246 252q113 0 179.5 -56t66.5 -155v-10q0 -60 -19 -103t-75 -102l-328 -344z" />
    <glyph glyph-name="uni2083" unicode="&#x2083;" 
d="M301 29h10q86 0 144.5 43.5t58.5 126.5v16q0 84 -53 128t-137 44h-119v39h114q83 0 137 40.5t54 119.5v8q0 80 -54 128t-145 48h-10q-102 0 -150.5 -56.5t-48.5 -181.5h-41v25q0 252 246 252q113 0 179.5 -56t66.5 -155v-14q0 -140 -145 -178q70 -18 109.5 -66t39.5 -123
v-16q0 -98 -72 -154.5t-178 -56.5q-127 0 -189.5 67.5t-62.5 188.5v10h41q0 -115 53 -171t152 -56z" />
    <glyph glyph-name="uni2084" unicode="&#x2084;" 
d="M430 0h-41v225h-354v25l354 549h41v-533h148v-41h-148v-225zM389 725l-295 -461l101 2h194v459z" />
    <glyph glyph-name="uni2085" unicode="&#x2085;" 
d="M96 338l-35 8l21 453h465v-41h-426l-15 -342q67 86 201 86q107 0 178.5 -65.5t71.5 -186.5v-10q0 -119 -71.5 -184.5t-178.5 -65.5q-127 0 -189.5 67.5t-62.5 188.5v10h41q0 -115 53 -171t152 -56h10q86 0 144.5 52t58.5 155v20q0 101 -58.5 154t-144.5 53h-10
q-67 0 -124 -32.5t-81 -92.5z" />
    <glyph glyph-name="uni2086" unicode="&#x2086;" 
d="M526 809v-41q-85 0 -171.5 -38t-145.5 -116q-71 -91 -94 -208q76 96 202 96q110 0 178 -64t68 -188v-10q0 -124 -69 -187t-183 -63q-108 0 -179 72.5t-71 203.5v10q0 214 113 365q62 83 159.5 125.5t192.5 42.5zM313 461q-70 0 -125 -35t-84 -94q-2 -18 -2 -56v-10
q0 -107 59 -171t148 -64h6q96 0 150.5 54t54.5 153v16q0 97 -54 152t-147 55h-6z" />
    <glyph glyph-name="uni2087" unicode="&#x2087;" 
d="M66 512v287h491v-27l-313 -772h-45l309 758h-402v-246h-40z" />
    <glyph glyph-name="uni2088" unicode="&#x2088;" 
d="M307 -10q-108 0 -180 55t-72 154v14q0 76 40 125t110 68q-144 42 -144 182v14q0 99 65.5 153t180.5 54q114 0 180 -54t66 -153v-14q0 -141 -145 -182q70 -19 109.5 -68t39.5 -125v-14q0 -99 -71.5 -154t-178.5 -55zM289 387q-82 0 -136.5 -46t-54.5 -130v-14
q0 -83 59 -125.5t144 -42.5h10q86 0 144.5 42.5t58.5 125.5v14q0 84 -53.5 130t-136.5 46h-35zM311 770h-10q-90 0 -143.5 -46.5t-53.5 -127.5v-6q0 -81 53.5 -122.5t137.5 -41.5h24q83 0 137 41.5t54 122.5v6q0 81 -54 127.5t-145 46.5z" />
    <glyph glyph-name="uni2089" unicode="&#x2089;" 
d="M86 -10v41q86 0 174 37t146 116q68 88 92 209q-73 -96 -201 -96q-110 0 -178 63t-68 187v10q0 124 69 188t181 64q109 0 180.5 -73.5t71.5 -203.5v-10q0 -212 -113 -364q-62 -84 -159 -126t-195 -42zM293 338h6q71 0 127 35.5t84 95.5q0 9 1 27t1 26v10q0 108 -59 172
t-148 64h-6q-96 0 -150.5 -54.5t-54.5 -152.5v-16q0 -98 53.5 -152.5t145.5 -54.5z" />
    <glyph glyph-name="uni208A" unicode="&#x208a;" 
d="M287 655h41v-235h235v-41h-235v-236h-41v236h-236v41h236v235z" />
    <glyph glyph-name="uni208B" unicode="&#x208b;" 
d="M51 379v41h512v-41h-512z" />
    <glyph glyph-name="uni208C" unicode="&#x208c;" 
d="M51 481v41h512v-41h-512zM51 276v41h512v-41h-512z" />
    <glyph glyph-name="uni208D" unicode="&#x208d;" horiz-adv-x="307" 
d="M66 389v21q0 202 127 389h45q-132 -186 -132 -389v-21q0 -203 132 -389h-45q-127 183 -127 389z" />
    <glyph glyph-name="uni208E" unicode="&#x208e;" horiz-adv-x="307" 
d="M240 410v-21q0 -208 -125 -389h-45q129 186 129 389v21q0 203 -129 389h45q125 -184 125 -389z" />
    <glyph glyph-name="Euro" unicode="&#x20ac;" horiz-adv-x="1228" 
d="M82 635v41h154v246h-154v41h156q17 342 131 494.5t338 152.5q217 0 313 -128t96 -417v-41h-41q0 302 -82.5 423.5t-279.5 121.5h-13q-199 0 -301.5 -142.5t-117.5 -463.5h620l-20 -41h-602v-246h520l-21 -41h-497q15 -322 117.5 -464t301.5 -142h13q181 0 271.5 116.5
t90.5 366.5h41v-29q0 -234 -98.5 -364.5t-310.5 -130.5q-224 0 -338 152.5t-131 494.5h-156z" />
    <glyph glyph-name="ruble" unicode="&#x20bd;" horiz-adv-x="1228" 
d="M51 696v41h225v860h396q70 0 131 -11.5t121.5 -41.5t103.5 -77.5t69.5 -124t26.5 -175.5v-41q0 -99 -26.5 -175.5t-69.5 -124t-103.5 -77.5t-121.5 -41.5t-131 -11.5h-355v-245h451v-41h-451v-410h-41v410h-225v41h225v245h-225zM317 737h353q57 0 108 8t108.5 33
t98.5 66t68.5 114t27.5 170v37q0 97 -27.5 170t-68.5 114t-98.5 66t-108.5 33t-108 8h-353v-819z" />
    <glyph glyph-name="numero" unicode="&#x2116;" horiz-adv-x="2150" 
d="M1108 59l-2 310v1228h41v-1597h-51l-893 1538l2 -309v-1229h-41v1597h51zM1731 819q137 0 210.5 96t73.5 265v28q0 169 -73.5 265t-210.5 96t-211 -96.5t-74 -264.5v-28q0 -168 74 -264.5t211 -96.5zM1731 778q-158 0 -242 108.5t-84 293.5v28q0 185 84 293.5t242 108.5
t241.5 -108.5t83.5 -293.5v-28q0 -185 -83.5 -293.5t-241.5 -108.5zM1425 471v41h611v-41h-611z" />
    <glyph glyph-name="published" unicode="&#x2117;" horiz-adv-x="1843" 
d="M111 799q0 221 108.5 407.5t295 295t407.5 108.5t407.5 -108.5t295 -295t108.5 -407.5t-108.5 -407.5t-295 -295t-407.5 -108.5t-407.5 108.5t-295 295t-108.5 407.5zM152 799q0 -157 61 -299.5t164 -245.5t245.5 -164t299.5 -61t299.5 61t245.5 164t164 245.5t61 299.5
t-61 299.5t-164 245.5t-245.5 164t-299.5 61t-299.5 -61t-245.5 -164t-164 -245.5t-61 -299.5zM670 727v-410h-41v963h329q53 0 98.5 -12.5t87.5 -40.5t66.5 -81.5t24.5 -127.5v-29q0 -74 -24.5 -127.5t-66.5 -81.5t-87.5 -40.5t-98.5 -12.5h-288zM670 768h293
q31 0 60.5 5.5t61.5 20.5t55 39t38.5 65.5t15.5 94.5v21q0 53 -15.5 94.5t-38.5 65.5t-55 39t-61.5 20.5t-60.5 5.5h-293v-471z" />
    <glyph glyph-name="servicemark" unicode="&#x2120;" horiz-adv-x="942" 
d="M668 1085l-162 459l4 -149v-310h-33v553h29l178 -508l178 508h29v-553h-33v310l4 149l-162 -459h-32zM201 1358q-160 21 -160 137v8q0 66 46.5 105t121.5 39q89 0 130.5 -44t41.5 -139v-10h-33q0 91 -29.5 125.5t-105.5 34.5h-8q-58 0 -94.5 -28.5t-36.5 -78.5v-8
q0 -49 31.5 -76t113.5 -39q88 -13 127 -49t39 -98v-8q0 -69 -50.5 -110.5t-129.5 -41.5q-83 0 -125.5 47t-42.5 131v7h33q0 -152 131 -152h8q68 0 105.5 31t37.5 86v6q0 56 -36.5 85t-114.5 40z" />
    <glyph glyph-name="trademark" unicode="&#x2122;" horiz-adv-x="942" 
d="M668 1085l-162 459l4 -149v-310h-33v553h29l178 -508l178 508h29v-553h-33v310l4 149l-162 -459h-32zM236 1606v-521h-33v521h-162v32h356v-32h-161z" />
    <glyph glyph-name="uni2153" unicode="&#x2153;" horiz-adv-x="1638" 
d="M1325 29h10q86 0 144.5 43.5t58.5 126.5v16q0 84 -53 128t-137 44h-119v39h114q83 0 137 40.5t54 119.5v8q0 80 -54 128t-145 48h-10q-102 0 -150.5 -56.5t-48.5 -181.5h-41v25q0 252 246 252q113 0 179.5 -56t66.5 -155v-14q0 -140 -145 -178q70 -18 109.5 -66
t39.5 -123v-16q0 -98 -72 -154.5t-178 -56.5q-127 0 -189.5 67.5t-62.5 188.5v10h41q0 -115 53 -171t152 -56zM254 0h-49l1179 1597h50zM557 799h-481v41h221v700l-209 -143l-22 35l251 170h21v-762h219v-41z" />
    <glyph glyph-name="uni2154" unicode="&#x2154;" horiz-adv-x="1638" 
d="M1325 29h10q86 0 144.5 43.5t58.5 126.5v16q0 84 -53 128t-137 44h-119v39h114q83 0 137 40.5t54 119.5v8q0 80 -54 128t-145 48h-10q-102 0 -150.5 -56.5t-48.5 -181.5h-41v25q0 252 246 252q113 0 179.5 -56t66.5 -155v-14q0 -140 -145 -178q70 -18 109.5 -66
t39.5 -123v-16q0 -98 -72 -154.5t-178 -56.5q-127 0 -189.5 67.5t-62.5 188.5v10h41q0 -115 53 -171t152 -56zM209 840h334v-41h-482v24l359 377q52 55 71 94.5t19 87.5v11q0 79 -55 127.5t-146 48.5h-6q-103 0 -152 -57t-49 -181h-41v25q0 252 246 252q113 0 179.5 -56
t66.5 -155v-11q0 -60 -19 -102.5t-75 -101.5l-328 -344zM254 0h-49l1179 1597h50z" />
    <glyph glyph-name="uni2155" unicode="&#x2155;" horiz-adv-x="1638" 
d="M1120 338l-35 8l21 453h465v-41h-426l-15 -342q67 86 201 86q107 0 178.5 -65.5t71.5 -186.5v-10q0 -119 -71.5 -184.5t-178.5 -65.5q-127 0 -189.5 67.5t-62.5 188.5v10h41q0 -115 53 -171t152 -56h10q86 0 144.5 52t58.5 155v20q0 101 -58.5 154t-144.5 53h-10
q-67 0 -124 -32.5t-81 -92.5zM254 0h-49l1179 1597h50zM557 799h-481v41h221v700l-209 -143l-22 35l251 170h21v-762h219v-41z" />
    <glyph glyph-name="uni2156" unicode="&#x2156;" horiz-adv-x="1638" 
d="M1120 338l-35 8l21 453h465v-41h-426l-15 -342q67 86 201 86q107 0 178.5 -65.5t71.5 -186.5v-10q0 -119 -71.5 -184.5t-178.5 -65.5q-127 0 -189.5 67.5t-62.5 188.5v10h41q0 -115 53 -171t152 -56h10q86 0 144.5 52t58.5 155v20q0 101 -58.5 154t-144.5 53h-10
q-67 0 -124 -32.5t-81 -92.5zM209 840h334v-41h-482v24l359 377q52 55 71 94.5t19 87.5v11q0 79 -55 127.5t-146 48.5h-6q-103 0 -152 -57t-49 -181h-41v25q0 252 246 252q113 0 179.5 -56t66.5 -155v-11q0 -60 -19 -102.5t-75 -101.5l-328 -344zM254 0h-49l1179 1597h50z
" />
    <glyph glyph-name="uni2157" unicode="&#x2157;" horiz-adv-x="1638" 
d="M1571 799v-41h-426l-15 -342q67 86 201 86q107 0 178.5 -65.5t71.5 -186.5v-10q0 -119 -71.5 -184.5t-178.5 -65.5q-127 0 -189.5 67.5t-62.5 188.5v10h41q0 -115 53 -171t152 -56h10q86 0 144.5 52t58.5 155v20q0 101 -58.5 154t-144.5 53h-10q-67 0 -124 -32.5
t-81 -92.5l-35 8l21 453h465zM301 827h10q86 0 144.5 43.5t58.5 126.5v17q0 84 -53 128t-137 44h-119v39h114q84 0 137.5 40t53.5 119v9q0 80 -54 128t-145 48h-10q-102 0 -150.5 -56.5t-48.5 -181.5h-41v25q0 252 246 252q113 0 179.5 -56t66.5 -155v-15q0 -140 -145 -178
q70 -18 109.5 -66t39.5 -122v-17q0 -98 -72 -154.5t-178 -56.5q-127 0 -189.5 67.5t-62.5 188.5v11h41q0 -115 53 -171.5t152 -56.5zM254 0h-49l1179 1597h50z" />
    <glyph glyph-name="uni2158" unicode="&#x2158;" horiz-adv-x="1638" 
d="M430 799h-41v225h-354v25l354 548h41v-532h148v-41h-148v-225zM1120 338l-35 8l21 453h465v-41h-426l-15 -342q67 86 201 86q107 0 178.5 -65.5t71.5 -186.5v-10q0 -119 -71.5 -184.5t-178.5 -65.5q-127 0 -189.5 67.5t-62.5 188.5v10h41q0 -115 53 -171t152 -56h10
q86 0 144.5 52t58.5 155v20q0 101 -58.5 154t-144.5 53h-10q-67 0 -124 -32.5t-81 -92.5zM254 0h-49l1179 1597h50zM389 1524l-295 -461l101 2h194v459z" />
    <glyph glyph-name="uni2159" unicode="&#x2159;" horiz-adv-x="1638" 
d="M1550 809v-41q-85 0 -171.5 -38t-145.5 -116q-71 -91 -94 -208q76 96 202 96q110 0 178 -64t68 -188v-10q0 -124 -69 -187t-183 -63q-108 0 -179 72.5t-71 203.5v10q0 214 113 365q62 83 159.5 125.5t192.5 42.5zM1337 461q-70 0 -125 -35t-84 -94q-2 -18 -2 -56v-10
q0 -107 59 -171t148 -64h6q96 0 150.5 54t54.5 153v16q0 97 -54 152t-147 55h-6zM254 0h-49l1179 1597h50zM557 799h-481v41h221v700l-209 -143l-22 35l251 170h21v-762h219v-41z" />
    <glyph glyph-name="uni215A" unicode="&#x215a;" horiz-adv-x="1638" 
d="M1550 809v-41q-85 0 -171.5 -38t-145.5 -116q-71 -91 -94 -208q76 96 202 96q110 0 178 -64t68 -188v-10q0 -124 -69 -187t-183 -63q-108 0 -179 72.5t-71 203.5v10q0 214 113 365q62 83 159.5 125.5t192.5 42.5zM1337 461q-70 0 -125 -35t-84 -94q-2 -18 -2 -56v-10
q0 -107 59 -171t148 -64h6q96 0 150.5 54t54.5 153v16q0 97 -54 152t-147 55h-6zM96 1137l-35 8l21 452h465v-41h-426l-15 -342q67 86 201 86q107 0 178.5 -65.5t71.5 -185.5v-11q0 -119 -71.5 -184.5t-178.5 -65.5q-127 0 -189.5 67.5t-62.5 188.5v11h41q0 -115 53 -171.5
t152 -56.5h10q86 0 144.5 52t58.5 155v21q0 101 -58.5 154t-144.5 53h-10q-67 0 -124 -32.5t-81 -92.5zM254 0h-49l1179 1597h50z" />
    <glyph glyph-name="uni215B" unicode="&#x215b;" horiz-adv-x="1638" 
d="M1331 -10q-108 0 -180 55t-72 154v14q0 76 40 125t110 68q-144 42 -144 182v14q0 99 65.5 153t180.5 54q114 0 180 -54t66 -153v-14q0 -141 -145 -182q70 -19 109.5 -68t39.5 -125v-14q0 -99 -71.5 -154t-178.5 -55zM1313 387q-82 0 -136.5 -46t-54.5 -130v-14
q0 -83 59 -125.5t144 -42.5h10q86 0 144.5 42.5t58.5 125.5v14q0 84 -53.5 130t-136.5 46h-35zM1335 770h-10q-90 0 -143.5 -46.5t-53.5 -127.5v-6q0 -81 53.5 -122.5t137.5 -41.5h24q83 0 137 41.5t54 122.5v6q0 81 -54 127.5t-145 46.5zM254 0h-49l1179 1597h50zM557 799
h-481v41h221v700l-209 -143l-22 35l251 170h21v-762h219v-41z" />
    <glyph glyph-name="uni215C" unicode="&#x215c;" horiz-adv-x="1638" 
d="M1331 -10q-108 0 -180 55t-72 154v14q0 76 40 125t110 68q-144 42 -144 182v14q0 99 65.5 153t180.5 54q114 0 180 -54t66 -153v-14q0 -141 -145 -182q70 -19 109.5 -68t39.5 -125v-14q0 -99 -71.5 -154t-178.5 -55zM1313 387q-82 0 -136.5 -46t-54.5 -130v-14
q0 -83 59 -125.5t144 -42.5h10q86 0 144.5 42.5t58.5 125.5v14q0 84 -53.5 130t-136.5 46h-35zM1335 770h-10q-90 0 -143.5 -46.5t-53.5 -127.5v-6q0 -81 53.5 -122.5t137.5 -41.5h24q83 0 137 41.5t54 122.5v6q0 81 -54 127.5t-145 46.5zM301 827h10q86 0 144.5 43.5
t58.5 126.5v17q0 84 -53 128t-137 44h-119v39h114q84 0 137.5 40t53.5 119v9q0 80 -54 128t-145 48h-10q-102 0 -150.5 -56.5t-48.5 -181.5h-41v25q0 252 246 252q113 0 179.5 -56t66.5 -155v-15q0 -140 -145 -178q70 -18 109.5 -66t39.5 -122v-17q0 -98 -72 -154.5
t-178 -56.5q-127 0 -189.5 67.5t-62.5 188.5v11h41q0 -115 53 -171.5t152 -56.5zM254 0h-49l1179 1597h50z" />
    <glyph glyph-name="uni215D" unicode="&#x215d;" horiz-adv-x="1638" 
d="M1331 -10q-108 0 -180 55t-72 154v14q0 76 40 125t110 68q-144 42 -144 182v14q0 99 65.5 153t180.5 54q114 0 180 -54t66 -153v-14q0 -141 -145 -182q70 -19 109.5 -68t39.5 -125v-14q0 -99 -71.5 -154t-178.5 -55zM1313 387q-82 0 -136.5 -46t-54.5 -130v-14
q0 -83 59 -125.5t144 -42.5h10q86 0 144.5 42.5t58.5 125.5v14q0 84 -53.5 130t-136.5 46h-35zM1335 770h-10q-90 0 -143.5 -46.5t-53.5 -127.5v-6q0 -81 53.5 -122.5t137.5 -41.5h24q83 0 137 41.5t54 122.5v6q0 81 -54 127.5t-145 46.5zM96 1137l-35 8l21 452h465v-41
h-426l-15 -342q67 86 201 86q107 0 178.5 -65.5t71.5 -185.5v-11q0 -119 -71.5 -184.5t-178.5 -65.5q-127 0 -189.5 67.5t-62.5 188.5v11h41q0 -115 53 -171.5t152 -56.5h10q86 0 144.5 52t58.5 155v21q0 101 -58.5 154t-144.5 53h-10q-67 0 -124 -32.5t-81 -92.5zM254 0
h-49l1179 1597h50z" />
    <glyph glyph-name="uni215E" unicode="&#x215e;" horiz-adv-x="1638" 
d="M1331 -10q-108 0 -180 55t-72 154v14q0 76 40 125t110 68q-144 42 -144 182v14q0 99 65.5 153t180.5 54q114 0 180 -54t66 -153v-14q0 -141 -145 -182q70 -19 109.5 -68t39.5 -125v-14q0 -99 -71.5 -154t-178.5 -55zM1313 387q-82 0 -136.5 -46t-54.5 -130v-14
q0 -83 59 -125.5t144 -42.5h10q86 0 144.5 42.5t58.5 125.5v14q0 84 -53.5 130t-136.5 46h-35zM1335 770h-10q-90 0 -143.5 -46.5t-53.5 -127.5v-6q0 -81 53.5 -122.5t137.5 -41.5h24q83 0 137 41.5t54 122.5v6q0 81 -54 127.5t-145 46.5zM254 0h-49l1179 1597h50zM66 1311
v286h491v-26l-313 -772h-45l309 757h-402v-245h-40z" />
    <glyph glyph-name="uni215F" unicode="&#x215f;" horiz-adv-x="1024" 
d="M254 0h-49l1179 1597h50zM557 799h-481v41h221v700l-209 -143l-22 35l251 170h21v-762h219v-41z" />
    <glyph glyph-name="arrowleft" unicode="&#x2190;" horiz-adv-x="1884" 
d="M930 1597h59l-778 -778h1530v-41h-1530l778 -778h-59l-799 799z" />
    <glyph glyph-name="arrowup" unicode="&#x2191;" horiz-adv-x="1884" 
d="M1741 811v-59l-778 778v-1530h-41v1530l-779 -778v59l799 799z" />
    <glyph glyph-name="arrowright" unicode="&#x2192;" horiz-adv-x="1884" 
d="M954 0h-59l778 778h-1530v41h1530l-778 778h59l799 -798z" />
    <glyph glyph-name="arrowdown" unicode="&#x2193;" horiz-adv-x="1884" 
d="M143 786v60l779 -778v1529h41v-1529l778 778v-60l-799 -798z" />
    <glyph glyph-name="uni2196" unicode="&#x2196;" horiz-adv-x="1884" 
d="M184 0h-41v1597h1598v-41h-1528l1540 -1540l-29 -28l-1540 1540v-1528z" />
    <glyph glyph-name="uni2197" unicode="&#x2197;" horiz-adv-x="1884" 
d="M143 1556v41h1598v-1597h-41v1528l-1540 -1540l-29 28l1540 1540h-1528z" />
    <glyph glyph-name="uni2198" unicode="&#x2198;" horiz-adv-x="1884" 
d="M143 0v41h1528l-1540 1540l29 29l1540 -1540v1527h41v-1597h-1598z" />
    <glyph glyph-name="uni2199" unicode="&#x2199;" horiz-adv-x="1884" 
d="M1741 41v-41h-1598v1597h41v-1527l1540 1540l29 -29l-1540 -1540h1528z" />
    <glyph glyph-name="minus" unicode="&#x2212;" horiz-adv-x="1228" 
d="M102 778v41h1024v-41h-1024z" />
    <glyph glyph-name="approxequal" unicode="&#x2248;" horiz-adv-x="1228" 
d="M879 930q43 0 81.5 13t69.5 38t43.5 37.5t32.5 34.5l31 -31q-115 -133 -256 -133q-65 0 -124 17.5t-104.5 42t-89.5 49t-99 42t-114 17.5q-43 0 -81.5 -13t-69.5 -38t-43.5 -37.5t-32.5 -34.5l-31 31q115 133 256 133q65 0 124 -17.5t104.5 -42t89.5 -49t99 -42
t114 -17.5zM350 647q-43 0 -81.5 -13t-69.5 -38t-43.5 -37.5t-32.5 -34.5l-31 31q115 133 256 133q65 0 124 -17.5t104.5 -42t89.5 -49t99 -42t114 -17.5q43 0 81.5 13t69.5 38t43.5 37.5t32.5 34.5l31 -31q-115 -133 -256 -133q-65 0 -124 17.5t-104.5 42t-89.5 49t-99 42
t-114 17.5z" />
    <glyph glyph-name="notequal" unicode="&#x2260;" horiz-adv-x="1228" 
d="M887 1311h47l-166 -287h358v-41h-383l-213 -369h596v-41h-618l-166 -286h-47l166 286h-359v41h381l213 369h-594v41h619z" />
    <glyph glyph-name="equivalence" unicode="&#x2261;" horiz-adv-x="1228" 
d="M102 369v41h1024v-41h-1024zM102 778v41h1024v-41h-1024zM102 1188v41h1024v-41h-1024z" />
    <glyph glyph-name="lessequal" unicode="&#x2264;" horiz-adv-x="1228" 
d="M154 915l972 -362v-45l-1024 387v41l1024 387v-45zM1126 319v-45l-1024 388v45z" />
    <glyph glyph-name="greaterequal" unicode="&#x2265;" horiz-adv-x="1228" 
d="M102 553l973 362l-973 363v45l1024 -387v-41l-1024 -387v45zM102 274v45l1024 388v-45z" />
    <glyph glyph-name="squaremultiply" unicode="&#x22a0;" horiz-adv-x="1884" 
d="M1741 0h-1598v1597h1598v-1597zM1700 1556h-1516v-1515h1516v1515zM420 1290l31 31l491 -492l492 492l30 -31l-491 -491l491 -492l-30 -31l-492 492l-491 -492l-31 31l491 492z" />
    <glyph glyph-name="house" unicode="&#x2302;" horiz-adv-x="1740" 
d="M1597 0h-1454v922l727 696l727 -696v-922z" />
    <glyph glyph-name="blacksquare" unicode="&#x25a0;" horiz-adv-x="1884" 
d="M1741 0h-1598v1597h1598v-1597z" />
    <glyph glyph-name="blacksquare" unicode="&#xe740;" horiz-adv-x="1884" 
d="M1741 0h-1598v1597h1598v-1597z" />
    <glyph glyph-name="whitesquare" unicode="&#x25a1;" horiz-adv-x="1884" 
d="M1741 0h-1598v1597h1598v-1597zM1700 1556h-1516v-1515h1516v1515z" />
    <glyph glyph-name="blacksmallsquare" unicode="&#x25aa;" horiz-adv-x="1392" 
d="M1229 0h-1086v1085h1086v-1085z" />
    <glyph glyph-name="whitesmallsquare" unicode="&#x25ab;" horiz-adv-x="1392" 
d="M1229 0h-1086v1085h1086v-1085zM1188 1044h-1004v-1003h1004v1003z" />
    <glyph glyph-name="triagup" unicode="&#x25b2;" horiz-adv-x="1904" 
d="M973 1610l790 -1610h-45l-766 1563l-766 -1563h-45l791 1610h41z" />
    <glyph glyph-name="triagrt" unicode="&#x25ba;" horiz-adv-x="1904" 
d="M1774 819v-41l-1610 -790v45l1562 766l-1562 766v45z" />
    <glyph glyph-name="triagdn" unicode="&#x25bc;" horiz-adv-x="1904" 
d="M932 -12l-791 1609h45l766 -1562l766 1562h45l-790 -1609h-41z" />
    <glyph glyph-name="triaglf" unicode="&#x25c4;" horiz-adv-x="1904" 
d="M131 819l1610 791v-45l-1563 -766l1563 -766v-45l-1610 790v41z" />
    <glyph glyph-name="whitecircle" unicode="&#x25cb;" horiz-adv-x="1884" 
d="M131 799q0 221 108.5 407.5t295 295t407.5 108.5t407.5 -108.5t295 -295t108.5 -407.5t-108.5 -407.5t-295 -295t-407.5 -108.5t-407.5 108.5t-295 295t-108.5 407.5zM172 799q0 -157 61 -299.5t164 -245.5t245.5 -164t299.5 -61t299.5 61t245.5 164t164 245.5t61 299.5
t-61 299.5t-164 245.5t-245.5 164t-299.5 61t-299.5 -61t-245.5 -164t-164 -245.5t-61 -299.5z" />
    <glyph glyph-name="whitecircle" unicode="&#x25ef;" horiz-adv-x="1884" 
d="M131 799q0 221 108.5 407.5t295 295t407.5 108.5t407.5 -108.5t295 -295t108.5 -407.5t-108.5 -407.5t-295 -295t-407.5 -108.5t-407.5 108.5t-295 295t-108.5 407.5zM172 799q0 -157 61 -299.5t164 -245.5t245.5 -164t299.5 -61t299.5 61t245.5 164t164 245.5t61 299.5
t-61 299.5t-164 245.5t-245.5 164t-299.5 61t-299.5 -61t-245.5 -164t-164 -245.5t-61 -299.5z" />
    <glyph glyph-name="blackcircle" unicode="&#x25cf;" horiz-adv-x="1884" 
d="M131 799q0 221 108.5 407.5t295 295t407.5 108.5t407.5 -108.5t295 -295t108.5 -407.5t-108.5 -407.5t-295 -295t-407.5 -108.5t-407.5 108.5t-295 295t-108.5 407.5z" />
    <glyph glyph-name="uni25E2" unicode="&#x25e2;" horiz-adv-x="1904" 
d="M1755 14l-29 -28l-1701 583l30 31l1655 -569l-569 1655l30 30z" />
    <glyph glyph-name="uni25E3" unicode="&#x25e3;" horiz-adv-x="1904" 
d="M178 -14l-28 28l583 1702l31 -30l-569 -1655l1654 569l31 -31z" />
    <glyph glyph-name="uni25E4" unicode="&#x25e4;" horiz-adv-x="1904" 
d="M150 1583l28 29l1702 -584l-31 -31l-1654 570l569 -1655l-31 -31z" />
    <glyph glyph-name="uni25E5" unicode="&#x25e5;" horiz-adv-x="1904" 
d="M1755 1583l-584 -1702l-30 31l569 1655l-1655 -570l-30 31l1701 584z" />
    <glyph glyph-name="uni2605" unicode="&#x2605;" horiz-adv-x="1802" 
d="M901 369l-532 -389l202 628l-532 387h659l203 627l203 -627h659l-532 -387l203 -628z" />
    <glyph glyph-name="ballotboxwithx" unicode="&#x2612;" horiz-adv-x="1392" 
d="M1229 0h-1086v1085h1086v-1085zM1188 1044h-1004v-1003h1004v1003zM369 829l30 31l287 -287l287 287l31 -31l-287 -286l287 -287l-31 -31l-287 287l-287 -287l-30 31l286 287z" />
    <glyph glyph-name="uni263C" unicode="&#x263c;" horiz-adv-x="1966" 
d="M1067 391l-86 -414l-86 414q0 -80 -59 -135q-17 -16 -61 -45.5t-61.5 -53.5t-17.5 -61q0 -19 6 -37t12 -26l7 -8q-45 13 -69.5 48t-24.5 79q0 61 43 104q41 41 62.5 97t21.5 98l-353 -232l232 352q-53 -53 -135 -53q-19 0 -64.5 8.5t-62.5 8.5q-31 0 -55 -10t-36 -24.5
t-19.5 -29.5t-8.5 -25l-2 -10q-17 31 -17 58q0 59 42.5 100t103.5 41q42 0 89.5 17.5t74.5 35t32 25.5l-413 86l413 86q-80 0 -135 59q-16 18 -37.5 48.5t-34 47t-35.5 30t-52 13.5q-19 0 -37 -6t-26 -12l-9 -6q13 45 48 69.5t79 24.5q61 0 104 -43q41 -41 97 -62.5
t98 -21.5l-232 352l353 -231q-54 54 -54 135q0 19 8.5 64.5t8.5 62.5q0 31 -10 55t-24.5 36t-29 19.5t-24.5 8.5l-10 2q29 16 57 16q59 0 100 -42t41 -103q0 -42 17.5 -89.5t35 -75t25.5 -32.5l86 414l86 -414q0 80 59 135q17 16 61 45.5t61.5 53.5t17.5 61q0 19 -6 37
t-12 26l-7 9q45 -13 69.5 -48t24.5 -79q0 -62 -43 -105q-41 -41 -62.5 -96.5t-21.5 -97.5l353 231l-232 -352q53 53 135 53q19 0 64.5 -8t62.5 -8q31 0 55 10t36 24.5t19.5 29t8.5 24.5l2 10q17 -31 17 -57q0 -59 -42.5 -100t-103.5 -41q-42 0 -89.5 -17.5t-74.5 -35
t-32 -25.5l413 -86l-413 -86q79 0 135 -60q16 -18 37.5 -48.5t34 -47t35.5 -30t52 -13.5q19 0 37 6t26 12l9 7q-13 -45 -48.5 -70t-78.5 -25q-61 0 -104 43q-41 41 -97 62.5t-98 21.5l232 -352l-353 232q54 -54 54 -136q0 -19 -8.5 -64.5t-8.5 -62.5q0 -31 10 -55
t24.5 -35.5t29 -19t24.5 -8.5l10 -2q-31 -17 -57 -17q-59 0 -100 42.5t-41 103.5q0 42 -17.5 89.5t-35 74.5t-25.5 32z" />
    <glyph glyph-name="uni263E" unicode="&#x263e;" horiz-adv-x="1966" 
d="M1278 1491q-181 0 -333.5 -92.5t-241.5 -252t-89 -347.5q0 -141 52.5 -269.5t141.5 -221t212 -147.5t258 -55q99 0 197 31q-218 -157 -492 -157q-167 0 -318.5 65t-261 174.5t-174.5 261t-65 318.5t65 318.5t174.5 261t261 174.5t318.5 65q268 0 492 -158
q-109 31 -197 31z" />
    <glyph glyph-name="spade" unicode="&#x2660;" horiz-adv-x="1843" 
d="M924 1618q66 -99 199 -238t278 -233q60 -39 104 -73t90.5 -79t75.5 -90t47.5 -102t18.5 -119q0 -150 -105 -253t-256 -103q-142 0 -246 93.5t-163 235.5l-6 -2q17 -210 54 -356.5t113 -298.5h-413q76 152 113.5 299t54.5 356l-6 2q-27 -67 -65.5 -124t-89 -104
t-116.5 -74t-139 -27q-151 0 -256 103t-105 253q0 62 18.5 119t47.5 102t75.5 90t90.5 79t104 73q146 95 279 233.5t199 237.5h4z" />
    <glyph glyph-name="club" unicode="&#x2663;" horiz-adv-x="1843" 
d="M715 0q76 152 113.5 299t54.5 356l-6 2q-27 -67 -65.5 -124t-89 -104t-116.5 -74t-139 -27q-151 0 -256 103t-105 253q0 161 99 265t258 104q84 0 172 -47l4 4q-78 118 -78 239q0 154 103.5 261.5t257.5 107.5t257 -107.5t103 -261.5q0 -121 -78 -239l4 -4q88 47 172 47
q159 0 258 -104t99 -265q0 -150 -105 -253t-256 -103q-142 0 -246 93.5t-163 235.5l-6 -2q17 -210 54 -356.5t113 -298.5h-413z" />
    <glyph glyph-name="heart" unicode="&#x2665;" horiz-adv-x="1843" 
d="M924 -20h-4q-59 88 -193.5 259t-284.5 341q-64 73 -114 136.5t-105 148.5t-86 170t-31 161q0 185 107 303.5t285 118.5q92 0 163.5 -25.5t120.5 -73t80.5 -100.5t55.5 -123h8q24 70 55.5 123t80.5 100.5t120.5 73t163.5 25.5q178 0 284.5 -118.5t106.5 -303.5
q0 -76 -31 -161t-86 -170t-105 -148.5t-114 -136.5q-149 -169 -283.5 -340t-193.5 -260z" />
    <glyph glyph-name="diamond" unicode="&#x2666;" horiz-adv-x="1843" 
d="M1673 799q-218 -170 -415 -386t-334 -433h-4q-137 217 -334.5 433t-415.5 386q218 170 415.5 386t334.5 433h4q137 -217 334 -433t415 -386z" />
    <glyph glyph-name="uni267B" unicode="&#x267b;" horiz-adv-x="1966" 
d="M1767 545l2 -4l-196 -342q-41 -60 -60 -77q-44 -38 -120 -38h-117v-100l-232 278l232 277v-101h297q34 0 66.5 11t54.5 27t39.5 31.5t25.5 26.5zM381 250h-4l-197 344q-23 42 -31.5 65.5t-5.5 63t29 82.5l57 100l-86 49l357 64l121 -340l-84 49q-144 -246 -148 -256
q-27 -46 -29 -101.5t10 -87.5zM827 1595v2h396q37 -1 56 -3t46 -11t47 -29t39 -53l57 -100l88 49l-124 -340l-355 64l84 49l-147 256q-27 47 -74 76t-80 35zM410 1225l137 243q21 38 69 64q63 34 131.5 30.5t126.5 -33t80 -69.5l-237 -411zM913 84h-276q-43 0 -90 27
q-45 26 -76 70.5t-42.5 91.5t-9.5 91.5t19 73.5h475v-354zM1651 1079l141 -239q20 -36 20 -90q1 -99 -78 -178.5t-151 -79.5l-237 411z" />
    <glyph glyph-name="uni267C" unicode="&#x267c;" horiz-adv-x="1966" 
d="M598 1321l-106 -188l237 -138l184 320q-17 30 -62 52.5t-98 25.5t-102 -23q-37 -21 -53 -49zM807 1421v-2q4 0 11 -1.5t26.5 -7.5t36.5 -14.5t37.5 -26.5t33.5 -40l115 -199l-66 -38l275 -50l96 265l-67 -39l-45 78q-28 49 -60 62t-86 13h-307zM659 248h215v274h-368
q-13 -22 -15 -57t7.5 -71.5t33.5 -71t58 -54.5q36 -20 69 -20zM467 377h2q-5 10 -10.5 27.5t-5 63t21.5 81.5l115 199l65 -39l-94 264l-276 -49l67 -39l-45 -78q-20 -34 -22.5 -65t4 -48.5t24.5 -50.5zM1563 834l-109 186l-237 -137l184 -320q57 0 118 61.5t60 139.5
q0 42 -16 70zM1546 602l-2 2q-2 -3 -6.5 -8.5t-19.5 -20t-31.5 -25t-42 -19.5t-51.5 -9h-230v78l-180 -215l180 -215v78h90q57 0 85 21.5t55 66.5zM131 799q0 221 108.5 407.5t295 295t407.5 108.5t407.5 -108.5t295 -295t108.5 -407.5t-108.5 -407.5t-295 -295
t-407.5 -108.5t-407.5 108.5t-295 295t-108.5 407.5z" />
    <glyph glyph-name="uni267D" unicode="&#x267d;" horiz-adv-x="1966" 
d="M492 1133l106 188q16 28 53 49q49 26 102 23t98 -25.5t62 -52.5l-184 -320zM807 1419v2h307q54 0 86 -13t60 -62l45 -78l67 39l-96 -265l-275 50l66 38l-115 199q-21 36 -57 58.5t-62 26.5zM874 248h-215q-33 0 -69 20q-34 20 -58 54.5t-33.5 71t-7.5 71.5t15 57h368
v-274zM469 377h-2l-154 266q-18 33 -24.5 50.5t-4 48.5t22.5 65l45 78l-67 39l276 49l94 -264l-65 39l-115 -199q-21 -36 -22.5 -79t7.5 -68zM1454 1020l109 -186q16 -28 16 -70q1 -78 -60 -139.5t-118 -61.5l-184 320zM1544 604l2 -2l-153 -266q-18 -30 -31 -46t-41 -29
t-68 -13h-90v-78l-180 215l180 215v-78h230q42 0 79.5 20.5t54.5 41.5zM131 799q0 221 108.5 407.5t295 295t407.5 108.5t407.5 -108.5t295 -295t108.5 -407.5t-108.5 -407.5t-295 -295t-407.5 -108.5t-407.5 108.5t-295 295t-108.5 407.5zM172 799q0 -157 61 -299.5
t164 -245.5t245.5 -164t299.5 -61t299.5 61t245.5 164t164 245.5t61 299.5t-61 299.5t-164 245.5t-245.5 164t-299.5 61t-299.5 -61t-245.5 -164t-164 -245.5t-61 -299.5z" />
    <glyph glyph-name="mediumwhitecircle" unicode="&#x26aa;" horiz-adv-x="1372" 
d="M131 543q0 113 44 216t118 177t177 118t216 44t216 -44t177 -118t118 -177t44 -216t-44 -216t-118 -177t-177 -118t-216 -44t-216 44t-177 118t-118 177t-44 216zM172 543q0 -140 68.5 -258.5t187 -187t258.5 -68.5t258.5 68.5t187 187t68.5 258.5t-68.5 258.5t-187 187
t-258.5 68.5t-258.5 -68.5t-187 -187t-68.5 -258.5z" />
    <glyph glyph-name="mediumblackcircle" unicode="&#x26ab;" horiz-adv-x="1372" 
d="M131 543q0 113 44 216t118 177t177 118t216 44t216 -44t177 -118t118 -177t44 -216t-44 -216t-118 -177t-177 -118t-216 -44t-216 44t-177 118t-118 177t-44 216z" />
    <glyph glyph-name="anglebracketleft" unicode="&#x3008;" 
d="M508 1720l-332 -983l332 -983h-43l-332 983l332 983h43z" />
    <glyph glyph-name="anglebracketright" unicode="&#x3009;" 
d="M106 -246l332 983l-332 983h44l331 -983l-331 -983h-44z" />
    <glyph glyph-name="fi" unicode="&#xe38c;" horiz-adv-x="1064" 
d="M276 1362v-277h338v-41h-338v-1044h-40v1044h-175v41h175v289q0 80 21 136t60 86t84 42.5t103 12.5q78 0 131 -21v-41q-14 7 -51 14t-72 7q-116 0 -176 -53t-60 -195zM860 0v1085h41v-1085h-41zM922 1475v-82h-82v82h82z" />
    <glyph glyph-name="fi" unicode="&#xfb01;" horiz-adv-x="1064" 
d="M276 1362v-277h338v-41h-338v-1044h-40v1044h-175v41h175v289q0 80 21 136t60 86t84 42.5t103 12.5q78 0 131 -21v-41q-14 7 -51 14t-72 7q-116 0 -176 -53t-60 -195zM860 0v1085h41v-1085h-41zM922 1475v-82h-82v82h82z" />
    <glyph glyph-name="fl" unicode="&#xe38d;" horiz-adv-x="1064" 
d="M276 1362v-277h338v-41h-338v-1044h-40v1044h-175v41h175v289q0 80 21 136t60 86t84 42.5t103 12.5q78 0 131 -21v-41q-14 7 -51 14t-72 7q-116 0 -176 -53t-60 -195zM860 0v1638h41v-1638h-41z" />
    <glyph glyph-name="fl" unicode="&#xfb02;" horiz-adv-x="1064" 
d="M276 1362v-277h338v-41h-338v-1044h-40v1044h-175v41h175v289q0 80 21 136t60 86t84 42.5t103 12.5q78 0 131 -21v-41q-14 7 -51 14t-72 7q-116 0 -176 -53t-60 -195zM860 0v1638h41v-1638h-41z" />
    <glyph glyph-name="invertedbreve" unicode="&#xe411;" horiz-adv-x="1024" 
d="M512 1610q147 0 227 -97t80 -243h-37q0 85 -28 151.5t-90 109t-152 42.5t-152 -42.5t-90 -109t-28 -151.5h-37q0 146 80 243t227 97z" />
    <glyph glyph-name="doublegrave" unicode="&#xe412;" horiz-adv-x="1024" 
d="M203 1597h45l184 -327h-45zM408 1597h45l184 -327h-45z" />
    <glyph glyph-name="caronSlovak" unicode="&#xe413;" horiz-adv-x="1024" 
d="M696 1638h43l-22 -368h-21v368z" />
    <glyph glyph-name="commaaccent" unicode="&#xe414;" horiz-adv-x="1232" 
d="M553 -143v-66q0 -115 -37 -164t-117 -49v37q60 0 86 32t27 128h-41v82h82z" />
    <glyph glyph-name="commaaccent" unicode="&#xf6c3;" horiz-adv-x="1232" 
d="M553 -143v-66q0 -115 -37 -164t-117 -49v37q60 0 86 32t27 128h-41v82h82z" />
    <glyph glyph-name="dotbelow" unicode="&#xe415;" horiz-adv-x="1232" 
d="M471 -307v82h82v-82h-82z" />
    <glyph glyph-name="altcedilla" unicode="&#xe416;" horiz-adv-x="1232" 
d="M350 -385l12 33q25 -14 69 -23.5t81 -9.5q27 0 46 2t40 8.5t34 18t21.5 32t8.5 48.5q0 66 -39 87t-111 21q-61 0 -119 -20v34q71 23 119 23q186 0 186 -145q0 -146 -186 -146q-90 0 -162 37z" />
    <glyph glyph-name="grave.cap" unicode="&#xe421;" horiz-adv-x="1024" 
d="M362 1946h46l127 -226h-46z" />
    <glyph glyph-name="acute.cap" unicode="&#xe422;" horiz-adv-x="1024" 
d="M616 1946h46l-127 -226h-46z" />
    <glyph glyph-name="circumflex.cap" unicode="&#xe423;" horiz-adv-x="1024" 
d="M336 1720h-49l205 226h40l205 -226h-49l-176 195z" />
    <glyph glyph-name="tilde.cap" unicode="&#xe424;" horiz-adv-x="1024" 
d="M752 1898h36q0 -77 -34.5 -110t-87.5 -33q-47 0 -102 30t-107 59.5t-92 29.5q-42 0 -67.5 -22t-25.5 -85h-36q0 77 35 110.5t87 33.5q47 0 102 -30t107 -59.5t92 -29.5q43 0 68 21.5t25 84.5z" />
    <glyph glyph-name="macron.cap" unicode="&#xe425;" horiz-adv-x="1024" 
d="M307 1812v41h410v-41h-410z" />
    <glyph glyph-name="breve.cap" unicode="&#xe426;" horiz-adv-x="1024" 
d="M512 1745q108 0 168.5 54t60.5 147h37q0 -108 -71.5 -173t-194.5 -65t-194.5 65t-71.5 173h37q0 -93 60.5 -147t168.5 -54z" />
    <glyph glyph-name="invertedbreve.cap" unicode="&#xe427;" horiz-adv-x="1024" 
d="M512 1921q-108 0 -168.5 -54t-60.5 -147h-37q0 108 71.5 173t194.5 65t194.5 -65t71.5 -173h-37q0 93 -60.5 147t-168.5 54z" />
    <glyph glyph-name="dotaccent.cap" unicode="&#xe428;" horiz-adv-x="1024" 
d="M553 1874v-82h-82v82h82z" />
    <glyph glyph-name="dieresis.cap" unicode="&#xe429;" horiz-adv-x="1024" 
d="M410 1874v-82h-82v82h82zM696 1874v-82h-82v82h82z" />
    <glyph glyph-name="ring.cap" unicode="&#xe42a;" horiz-adv-x="1024" 
d="M336 1782q0 72 52 124t124 52t124 -52t52 -124t-52 -124t-124 -52t-124 52t-52 124zM373 1782q0 -59 40.5 -99.5t98.5 -40.5t98.5 40.5t40.5 99.5q0 58 -40.5 98.5t-98.5 40.5t-98.5 -40.5t-40.5 -98.5z" />
    <glyph glyph-name="hungarumlaut.cap" unicode="&#xe42b;" horiz-adv-x="1024" 
d="M719 1946h45l-127 -226h-45zM514 1946h45l-127 -226h-45z" />
    <glyph glyph-name="doublegrave.cap" unicode="&#xe42c;" horiz-adv-x="1024" 
d="M260 1946h45l127 -226h-45zM465 1946h45l127 -226h-45z" />
    <glyph glyph-name="caron.cap" unicode="&#xe42d;" horiz-adv-x="1024" 
d="M688 1946h49l-205 -226h-40l-205 226h49l176 -195z" />
    <glyph glyph-name="commaaccent.cap" unicode="&#xe42e;" horiz-adv-x="1024" 
d="M471 1720v66q0 88 33.5 130t109.5 42v-37q-102 0 -102 -119h41v-82h-82z" />
    <glyph glyph-name="exclamdown.cap" unicode="&#xe441;" horiz-adv-x="368" 
d="M205 0h-41l6 1239h29zM143 1516v81h82v-81h-82z" />
    <glyph glyph-name="questiondown.cap" unicode="&#xe444;" horiz-adv-x="901" 
d="M410 1516v81h82v-81h-82zM436 1239h29q0 -83 -19 -157.5t-49.5 -131t-67.5 -109t-74.5 -101t-68 -96t-50 -105t-19.5 -119.5q0 -60 9.5 -114t33.5 -105.5t60.5 -89t94 -60t129.5 -22.5q181 0 265 138t84 406h41v-14q0 -273 -96.5 -422t-293.5 -149q-98 0 -171.5 37
t-115 99t-61.5 133t-20 149q0 70 19.5 133t50.5 113t68.5 99t75.5 100t70 106t53 127.5t23 154.5z" />
    <glyph glyph-name="guilsinglleft.cap" unicode="&#xe451;" 
d="M512 1139v-52l-373 -288l373 -289v-51l-410 319v41z" />
    <glyph glyph-name="guilsinglright.cap" unicode="&#xe452;" 
d="M102 1087v52l410 -320v-41l-410 -319v51l373 289z" />
    <glyph glyph-name="guillemotleft.cap" unicode="&#xe453;" horiz-adv-x="1024" 
d="M512 1139v-52l-373 -288l373 -289v-51l-410 319v41zM922 1139v-52l-373 -288l373 -289v-51l-410 319v41z" />
    <glyph glyph-name="guillemotright.cap" unicode="&#xe454;" horiz-adv-x="1024" 
d="M512 1087v52l410 -320v-41l-410 -319v51l373 289zM102 1087v52l410 -320v-41l-410 -319v51l373 289z" />
    <glyph glyph-name="slash.cap" unicode="&#xe461;" 
d="M131 0h-41l393 1597h41z" />
    <glyph glyph-name="backslash.cap" unicode="&#xe462;" 
d="M90 1597h41l393 -1597h-41z" />
    <glyph glyph-name="bar.cap" unicode="&#xe463;" horiz-adv-x="368" 
d="M164 0v1597h41v-1597h-41z" />
    <glyph glyph-name="doublebar.cap" unicode="&#xe464;" horiz-adv-x="573" 
d="M164 0v1597h41v-1597h-41zM369 0v1597h41v-1597h-41z" />
    <glyph glyph-name="brokenbar.cap" unicode="&#xe465;" horiz-adv-x="368" 
d="M164 881v716h41v-716h-41zM164 0v717h41v-717h-41z" />
    <glyph glyph-name="bullet.cap" unicode="&#xe466;" horiz-adv-x="778" 
d="M635 1044v-491h-492v491h492z" />
    <glyph glyph-name="onethirdemdash" unicode="&#xe471;" horiz-adv-x="681" 
d="M102 676v41h478v-41h-478z" />
    <glyph glyph-name="threequarteremdash" unicode="&#xe472;" horiz-adv-x="1536" 
d="M102 676v41h1332v-41h-1332z" />
    <glyph glyph-name="periodcentered.cap" unicode="&#xe481;" horiz-adv-x="368" 
d="M225 840v-82h-82v82h82z" />
    <glyph glyph-name="hyphen.cap" unicode="&#xe482;" horiz-adv-x="655" 
d="M102 778v41h451v-41h-451z" />
    <glyph glyph-name="onethirdemdash.cap" unicode="&#xe483;" horiz-adv-x="681" 
d="M102 778v41h478v-41h-478z" />
    <glyph glyph-name="endash.cap" unicode="&#xe484;" horiz-adv-x="1024" 
d="M102 778v41h820v-41h-820z" />
    <glyph glyph-name="threequarteremdash.cap" unicode="&#xe485;" horiz-adv-x="1536" 
d="M102 778v41h1332v-41h-1332z" />
    <glyph glyph-name="emdash.cap" unicode="&#xe486;" horiz-adv-x="2048" 
d="M102 778v41h1844v-41h-1844z" />
    <glyph glyph-name="figuredash.cap" unicode="&#xe487;" horiz-adv-x="1228" 
d="M102 778v41h1024v-41h-1024z" />
    <glyph glyph-name="uni2015.cap" unicode="&#xe488;" horiz-adv-x="2457" 
d="M102 778v41h2253v-41h-2253z" />
    <glyph glyph-name="parenleft.cap" unicode="&#xe491;" 
d="M154 778v41q0 400 256 778h45q-260 -393 -260 -778v-41q0 -385 260 -778h-45q-256 378 -256 778z" />
    <glyph glyph-name="parenright.cap" unicode="&#xe492;" 
d="M461 819v-41q0 -400 -256 -778h-45q260 393 260 778v41q0 385 -260 778h45q256 -378 256 -778z" />
    <glyph glyph-name="bracketleft.cap" unicode="&#xe493;" 
d="M164 1597h348v-41h-307v-1515h307v-41h-348v1597z" />
    <glyph glyph-name="bracketright.cap" unicode="&#xe494;" 
d="M451 0h-349v41h308v1515h-308v41h349v-1597z" />
    <glyph glyph-name="braceleft.cap" unicode="&#xe495;" 
d="M512 1597v-41q-106 0 -160.5 -48t-54.5 -177v-321q0 -168 -119 -211q119 -43 119 -211v-322q0 -129 54.5 -177t160.5 -48v-41h-8q-113 0 -180.5 57t-67.5 199v330q0 111 -46.5 151.5t-137.5 40.5v41q91 0 137.5 41t46.5 152v329q0 142 67.5 199t180.5 57h8z" />
    <glyph glyph-name="braceright.cap" unicode="&#xe496;" 
d="M102 1556v41h9q113 0 180 -57t67 -199v-329q0 -111 47 -152t138 -41v-41q-91 0 -138 -40.5t-47 -151.5v-330q0 -142 -67 -199t-180 -57h-9v41q106 0 160.5 48t54.5 177v322q0 168 119 211q-119 43 -119 211v321q0 129 -54.5 177t-160.5 48z" />
    <glyph glyph-name="anglebracketleft.cap" unicode="&#xe497;" 
d="M451 1597l-275 -798l275 -799h-43l-275 799l275 798h43z" />
    <glyph glyph-name="anglebracketright.cap" unicode="&#xe498;" 
d="M164 0l274 799l-274 798h43l274 -798l-274 -799h-43z" />
    <glyph glyph-name="lowline" unicode="&#xe511;" horiz-adv-x="655" 
d="M102 0v41h451v-41h-451z" />
    <glyph glyph-name="underscoremonospace" unicode="&#xe512;" horiz-adv-x="1228" 
d="M102 -225v41h1024v-41h-1024z" />
    <glyph glyph-name="underscoremonospace" unicode="&#xff3f;" horiz-adv-x="1228" 
d="M102 -225v41h1024v-41h-1024z" />
    <glyph glyph-name="at.cap" unicode="&#xe513;" horiz-adv-x="1904" 
d="M997 -176h13q198 0 357 45t316 158l25 -33q-159 -119 -331 -165t-373 -46q-202 0 -374.5 69.5t-295.5 195t-192.5 308.5t-69.5 402v82q0 293 117 515t325.5 341t478.5 119q136 0 260.5 -34t230 -102.5t183.5 -165.5t122 -230.5t44 -289.5v-61q0 -104 -13.5 -188.5
t-38.5 -146.5t-62.5 -109t-81.5 -77.5t-101 -49t-116 -26t-130 -7.5h-10l-14 161q-48 -67 -136.5 -120.5t-203.5 -53.5q-197 0 -305.5 130t-108.5 343v41q0 213 108.5 343.5t305.5 130.5q115 0 203.5 -53.5t136.5 -121.5l14 162h31l-11 -246v-471l9 -204q63 0 113.5 6.5
t101.5 23t90 43.5t73.5 70t57 101t35 138.5t12.5 180.5v61q0 152 -42.5 281t-117 220t-175.5 155t-216.5 94.5t-241.5 30.5h-12q-189 0 -350 -64.5t-277 -183t-181.5 -295t-65.5 -391.5v-82q0 -215 67 -391.5t185 -295t280.5 -183t351.5 -64.5zM1260 1071
q-51 78 -134.5 134.5t-197.5 56.5q-178 0 -276.5 -118.5t-98.5 -314.5v-41q0 -196 98.5 -314t276.5 -118q114 0 197.5 56.5t134.5 134.5v524z" />
    <glyph glyph-name="zero.inf" unicode="&#xe571;" 
d="M545 -180q0 -110 -57 -175t-181 -65t-180.5 65t-56.5 175v338q0 112 56.5 176.5t180.5 64.5t181 -64.5t57 -176.5v-338zM502 147q0 103 -44.5 158t-148.5 55h-6q-103 0 -146.5 -54.5t-43.5 -158.5v-317q0 -102 43.5 -156.5t146.5 -54.5h6q104 0 148.5 54.5t44.5 156.5
v317z" />
    <glyph glyph-name="one.inf" unicode="&#xe572;" 
d="M557 -410h-481v41h221v701l-209 -144l-22 35l251 170h21v-762h219v-41z" />
    <glyph glyph-name="two.inf" unicode="&#xe573;" 
d="M209 -369h334v-41h-482v25l359 377q52 55 71 94.5t19 87.5v10q0 79 -55 127.5t-146 48.5h-6q-103 0 -152 -56.5t-49 -180.5h-41v24q0 252 246 252q113 0 179.5 -56t66.5 -155v-10q0 -60 -19 -103t-75 -102l-328 -344z" />
    <glyph glyph-name="three.inf" unicode="&#xe574;" 
d="M301 -381h10q86 0 144.5 43.5t58.5 126.5v16q0 84 -53 128t-137 44h-119v39h114q83 0 137 40.5t54 119.5v8q0 80 -54 128t-145 48h-10q-102 0 -150.5 -56t-48.5 -181h-41v24q0 252 246 252q113 0 179.5 -56t66.5 -155v-14q0 -71 -38.5 -116t-106.5 -60q70 -19 109.5 -67
t39.5 -124v-16q0 -98 -72 -154.5t-178 -56.5q-127 0 -189.5 67.5t-62.5 188.5v10h41q0 -115 53 -171t152 -56z" />
    <glyph glyph-name="four.inf" unicode="&#xe575;" 
d="M430 -410h-41v226h-354v24l354 549h41v-532h148v-41h-148v-226zM389 315l-295 -460l101 2h194v458z" />
    <glyph glyph-name="five.inf" unicode="&#xe576;" 
d="M96 -72l-35 9l21 452h465v-41h-426l-15 -342q67 86 201 86q107 0 178.5 -65.5t71.5 -186.5v-10q0 -119 -71.5 -184.5t-178.5 -65.5q-127 0 -189.5 67.5t-62.5 188.5v10h41q0 -115 53 -171t152 -56h10q86 0 144.5 52t58.5 155v20q0 101 -58.5 154t-144.5 53h-10
q-67 0 -124 -32.5t-81 -92.5z" />
    <glyph glyph-name="six.inf" unicode="&#xe577;" 
d="M526 399v-41q-85 0 -171.5 -37.5t-145.5 -115.5q-70 -91 -94 -209q76 96 202 96q110 0 178 -64t68 -188v-10q0 -124 -69 -187t-183 -63q-108 0 -179 73t-71 204v10q0 213 113 364q62 83 159.5 125.5t192.5 42.5zM313 51q-71 0 -126 -34.5t-83 -92.5q-2 -20 -2 -57v-10
q0 -108 59 -172t148 -64h6q96 0 150.5 54t54.5 153v16q0 97 -54 152t-147 55h-6z" />
    <glyph glyph-name="seven.inf" unicode="&#xe578;" 
d="M66 102v287h491v-27l-313 -772h-45l309 758h-402v-246h-40z" />
    <glyph glyph-name="eight.inf" unicode="&#xe579;" 
d="M307 -420q-108 0 -180 55t-72 154v14q0 77 40 126.5t110 68.5q-67 18 -105.5 63.5t-38.5 116.5v15q0 99 65.5 152.5t180.5 53.5q114 0 180 -54t66 -152v-15q0 -71 -38.5 -116.5t-106.5 -63.5q70 -19 109.5 -69t39.5 -126v-14q0 -99 -71.5 -154t-178.5 -55zM289 -23
q-82 0 -136.5 -46t-54.5 -130v-14q0 -83 59 -125.5t144 -42.5h10q86 0 144.5 42.5t58.5 125.5v14q0 84 -53.5 130t-136.5 46h-35zM311 360h-10q-90 0 -143.5 -46.5t-53.5 -127.5v-6q0 -81 53.5 -122.5t137.5 -41.5h24q83 0 137 41.5t54 122.5v6q0 81 -54 127.5t-145 46.5z
" />
    <glyph glyph-name="nine.inf" unicode="&#xe57a;" 
d="M86 -420v41q86 0 174 37.5t146 116.5q69 93 92 209q-77 -97 -201 -97q-110 0 -178 63t-68 187v10q0 124 69 188t181 64q109 0 180.5 -73t71.5 -203v-10q0 -213 -113 -365q-62 -84 -159 -126t-195 -42zM293 -72h6q70 0 126 36t85 95q0 9 1 27.5t1 26.5v10q0 107 -59 171
t-148 64h-6q-96 0 -150.5 -54t-54.5 -152v-17q0 -98 53.5 -152.5t145.5 -54.5z" />
    <glyph glyph-name="plus.inf" unicode="&#xe57b;" 
d="M287 246h41v-236h235v-41h-235v-235h-41v235h-236v41h236v236z" />
    <glyph glyph-name="minus.inf" unicode="&#xe57c;" 
d="M51 -31v41h512v-41h-512z" />
    <glyph glyph-name="equal.inf" unicode="&#xe57d;" 
d="M51 72v41h512v-41h-512zM51 -133v41h512v-41h-512z" />
    <glyph glyph-name="parenleft.inf" unicode="&#xe57e;" horiz-adv-x="307" 
d="M66 -20v20q0 202 127 389h45q-132 -186 -132 -389v-20q0 -204 132 -390h-45q-127 183 -127 390z" />
    <glyph glyph-name="parenright.inf" unicode="&#xe57f;" horiz-adv-x="307" 
d="M240 0v-20q0 -209 -125 -390h-45q58 84 93.5 185.5t35.5 204.5v20q0 203 -129 389h45q125 -184 125 -389z" />
    <glyph glyph-name="Anocross" unicode="&#xe731;" horiz-adv-x="1208" 
d="M584 1618h41l512 -1618h-43l-490 1556l-489 -1556h-43z" />
    <glyph glyph-name="idotaccent" unicode="&#xe785;" horiz-adv-x="368" 
d="M164 0v1085h41v-1085h-41zM225 1475v-82h-82v82h82z" />
    <glyph glyph-name="interrobangdown" unicode="&#xe935;" horiz-adv-x="901" 
d="M436 727h29l6 -1108q168 7 245 136t77 368h41v-14q0 -254 -93.5 -392.5t-289.5 -138.5q-79 0 -143.5 21t-106.5 55t-71 80t-41.5 94.5t-12.5 99.5q0 73 19.5 135t50.5 107.5t68.5 89t75.5 89t70 96.5t53 123.5t23 158.5zM117 -61q0 -59 16.5 -112t52 -99.5t98 -75.5
t146.5 -33l4 920q-21 -73 -62 -138.5t-83 -112.5t-82 -96.5t-65 -113t-25 -139.5zM410 1004v81h82v-81h-82z" />
    <glyph glyph-name="interrobangdown.cap" unicode="&#xe99b;" horiz-adv-x="901" 
d="M436 1239h29l6 -1210q166 10 244 148t78 396h41v-14q0 -273 -96.5 -422t-293.5 -149q-98 0 -171.5 37t-115 99t-61.5 133t-20 149q0 70 19.5 133t50.5 113t68.5 99t75.5 100t70 106t53 127.5t23 154.5zM117 420q0 -59 9.5 -112t32 -104t57.5 -88.5t89.5 -61t124.5 -25.5
l4 1028q-21 -73 -62 -144t-83 -125t-82 -109.5t-65 -121.5t-25 -137zM410 1516v81h82v-81h-82z" />
    <glyph glyph-name="registered.cap" unicode="&#xe99c;" horiz-adv-x="1843" 
d="M111 799q0 221 108.5 407.5t295 295t407.5 108.5t407.5 -108.5t295 -295t108.5 -407.5t-108.5 -407.5t-295 -295t-407.5 -108.5t-407.5 108.5t-295 295t-108.5 407.5zM152 799q0 -157 61 -299.5t164 -245.5t245.5 -164t299.5 -61t299.5 61t245.5 164t164 245.5t61 299.5
t-61 299.5t-164 245.5t-245.5 164t-299.5 61t-299.5 -61t-245.5 -164t-164 -245.5t-61 -299.5zM670 727v-410h-41v963h319q53 0 98.5 -12.5t87.5 -40.5t66.5 -81.5t24.5 -127.5v-29q0 -103 -45.5 -163.5t-120.5 -84.5l166 -424h-45l-162 414q-25 -4 -70 -4h-278zM670 768
h282q31 0 60.5 5.5t61.5 20.5t55.5 39t39 65.5t15.5 94.5v21q0 53 -15.5 94.5t-39 65.5t-55.5 39t-61.5 20.5t-60.5 5.5h-282v-471z" />
    <glyph glyph-name="period.T" unicode="&#xf182;" 
d="M348 82v-82h-82v82h82z" />
    <glyph glyph-name="comma.T" unicode="&#xf183;" 
d="M348 82v-66q0 -114 -46.5 -172.5t-127.5 -58.5v41q130 0 133 174h-41v82h82z" />
    <glyph glyph-name="colon.T" unicode="&#xf184;" 
d="M348 82v-82h-82v82h82zM348 840v-82h-82v82h82z" />
    <glyph glyph-name="semicolon.T" unicode="&#xf185;" 
d="M348 840v-82h-82v82h82zM348 82v-66q0 -114 -46.5 -172.5t-127.5 -58.5v41q130 0 133 174h-41v82h82z" />
    <glyph glyph-name="onesixteenth" unicode="&#xf215;" horiz-adv-x="2252" 
d="M2165 809v-41q-85 0 -172 -38t-146 -116q-71 -91 -94 -208q76 96 203 96q110 0 178 -64t68 -188v-10q0 -124 -69 -187t-183 -63q-108 0 -179 72.5t-71 203.5v10q0 215 112 365q62 83 159.5 125.5t193.5 42.5zM1952 461q-70 0 -125 -35t-84 -94q-2 -18 -2 -56v-10
q0 -107 59 -171t148 -64h6q96 0 150.5 54t54.5 153v16q0 97 -54 152t-147 55h-6zM254 0h-49l1179 1597h50zM1581 0h-481v41h221v700l-209 -143l-22 35l251 170h21v-762h219v-41zM557 799h-481v41h221v700l-209 -143l-22 35l251 170h21v-762h219v-41z" />
    <glyph glyph-name="threesixteenths" unicode="&#xf216;" horiz-adv-x="2252" 
d="M2165 809v-41q-85 0 -172 -38t-146 -116q-71 -91 -94 -208q76 96 203 96q110 0 178 -64t68 -188v-10q0 -124 -69 -187t-183 -63q-108 0 -179 72.5t-71 203.5v10q0 215 112 365q62 83 159.5 125.5t193.5 42.5zM1952 461q-70 0 -125 -35t-84 -94q-2 -18 -2 -56v-10
q0 -107 59 -171t148 -64h6q96 0 150.5 54t54.5 153v16q0 97 -54 152t-147 55h-6zM301 827h10q86 0 144.5 43.5t58.5 126.5v17q0 84 -53 128t-137 44h-119v39h114q84 0 137.5 40t53.5 119v9q0 80 -54 128t-145 48h-10q-102 0 -150.5 -56.5t-48.5 -181.5h-41v25q0 252 246 252
q113 0 179.5 -56t66.5 -155v-15q0 -140 -145 -178q70 -18 109.5 -66t39.5 -122v-17q0 -98 -72 -154.5t-178 -56.5q-127 0 -189.5 67.5t-62.5 188.5v11h41q0 -115 53 -171.5t152 -56.5zM254 0h-49l1179 1597h50zM1581 0h-481v41h221v700l-209 -143l-22 35l251 170h21v-762
h219v-41z" />
    <glyph glyph-name="fivesixteenths" unicode="&#xf217;" horiz-adv-x="2252" 
d="M2165 809v-41q-85 0 -172 -38t-146 -116q-71 -91 -94 -208q76 96 203 96q110 0 178 -64t68 -188v-10q0 -124 -69 -187t-183 -63q-108 0 -179 72.5t-71 203.5v10q0 215 112 365q62 83 159.5 125.5t193.5 42.5zM1952 461q-70 0 -125 -35t-84 -94q-2 -18 -2 -56v-10
q0 -107 59 -171t148 -64h6q96 0 150.5 54t54.5 153v16q0 97 -54 152t-147 55h-6zM96 1137l-35 8l21 452h465v-41h-426l-15 -342q67 86 201 86q107 0 178.5 -65.5t71.5 -185.5v-11q0 -119 -71.5 -184.5t-178.5 -65.5q-127 0 -189.5 67.5t-62.5 188.5v11h41q0 -115 53 -171.5
t152 -56.5h10q86 0 144.5 52t58.5 155v21q0 101 -58.5 154t-144.5 53h-10q-67 0 -124 -32.5t-81 -92.5zM254 0h-49l1179 1597h50zM1581 0h-481v41h221v700l-209 -143l-22 35l251 170h21v-762h219v-41z" />
    <glyph glyph-name="sevensixteenths" unicode="&#xf218;" horiz-adv-x="2252" 
d="M2165 809v-41q-85 0 -172 -38t-146 -116q-71 -91 -94 -208q76 96 203 96q110 0 178 -64t68 -188v-10q0 -124 -69 -187t-183 -63q-108 0 -179 72.5t-71 203.5v10q0 215 112 365q62 83 159.5 125.5t193.5 42.5zM1952 461q-70 0 -125 -35t-84 -94q-2 -18 -2 -56v-10
q0 -107 59 -171t148 -64h6q96 0 150.5 54t54.5 153v16q0 97 -54 152t-147 55h-6zM254 0h-49l1179 1597h50zM66 1311v286h491v-26l-313 -772h-45l309 757h-402v-245h-40zM1581 0h-481v41h221v700l-209 -143l-22 35l251 170h21v-762h219v-41z" />
    <glyph glyph-name="ninesixteenths" unicode="&#xf219;" horiz-adv-x="2252" 
d="M86 788v41q86 0 174 37.5t146 116.5q68 88 92 209q-73 -96 -201 -96q-110 0 -178 63t-68 187v10q0 124 69 188t181 64q109 0 180.5 -73.5t71.5 -203.5v-10q0 -213 -113 -365q-62 -84 -159 -126t-195 -42zM2165 809v-41q-85 0 -172 -38t-146 -116q-71 -91 -94 -208
q76 96 203 96q110 0 178 -64t68 -188v-10q0 -124 -69 -187t-183 -63q-108 0 -179 72.5t-71 203.5v10q0 215 112 365q62 83 159.5 125.5t193.5 42.5zM1952 461q-70 0 -125 -35t-84 -94q-2 -18 -2 -56v-10q0 -107 59 -171t148 -64h6q96 0 150.5 54t54.5 153v16q0 97 -54 152
t-147 55h-6zM293 1137h6q71 0 127 35.5t84 95.5q0 9 1 27t1 26v10q0 107 -59 171.5t-148 64.5h-6q-96 0 -150.5 -54.5t-54.5 -152.5v-17q0 -98 53.5 -152t145.5 -54zM254 0h-49l1179 1597h50zM1581 0h-481v41h221v700l-209 -143l-22 35l251 170h21v-762h219v-41z" />
    <glyph glyph-name="elevensixteenths" unicode="&#xf220;" horiz-adv-x="2867" 
d="M2779 809v-41q-85 0 -171.5 -38t-145.5 -116q-72 -93 -95 -208q76 96 203 96q110 0 178 -64t68 -188v-10q0 -124 -69 -187t-183 -63q-108 0 -179 72.5t-71 203.5v10q0 214 113 365q62 83 159.5 125.5t192.5 42.5zM2566 461q-70 0 -125 -35t-84 -94q-2 -18 -2 -56v-10
q0 -107 59 -171t148 -64h6q96 0 150.5 54t54.5 153v16q0 97 -54 152t-147 55h-6zM868 0h-49l1180 1597h49zM557 799h-481v41h221v700l-209 -143l-22 35l251 170h21v-762h219v-41zM1171 799h-481v41h221v700l-209 -143l-22 35l252 170h20v-762h219v-41zM2195 0h-481v41h221
v700l-209 -143l-22 35l252 170h20v-762h219v-41z" />
    <glyph glyph-name="thirteensixteenths" unicode="&#xf221;" horiz-adv-x="2867" 
d="M2779 809v-41q-85 0 -171.5 -38t-145.5 -116q-72 -93 -95 -208q76 96 203 96q110 0 178 -64t68 -188v-10q0 -124 -69 -187t-183 -63q-108 0 -179 72.5t-71 203.5v10q0 214 113 365q62 83 159.5 125.5t192.5 42.5zM2566 461q-70 0 -125 -35t-84 -94q-2 -18 -2 -56v-10
q0 -107 59 -171t148 -64h6q96 0 150.5 54t54.5 153v16q0 97 -54 152t-147 55h-6zM915 827h11q86 0 144 43.5t58 126.5v17q0 84 -53 128t-137 44h-119v39h115q84 0 137 40t53 119v9q0 80 -54 128t-144 48h-11q-102 0 -150 -56.5t-48 -181.5h-41v25q0 252 246 252
q113 0 179 -56t66 -155v-15q0 -140 -145 -178q70 -18 109.5 -66t39.5 -122v-17q0 -98 -71.5 -154.5t-177.5 -56.5q-127 0 -189.5 67.5t-62.5 188.5v11h41q0 -228 204 -228zM868 0h-49l1180 1597h49zM557 799h-481v41h221v700l-209 -143l-22 35l251 170h21v-762h219v-41z
M2195 0h-481v41h221v700l-209 -143l-22 35l252 170h20v-762h219v-41z" />
    <glyph glyph-name="fifteensixteenths" unicode="&#xf222;" horiz-adv-x="2867" 
d="M2779 809v-41q-85 0 -171.5 -38t-145.5 -116q-72 -93 -95 -208q76 96 203 96q110 0 178 -64t68 -188v-10q0 -124 -69 -187t-183 -63q-108 0 -179 72.5t-71 203.5v10q0 214 113 365q62 83 159.5 125.5t192.5 42.5zM2566 461q-70 0 -125 -35t-84 -94q-2 -18 -2 -56v-10
q0 -107 59 -171t148 -64h6q96 0 150.5 54t54.5 153v16q0 97 -54 152t-147 55h-6zM711 1137l-35 8l20 452h465v-41h-426l-14 -342q67 86 201 86q107 0 178 -65t71 -186v-11q0 -119 -71 -184.5t-178 -65.5q-127 0 -189.5 67.5t-62.5 188.5v11h41q0 -228 204 -228h11
q86 0 144 52t58 155v21q0 101 -58 154t-144 53h-11q-67 0 -123.5 -32.5t-80.5 -92.5zM868 0h-49l1180 1597h49zM557 799h-481v41h221v700l-209 -143l-22 35l251 170h21v-762h219v-41zM2195 0h-481v41h221v700l-209 -143l-22 35l252 170h20v-762h219v-41z" />
    </font>
</defs>
</svg>
