<?xml version="1.0" standalone="no"?>
<!DOCTYPE svg PUBLIC "-//W3C//DTD SVG 1.1//EN" "http://www.w3.org/Graphics/SVG/1.1/DTD/svg11.dtd" >
<svg xmlns="http://www.w3.org/2000/svg" xmlns:xlink="http://www.w3.org/1999/xlink" version="1.1">
<metadata>
Created by FontForge 20170731 at Thu Jan 27 16:36:07 2022
 By Aleksey,,,
Copyright (c) 2014, Cooper Hewitt Smithsonian Design Museum (cooperhewitt.org)
</metadata>
<defs>
<font id="CooperHewitt-ThinItalic" horiz-adv-x="614" >
  <font-face 
    font-family="Cooper Hewitt"
    font-weight="702"
    font-style="italic"
    font-stretch="normal"
    units-per-em="2048"
    panose-1="0 0 0 0 0 0 0 0 0 0"
    ascent="1536"
    descent="-512"
    x-height="1085"
    cap-height="1597"
    bbox="-510 -422 2785 1958"
    underline-thickness="40"
    underline-position="-224"
    unicode-range="U+0020-F222"
  />
<missing-glyph horiz-adv-x="1972" 
d="M188 0v1597h1598v-1597h-1598zM987 707l-571 -572h1143zM416 1462l571 -571l572 571h-1143zM895 799l-563 563v-1126zM1079 799l563 -563v1126z" />
    <glyph glyph-name=".notdef" horiz-adv-x="1972" 
d="M188 0v1597h1598v-1597h-1598zM987 707l-571 -572h1143zM416 1462l571 -571l572 571h-1143zM895 799l-563 563v-1126zM1079 799l563 -563v1126z" />
    <glyph glyph-name=".null" horiz-adv-x="0" 
 />
    <glyph glyph-name="nonmarkingreturn" horiz-adv-x="682" 
 />
    <glyph glyph-name="space" unicode=" " horiz-adv-x="368" 
 />
    <glyph glyph-name="exclam" unicode="!" horiz-adv-x="368" 
d="M272 1597h41l-168 -1239h-28zM135 82l-10 -82h-82l10 82h82z" />
    <glyph glyph-name="quotedbl" unicode="&#x22;" horiz-adv-x="573" 
d="M272 1597h41l-77 -512h-21zM477 1597h41l-78 -512h-20z" />
    <glyph glyph-name="numbersign" unicode="#" horiz-adv-x="1228" 
d="M717 1597l-191 -512h396l190 512h41l-190 -512h233l-6 -41h-242l-182 -491h229l-6 -41h-239l-189 -512h-41l189 512h-396l-188 -512h-41l188 512h-231l6 41h242l182 491h-229l6 41h237l191 512h41zM512 1044l-182 -491h395l182 491h-395z" />
    <glyph glyph-name="dollar" unicode="$" horiz-adv-x="1228" 
d="M606 842l215 581q-64 11 -116 11h-7q-80 -1 -157.5 -23t-143.5 -64t-106.5 -111.5t-40.5 -156.5q0 -104 83 -159t273 -78zM973 1720l-101 -268q270 -78 232 -383l-6 -49h-41q26 174 -23.5 265.5t-175.5 127.5l-213 -575q224 -24 318 -109t75 -235l-2 -17
q-21 -165 -163.5 -259.5t-344.5 -94.5q-80 0 -143 14l-96 -260h-41l100 270q-130 42 -186.5 145.5t-40.5 229.5l4 33h41q-25 -138 26 -233.5t170 -135.5l230 617q-222 27 -311.5 103.5t-71.5 209.5l2 17q14 102 84 180.5t177 120t233 41.5q68 0 131 -13l96 258h41zM530 164
h7q122 0 226 42t170 126t66 194q0 131 -87 189.5t-281 83.5l-232 -623q55 -12 131 -12z" />
    <glyph glyph-name="percent" unicode="%" horiz-adv-x="1843" 
d="M782 1278l-2 -16q-20 -155 -110.5 -243.5t-227.5 -88.5q-141 0 -214.5 89t-53.5 243l2 16q20 155 110.5 243.5t227.5 88.5q52 0 104 -15q180 -59 386 -59q96 0 201 19.5t167 41.5l-4 -30l-856 -1567h-45l842 1540q-141 -45 -305 -45q-143 0 -279 31q76 -88 57 -248z
M1329 29h12q117 0 196.5 80.5t94.5 209.5l2 17q17 133 -43.5 212t-177.5 79h-12q-117 0 -196.5 -81t-94.5 -210l-2 -17q-17 -133 43.5 -211.5t177.5 -78.5zM1335 -12q-141 0 -214.5 88.5t-53.5 242.5l2 17q20 155 110.5 243.5t227.5 88.5q141 0 214.5 -89t53.5 -243l-2 -17
q-20 -155 -110.5 -243t-227.5 -88zM739 1262l2 16q17 133 -43.5 212t-177.5 79h-12q-117 0 -196.5 -81t-94.5 -210l-2 -16q-17 -133 43.5 -212t177.5 -79h13q117 0 196 81t94 210z" />
    <glyph glyph-name="ampersand" unicode="&#x26;" horiz-adv-x="1310" 
d="M465 -12q-208 0 -312.5 114t-78.5 320l2 16q8 60 32 114.5t55 96t78 83.5t88.5 71t98.5 65q-110 135 -154 224.5t-30 199.5l2 17q16 132 107 216.5t251 84.5q166 0 251 -84t67 -217l-2 -17q-4 -29 -14 -57t-20.5 -51t-33 -49.5t-37.5 -43.5t-47.5 -43t-48.5 -39
t-56.5 -39.5t-55.5 -36t-61 -37.5t-59 -36l463 -567q133 200 170 500l2 16h41q-44 -339 -186 -549l213 -260h-51l-185 225q-195 -237 -489 -237zM459 29h12q127 0 246 53.5t211 175.5l-475 582q-56 -36 -95 -63t-84.5 -67t-74.5 -78t-52 -88.5t-30 -105.5l-2 -16
q-24 -184 66 -288.5t278 -104.5zM287 1309l-2 -17q-13 -107 28 -190t150 -213q17 11 63.5 39t65.5 40t59 38t58.5 41.5t49 41t46 46t34 47t27.5 54t13 56.5l2 17q14 111 -59 185.5t-212 74.5h-12q-136 0 -216.5 -73t-94.5 -187z" />
    <glyph glyph-name="quotesingle" unicode="'" horiz-adv-x="368" 
d="M272 1597h41l-77 -512h-21z" />
    <glyph glyph-name="parenleft" unicode="(" 
d="M127 713l6 49q17 138 51.5 261.5t75.5 217.5t99 185t110.5 156t120.5 138h47q-90 -96 -158 -187t-133 -208.5t-108.5 -259t-63.5 -303.5l-6 -49q-19 -129 -14.5 -249t18.5 -212.5t47 -184t70.5 -163.5t89.5 -150h-47q-41 63 -71 118t-60.5 125t-48.5 144t-30 161.5
t-10.5 191t15.5 219.5z" />
    <glyph glyph-name="parenright" unicode=")" 
d="M479 762l-6 -49q-21 -171 -66 -317t-110.5 -262.5t-130 -202t-150.5 -177.5h-47q90 96 158 187.5t133 208.5t108.5 259t63.5 304l6 49q13 110 14.5 209.5t-9 185t-29 161t-48.5 146.5t-63 131t-76 125h47q41 -63 71 -118t60.5 -125t48.5 -144t30 -161t10.5 -190.5
t-15.5 -219.5z" />
    <glyph glyph-name="asterisk" unicode="*" horiz-adv-x="778" 
d="M483 1638h41l-41 -307h-41zM213 958l-29 27l213 248l29 -27zM109 1368l18 37l281 -94l-19 -37zM649 981l-35 -23l-145 250l35 23zM819 1405l6 -39l-305 -94l-6 39z" />
    <glyph glyph-name="plus" unicode="+" horiz-adv-x="1228" 
d="M664 1311h41l-66 -492h489l-6 -41h-489l-66 -491h-41l66 491h-494l6 41h494z" />
    <glyph glyph-name="comma" unicode="," horiz-adv-x="368" 
d="M135 82l-8 -66q-15 -114 -69.5 -172.5t-135.5 -58.5l4 41q132 0 158 174h-41l10 82h82z" />
    <glyph glyph-name="hyphen" unicode="-" horiz-adv-x="655" 
d="M90 676l6 41h451l-6 -41h-451z" />
    <glyph glyph-name="period" unicode="." horiz-adv-x="368" 
d="M135 82l-10 -82h-82l10 82h82z" />
    <glyph glyph-name="slash" unicode="/" 
d="M688 1720l-729 -1966h-41l729 1966h41z" />
    <glyph glyph-name="zero" unicode="0" horiz-adv-x="1228" 
d="M520 29h12q100 0 177 23.5t140 77t103.5 146t57.5 224.5l82 628q29 224 -68.5 332.5t-306.5 108.5h-12q-100 0 -177 -23.5t-140 -77t-103.5 -146t-57.5 -224.5l-82 -629q-29 -224 68.5 -332t306.5 -108zM526 -12q-237 0 -344.5 124t-77.5 355l84 645q34 258 160.5 378
t362.5 120q237 0 344.5 -124.5t77.5 -355.5l-84 -645q-34 -258 -160 -377.5t-363 -119.5z" />
    <glyph glyph-name="one" unicode="1" horiz-adv-x="1228" 
d="M1004 0h-941l7 41h448l199 1505l-486 -299l-20 37l524 324h31l-207 -1567h451z" />
    <glyph glyph-name="two" unicode="2" horiz-adv-x="1228" 
d="M324 41h675l-6 -41h-962l4 31l815 749q96 89 144 143t75.5 109.5t36.5 126.5l6 49q13 106 -37 189.5t-143 127.5t-209 44h-16q-241 0 -354 -123.5t-140 -380.5h-41l6 49q30 245 159.5 370.5t377.5 125.5q133 0 238.5 -49.5t161 -142t40.5 -210.5l-6 -49
q-14 -113 -66.5 -187t-210.5 -220l-774 -713z" />
    <glyph glyph-name="three" unicode="3" horiz-adv-x="1228" 
d="M1102 1163l6 49q13 103 -36 185.5t-141.5 127t-207.5 44.5h-16q-241 0 -354 -123.5t-140 -380.5h-41l6 49q30 245 159.5 370.5t377.5 125.5q134 0 237.5 -46.5t158.5 -138.5t40 -213l-6 -49q-18 -148 -119.5 -240.5t-247.5 -107.5q147 -15 225.5 -115.5t57.5 -265.5
l-6 -49q-17 -134 -91.5 -225t-185 -131.5t-252.5 -40.5q-250 0 -361 123.5t-83 351.5l6 49h41q-39 -244 62 -363.5t327 -119.5h17q197 0 325.5 91t151.5 265l6 49q23 178 -66.5 269.5t-285.5 91.5h-254l6 41h248q183 0 299.5 85.5t136.5 241.5z" />
    <glyph glyph-name="four" unicode="4" horiz-adv-x="1228" 
d="M739 0h-41l62 471h-717l4 31l852 1095h51l-143 -1085h305l-6 -41h-305zM905 1542l-803 -1032l232 2h432l94 717z" />
    <glyph glyph-name="five" unicode="5" horiz-adv-x="1228" 
d="M639 954h-16q-168 0 -279 -67.5t-180 -204.5l-39 12l158 903h911l-6 -41h-871l-135 -778q61 102 173.5 159.5t275.5 57.5q104 0 191 -32t148 -91.5t89 -151.5t14 -204l-6 -49q-29 -225 -178.5 -352t-362.5 -127q-250 0 -361 123.5t-83 351.5l6 49h41q-39 -244 62 -363.5
t327 -119.5h17q193 0 328 119t161 319l6 49q24 199 -86.5 318.5t-304.5 119.5z" />
    <glyph glyph-name="six" unicode="6" horiz-adv-x="1228" 
d="M1155 1610l-6 -41q-191 0 -374.5 -81t-330.5 -249q-178 -205 -264 -502q80 117 200 187.5t271 70.5q214 0 337 -127.5t95 -351.5l-6 -49q-29 -225 -178 -352t-362 -127q-220 0 -344 142.5t-93 395.5l2 17q55 429 314 721q304 346 739 346zM162 643q-27 -127 -27 -213
q0 -185 109 -293t284 -108h17q193 0 328 119t161 319l6 49q26 201 -80.5 319.5t-300.5 118.5h-16q-154 0 -280.5 -88t-200.5 -223z" />
    <glyph glyph-name="seven" unicode="7" horiz-adv-x="1228" 
d="M176 1024l76 573h962l-4 -30l-854 -1567h-45l850 1559l-239 -3h-635l-70 -532h-41z" />
    <glyph glyph-name="eight" unicode="8" horiz-adv-x="1228" 
d="M1151 1212l-6 -49q-18 -148 -119.5 -240.5t-247.5 -107.5q147 -15 225.5 -115.5t57.5 -265.5l-6 -49q-17 -134 -91.5 -225t-185 -131.5t-252.5 -40.5q-105 0 -192 26t-150.5 75.5t-93 129t-16.5 180.5l6 50q41 316 352 366q-129 25 -196.5 121t-49.5 240l7 49
q23 184 161.5 284.5t350.5 100.5q135 0 241 -46.5t163.5 -138.5t41.5 -213zM571 795q-195 0 -310 -85.5t-138 -260.5l-6 -50q-22 -178 90 -274t311 -96h17q197 0 325.5 91t151.5 265l6 49q23 178 -66.5 269.5t-285.5 91.5h-95zM713 1569h-17q-188 0 -314 -92.5t-146 -251.5
l-7 -49q-20 -164 70.5 -252t275.5 -88h91q183 0 299.5 85.5t136.5 241.5l6 49q14 108 -38 190.5t-146 124.5t-211 42z" />
    <glyph glyph-name="nine" unicode="9" horiz-adv-x="1228" 
d="M82 -12l6 41q192 0 375 81t330 248q178 205 264 502q-80 -117 -200 -187.5t-271 -70.5q-214 0 -337 127.5t-95 351.5l6 49q29 225 178 352.5t362 127.5q220 0 344 -143t93 -396l-2 -16q-55 -429 -314 -721q-304 -346 -739 -346zM1075 954q27 127 27 213q0 185 -109 293.5
t-284 108.5h-17q-193 0 -328 -119.5t-161 -319.5l-6 -49q-26 -201 80.5 -319.5t300.5 -118.5h16q154 0 280.5 88t200.5 223z" />
    <glyph glyph-name="colon" unicode=":" horiz-adv-x="368" 
d="M135 82l-10 -82h-82l10 82h82zM233 840l-10 -82h-82l11 82h81z" />
    <glyph glyph-name="semicolon" unicode=";" horiz-adv-x="368" 
d="M233 840l-10 -82h-82l11 82h81zM135 82l-8 -66q-15 -114 -69.5 -172.5t-135.5 -58.5l4 41q132 0 158 174h-41l10 82h82z" />
    <glyph glyph-name="less" unicode="&#x3c;" horiz-adv-x="1228" 
d="M106 817l1092 506l-6 -47l-1047 -479l920 -480l-6 -43l-957 506z" />
    <glyph glyph-name="equal" unicode="=" horiz-adv-x="1228" 
d="M129 983l6 41h1022l-6 -41h-1022zM76 573l6 41h1022l-6 -41h-1022z" />
    <glyph glyph-name="greater" unicode="&#x3e;" horiz-adv-x="1228" 
d="M1126 780l-1091 -506l6 48l1046 479l-919 479l6 43l956 -506z" />
    <glyph glyph-name="question" unicode="?" horiz-adv-x="901" 
d="M553 1610q87 0 152.5 -28t104 -77.5t57 -111.5t18.5 -136q0 -81 -23 -152.5t-61 -128t-84.5 -109.5t-95.5 -107.5t-91 -111.5t-74.5 -132t-43.5 -158h-29q9 88 40 165.5t72 135.5t88.5 113t93 107t82.5 107t60 125t23 149q0 64 -15.5 117.5t-48 97.5t-90 69t-135.5 25
q-176 0 -279 -141.5t-133 -403.5h-41l6 49q20 161 74.5 279.5t149.5 188t223 69.5zM401 82l-10 -82h-82l10 82h82z" />
    <glyph glyph-name="at" unicode="@" horiz-adv-x="1904" 
d="M856 -381h12q196 0 357 44.5t334 158.5l20 -33q-176 -119 -347.5 -165t-369.5 -46q-202 0 -367 72t-273.5 200t-156 314t-20.5 405l6 49q38 306 180.5 532t357.5 343t476 117q142 0 267.5 -34.5t226 -104t169.5 -167.5t97.5 -232t9.5 -290l-6 -49q-18 -144 -59 -252
t-97 -175.5t-133 -109t-158 -57.5t-182 -16h-10l8 172q-43 -70 -137.5 -127t-212.5 -57q-88 0 -160 27t-124.5 82t-75 147t-7.5 213l6 49q15 120 59 212.5t108.5 147t139 82t156.5 27.5q122 0 206.5 -54t123.5 -129l37 170h31l-43 -249l-62 -467l-18 -205q88 1 159 15
t140.5 52.5t120 100.5t88.5 163.5t55 237.5l6 49q19 152 -9 281.5t-94 221.5t-162.5 157t-212.5 96t-245 31h-12q-252 0 -458 -115t-339 -331.5t-170 -504.5l-6 -49q-27 -215 18.5 -394t149 -300.5t258.5 -188.5t344 -67zM1268 866q-18 35 -44 66t-64.5 60.5t-92.5 47
t-117 17.5q-73 0 -140.5 -25t-126 -75t-100 -134t-55.5 -194l-6 -49q-14 -110 6 -194t67.5 -134t111 -75t141.5 -25q208 0 350 198z" />
    <glyph glyph-name="A" unicode="A" horiz-adv-x="1208" 
d="M696 1618h41l299 -1618h-41l-86 471h-684l-209 -471h-45zM711 1556l-467 -1044h657z" />
    <glyph glyph-name="B" unicode="B" horiz-adv-x="1130" 
d="M272 1597h363q70 0 128.5 -10t114 -37t92 -69t53 -110.5t5.5 -158.5l-6 -49q-11 -91 -40.5 -157t-74 -104.5t-93 -58.5t-109.5 -28q306 -47 264 -381l-6 -49q-12 -97 -45 -168t-77 -112t-107.5 -65.5t-124 -32t-138.5 -7.5h-408zM567 795h-358l-98 -754h360q48 0 85 2.5
t82 10.5t79.5 22.5t70.5 40t60.5 61.5t44 88.5t27.5 118.5l6 49q44 361 -359 361zM635 1556h-326l-94 -720h352q43 0 78 3t75.5 11.5t73 23t64.5 39.5t55 58.5t40.5 82.5t25.5 109l6 49q11 85 -6.5 149.5t-51.5 100.5t-86.5 58t-100.5 29t-105 7z" />
    <glyph glyph-name="C" unicode="C" horiz-adv-x="1214" 
d="M133 774l6 49q53 418 202 602.5t409 184.5q235 0 328 -125t57 -412l-7 -49h-41q20 125 14.5 218t-25.5 155.5t-65.5 100.5t-106.5 54.5t-148 16.5h-13q-238 0 -374.5 -174.5t-186.5 -571.5l-6 -49q-50 -393 39.5 -569t325.5 -176h12q97 0 173.5 25t138 80.5t101.5 150
t56 227.5h41l-6 -49q-29 -229 -154.5 -352t-355.5 -123q-260 0 -363 188.5t-51 597.5z" />
    <glyph glyph-name="D" unicode="D" horiz-adv-x="1259" 
d="M1143 823l-6 -49q-21 -168 -68 -300t-111 -220t-147.5 -146t-175 -83t-195.5 -25h-377l209 1597h385q87 0 158.5 -17.5t133.5 -55.5t104.5 -98.5t70.5 -146.5t31.5 -199t-12.5 -257zM111 41h329q127 0 231.5 39.5t192 124t146.5 228.5t84 341l6 49q22 161 11.5 282.5
t-43.5 207.5t-94 140t-138.5 78.5t-178.5 24.5h-348z" />
    <glyph glyph-name="E" unicode="E" horiz-adv-x="1105" 
d="M272 1597h840l-6 -41h-797l-94 -720h694l-6 -41h-694l-98 -754h798l-6 -41h-840z" />
    <glyph glyph-name="F" unicode="F" horiz-adv-x="991" 
d="M272 1597h799l-6 -41h-756l-94 -720h653l-6 -41h-653l-105 -795h-41z" />
    <glyph glyph-name="G" unicode="G" horiz-adv-x="1280" 
d="M590 -12q-277 0 -393 189.5t-64 596.5l6 49q36 281 118.5 456.5t205 253t295.5 77.5q249 0 345 -132.5t62 -404.5l-6 -49h-41q39 295 -45.5 420t-308.5 125h-12q-115 0 -206.5 -41t-165 -128.5t-123.5 -232t-75 -344.5l-6 -49q-50 -389 54 -567t354 -178h12
q136 0 245 44.5t167 102.5l69 524h-327l6 41h366l-75 -583q-170 -170 -457 -170z" />
    <glyph glyph-name="H" unicode="H" horiz-adv-x="1269" 
d="M1174 1597h40l-208 -1597h-41l104 795h-860l-105 -795h-41l209 1597h41l-100 -761h860z" />
    <glyph glyph-name="I" unicode="I" horiz-adv-x="389" 
d="M324 1597l-209 -1597h-41l209 1597h41z" />
    <glyph glyph-name="J" unicode="J" horiz-adv-x="962" 
d="M872 1597h41l-149 -1140q-14 -111 -43 -194t-78 -146.5t-124.5 -96t-176.5 -32.5q-374 0 -315 469l6 49h41q-38 -240 24.5 -358.5t243.5 -118.5q182 0 268.5 112.5t118.5 360.5z" />
    <glyph glyph-name="K" unicode="K" horiz-adv-x="1060" 
d="M313 1597l-135 -1026l856 1026h58l-584 -694l375 -903h-47l-357 868l-309 -366l-66 -502h-41l209 1597h41z" />
    <glyph glyph-name="L" unicode="L" horiz-adv-x="950" 
d="M821 0h-758l209 1597h43l-204 -1556h716z" />
    <glyph glyph-name="M" unicode="M" horiz-adv-x="1556" 
d="M684 61l770 1536h47l-209 -1597h-41l150 1149l51 354l-754 -1503h-41l-360 1503l-43 -356l-150 -1147h-41l209 1597h43z" />
    <glyph glyph-name="N" unicode="N" horiz-adv-x="1310" 
d="M1016 66l37 292l161 1239h41l-208 -1597h-46l-698 1532l-37 -293l-162 -1239h-41l209 1597h45z" />
    <glyph glyph-name="O" unicode="O" horiz-adv-x="1290" 
d="M551 29h12q158 0 266 73t179.5 238t105.5 434l6 49q50 391 -44 568.5t-331 177.5h-12q-236 0 -368.5 -173.5t-182.5 -572.5l-6 -49q-50 -391 44 -568t331 -177zM739 1610q261 0 368.5 -189.5t55.5 -597.5l-6 -49q-36 -283 -113.5 -457t-196 -251.5t-290.5 -77.5
q-262 0 -369 189.5t-55 596.5l6 49q53 420 197.5 603.5t402.5 183.5z" />
    <glyph glyph-name="P" unicode="P" horiz-adv-x="1114" 
d="M197 696l-93 -696h-41l209 1597h383q72 0 135 -12.5t120 -44t95 -79.5t55 -124t5 -172l-6 -49q-12 -99 -48.5 -174.5t-85 -121.5t-113.5 -74.5t-127 -39t-132 -10.5h-356zM201 737h352q416 0 463 379l6 49q12 95 -7 167t-55.5 113.5t-91.5 67.5t-106 34.5t-107 8.5h-348z
" />
    <glyph glyph-name="Q" unicode="Q" horiz-adv-x="1282" 
d="M739 1610q261 0 368.5 -189.5t55.5 -597.5l-6 -49q-44 -345 -148.5 -528.5t-279.5 -235.5l53 -215h-41l-51 205q-62 -12 -133 -12q-262 0 -369 189.5t-55 596.5l6 49q53 420 197.5 603.5t402.5 183.5zM551 29h12q61 0 117 12l-92 379h41l90 -371q162 50 258 223.5
t137 501.5l6 49q50 391 -44 568.5t-331 177.5h-12q-236 0 -368.5 -173.5t-182.5 -572.5l-6 -49q-50 -391 44 -568t331 -177z" />
    <glyph glyph-name="R" unicode="R" horiz-adv-x="1132" 
d="M197 696l-93 -696h-41l209 1597h383q72 0 135 -12.5t120 -44t95 -79.5t55 -124t5 -172l-6 -49q-43 -335 -348 -403l200 -713h-41l-198 705q-59 -9 -119 -9h-356zM201 737h352q416 0 463 379l6 49q12 95 -7 167t-55.5 113.5t-91.5 67.5t-106 34.5t-107 8.5h-348z" />
    <glyph glyph-name="S" unicode="S" horiz-adv-x="1187" 
d="M592 809q-248 35 -346 133.5t-78 257.5l6 49q15 121 87 204t179 120t244 37q247 0 356.5 -128t79.5 -368l-6 -49h-41q37 266 -61 385t-322 119h-12q-118 0 -216 -35t-165 -109t-80 -176l-6 -49q-19 -152 73 -235.5t332 -116.5q249 -34 347 -145t75 -297l-6 -50
q-47 -368 -528 -368q-252 0 -361.5 123t-81.5 352l7 49h41q-77 -483 389 -483h12q203 0 330.5 78.5t148.5 248.5l6 50q22 179 -72 274t-331 129z" />
    <glyph glyph-name="T" unicode="T" horiz-adv-x="1003" 
d="M625 1556l-205 -1556h-41l203 1556h-428l6 41h899l-6 -41h-428z" />
    <glyph glyph-name="U" unicode="U" horiz-adv-x="1269" 
d="M547 -12q-75 0 -135 9.5t-114.5 32.5t-90.5 60.5t-62 93t-30 131t6 174.5l145 1108h41l-143 -1097q-10 -93 -8 -164t24 -123t53.5 -87.5t80.5 -57t105 -30.5t128 -9q108 0 186.5 22t142 75t103 146t57.5 230l144 1095h41l-146 -1108q-19 -145 -63 -244.5t-113.5 -155
t-154 -78.5t-197.5 -23z" />
    <glyph glyph-name="V" unicode="V" horiz-adv-x="1208" 
d="M520 -20h-41l-299 1617h41l285 -1556l694 1556h45z" />
    <glyph glyph-name="W" unicode="W" horiz-adv-x="1761" 
d="M1010 1597l215 -1529l522 1529h45l-551 -1597h-45l-215 1532l-616 -1532h-46l-133 1597h41l125 -1525l613 1525h45z" />
    <glyph glyph-name="X" unicode="X" horiz-adv-x="1187" 
d="M594 760l-584 -760h-53l616 801l-407 796h47l389 -759l584 759h53l-616 -800l407 -797h-47z" />
    <glyph glyph-name="Y" unicode="Y" horiz-adv-x="1105" 
d="M508 518l608 1079h47l-639 -1126l-61 -471h-41l61 471l-344 1126h43z" />
    <glyph glyph-name="Z" unicode="Z" horiz-adv-x="1126" 
d="M-14 29l1085 1530l-229 -3h-637l6 41h922l-5 -28l-1085 -1530l229 2h678l-6 -41h-962z" />
    <glyph glyph-name="bracketleft" unicode="[" 
d="M289 1720h348l-6 -41h-307l-246 -1884h307l-6 -41h-348z" />
    <glyph glyph-name="backslash" unicode="\" 
d="M389 -246l-213 1966h41l213 -1966h-41z" />
    <glyph glyph-name="bracketright" unicode="]" 
d="M317 -246h-348l6 41h308l245 1884h-307l6 41h348z" />
    <glyph glyph-name="asciicircum" unicode="^" horiz-adv-x="1228" 
d="M743 1597l369 -1024h-43l-348 981l-610 -981h-48l639 1024h41z" />
    <glyph glyph-name="underscore" unicode="_" horiz-adv-x="655" 
d="M-29 -225l6 41h451l-6 -41h-451z" />
    <glyph glyph-name="grave" unicode="`" horiz-adv-x="1024" 
d="M414 1597h45l141 -327h-45z" />
    <glyph glyph-name="a" unicode="a" horiz-adv-x="993" 
d="M37 262l4 33q8 65 33.5 114t57 78.5t82.5 51t94 31.5t108 20l377 57l10 78q6 55 7 104.5t-14.5 91t-44 72t-82.5 47.5t-130 17q-78 0 -136.5 -17.5t-95 -45.5t-61.5 -73.5t-37.5 -92.5t-20.5 -111h-41l5 33q8 59 21 105.5t41.5 93.5t69 78.5t106 51t149.5 19.5
q83 0 143 -18t94.5 -50.5t54 -77t20.5 -97t-5 -110.5l-66 -503l-20 -242h-33l10 176q-151 -188 -413 -188q-138 0 -220.5 71t-66.5 203zM324 29q73 0 137.5 15t104.5 34.5t78.5 51.5t54.5 50.5t38 46.5l49 379l-391 -59q-55 -9 -91 -17.5t-78.5 -26.5t-68.5 -43t-47 -67
t-28 -98l-4 -33q-12 -103 52 -168t194 -65z" />
    <glyph glyph-name="b" unicode="b" horiz-adv-x="1044" 
d="M299 1638l-94 -716q50 72 139 124t207 52q203 0 294 -139.5t60 -391.5l-6 -49q-31 -254 -151 -392t-322 -138q-122 0 -204 53t-122 129l-37 -170h-30l43 250l182 1388h41zM197 858l-84 -639q40 -78 117 -134t196 -56q184 0 293 128t139 361l6 49q30 232 -49.5 361
t-263.5 129q-211 0 -354 -199z" />
    <glyph glyph-name="c" unicode="c" horiz-adv-x="1034" 
d="M80 518l6 49q31 252 155.5 391.5t327.5 139.5q74 0 133.5 -14.5t98 -40t66 -60t39 -74t16 -83.5t-3.5 -87l-5 -32h-41q26 162 -46 256t-257 94t-298.5 -129.5t-143.5 -360.5l-6 -49q-29 -229 57.5 -359t272.5 -130q172 0 265 88t111 241h41l-4 -32q-6 -49 -22.5 -95
t-50 -91t-79 -78t-113 -53.5t-148.5 -20.5q-205 0 -303.5 140.5t-67.5 389.5z" />
    <glyph glyph-name="d" unicode="d" horiz-adv-x="1044" 
d="M559 1098q121 0 202 -51.5t118 -120.5l94 712h41l-183 -1396l-20 -242h-33l10 176q-57 -81 -146 -134.5t-208 -53.5q-203 0 -294 139t-60 391l6 49q31 254 151 392.5t322 138.5zM872 866q-40 78 -117 134.5t-196 56.5q-184 0 -293 -128.5t-139 -361.5l-6 -49
q-30 -231 49.5 -360t263.5 -129q212 0 354 198z" />
    <glyph glyph-name="e" unicode="e" horiz-adv-x="1085" 
d="M940 522h-819q-29 -228 69 -360.5t287 -132.5q102 0 179 25.5t122 71t69 100.5t30 122h41l-5 -33q-7 -63 -33.5 -118t-75.5 -103.5t-133 -77t-194 -28.5q-208 0 -317.5 142t-79.5 388l6 49q31 251 159.5 391t332.5 140q94 0 164.5 -26.5t113.5 -74.5t68 -115.5t27.5 -150
t-7.5 -176.5zM578 1057q-186 0 -303.5 -131t-147.5 -363h778q29 228 -50.5 361t-276.5 133z" />
    <glyph glyph-name="f" unicode="f" horiz-adv-x="696" 
d="M356 1376l-39 -291h338l-6 -41h-336l-137 -1044h-41l137 1044h-176l6 41h174l43 318q8 60 28.5 105t47 72t63.5 43.5t72.5 22t79.5 5.5q32 0 65.5 -6.5t49.5 -11.5t23 -9l-7 -41q-54 27 -131 27q-109 0 -172.5 -50.5t-81.5 -183.5z" />
    <glyph glyph-name="g" unicode="g" horiz-adv-x="1044" 
d="M369 -422q-209 0 -297 101.5t-64 287.5l4 33h41q-30 -194 45 -287.5t271 -93.5q182 0 275 98t116 283l31 246q-51 -73 -137.5 -124.5t-204.5 -51.5q-197 0 -296 123.5t-69 365.5l6 49q30 245 150.5 367.5t314.5 122.5q122 0 206.5 -54t123.5 -129l37 170h30l-43 -249
l-112 -863q-25 -185 -129 -290t-299 -105zM799 309l73 557q-18 35 -44 66t-64 60.5t-92 47t-117 17.5q-175 0 -285 -113t-139 -336l-6 -49q-28 -221 59.5 -334.5t264.5 -113.5q208 0 350 198z" />
    <glyph glyph-name="h" unicode="h" horiz-adv-x="1003" 
d="M43 0l215 1638h41l-94 -718q144 178 375 178q161 0 242.5 -78.5t60.5 -239.5l-103 -780h-41l101 766q39 291 -260 291q-229 0 -383 -199l-113 -858h-41z" />
    <glyph glyph-name="i" unicode="i" horiz-adv-x="368" 
d="M63 0l142 1085h41l-142 -1085h-41zM317 1475l-10 -82h-82l11 82h81z" />
    <glyph glyph-name="j" unicode="j" horiz-adv-x="368" 
d="M47 -129l158 1214h41l-160 -1226q-37 -281 -305 -281q-85 0 -127 21l4 41q14 -7 50 -14t71 -7q114 0 181.5 55t86.5 197zM317 1475l-10 -82h-82l11 82h81z" />
    <glyph glyph-name="k" unicode="k" horiz-adv-x="937" 
d="M309 1638l-162 -1226l707 673h57l-432 -411l291 -674h-47l-277 643l-307 -293l-45 -350h-41l215 1638h41z" />
    <glyph glyph-name="l" unicode="l" horiz-adv-x="368" 
d="M63 0l216 1638h40l-215 -1638h-41z" />
    <glyph glyph-name="m" unicode="m" horiz-adv-x="1536" 
d="M1153 1098q140 0 212.5 -68.5t53.5 -218.5l-106 -811h-41l104 797q35 260 -223 260q-113 0 -201.5 -59.5t-140.5 -139.5l-4 -31q0 -3 -1 -8.5t-1 -7.5l-107 -811h-41l105 797q35 260 -223 260q-113 0 -201.5 -59.5t-140.5 -139.5l-113 -858h-41l111 844l20 241h33
l-10 -176q51 77 138.5 133t203.5 56q113 0 184 -46.5t82 -144.5q142 191 348 191z" />
    <glyph glyph-name="n" unicode="n" horiz-adv-x="1003" 
d="M780 0h-41l101 766q39 291 -260 291q-229 0 -383 -199l-113 -858h-41l111 844l20 241h33l-10 -176q149 189 383 189q161 0 242.5 -78.5t60.5 -239.5z" />
    <glyph glyph-name="o" unicode="o" horiz-adv-x="1077" 
d="M451 -12q-205 0 -303.5 140.5t-67.5 389.5l6 49q31 252 155.5 391.5t327.5 139.5q205 0 303.5 -141t67.5 -390l-6 -49q-31 -252 -155.5 -391t-327.5 -139zM451 29q185 0 298.5 129t143.5 360l6 49q29 229 -57.5 359.5t-272.5 130.5q-185 0 -298.5 -129.5t-143.5 -360.5
l-6 -49q-29 -229 57.5 -359t272.5 -130z" />
    <glyph glyph-name="p" unicode="p" horiz-adv-x="1044" 
d="M424 -12q-121 0 -202 51.5t-118 120.5l-75 -570h-41l164 1254l20 241h33l-10 -176q57 81 146 135t208 54q203 0 294 -139.5t60 -391.5l-6 -49q-31 -254 -151 -392t-322 -138zM195 858l-84 -639q40 -78 117 -134t196 -56q184 0 293 128t139 361l6 49q30 232 -49.5 361
t-263.5 129q-211 0 -354 -199z" />
    <glyph glyph-name="q" unicode="q" horiz-adv-x="1044" 
d="M705 -410l75 574q-50 -72 -139 -124t-207 -52q-203 0 -294 139t-60 391l6 49q31 254 151 392.5t322 138.5q122 0 204 -53.5t122 -129.5l37 170h30l-43 -249l-164 -1246h-40zM788 227l84 639q-40 78 -117 134.5t-196 56.5q-184 0 -293 -128.5t-139 -361.5l-6 -49
q-30 -231 49.5 -360t263.5 -129q212 0 354 198z" />
    <glyph glyph-name="r" unicode="r" horiz-adv-x="608" 
d="M535 1098l30 -2l-6 -39h-18q-64 0 -121.5 -19t-100 -51t-71.5 -63.5t-51 -65.5l-113 -858h-41l111 844l20 241h33l-10 -176q48 77 136.5 133t201.5 56z" />
    <glyph glyph-name="s" unicode="s" horiz-adv-x="983" 
d="M436 535q-103 9 -171 32.5t-101 60.5t-43 79t-4 96l2 16q15 127 121 203t272 76q108 0 184 -24.5t115.5 -69.5t53.5 -103t5 -131l-4 -33h-41q26 161 -46.5 240.5t-266.5 79.5q-167 0 -261.5 -77t-94.5 -212q0 -96 70 -139t259 -60q199 -18 273.5 -86t58.5 -194l-2 -17
q-15 -128 -121 -206t-284 -78q-89 0 -157.5 16.5t-111 44.5t-67.5 68t-32 83.5t-1 94.5l4 33h41q-26 -142 49 -220.5t275 -78.5q168 0 268 79t100 207q0 111 -74.5 156.5t-267.5 63.5z" />
    <glyph glyph-name="t" unicode="t" horiz-adv-x="737" 
d="M317 1085h379l-6 -41h-377l-100 -763q-19 -142 32.5 -197t164.5 -55q86 0 131 20l-6 -41q-50 -20 -125 -20q-61 0 -106.5 13t-81 42.5t-49.5 85.5t-3 135l102 780h-176l6 41h174l41 308h41z" />
    <glyph glyph-name="u" unicode="u" horiz-adv-x="1003" 
d="M164 1085h41l-101 -766q-39 -290 261 -290q230 0 383 198l112 858h41l-110 -843l-21 -242h-33l11 176q-149 -188 -383 -188q-161 0 -243 78t-61 239z" />
    <glyph glyph-name="v" unicode="v" horiz-adv-x="983" 
d="M397 51l518 1034h48l-551 -1085h-41l-269 1085h43z" />
    <glyph glyph-name="w" unicode="w" horiz-adv-x="1372" 
d="M721 1032l-447 -1032h-49l-116 1085h43l106 -1032l444 1032h50l174 -1036l374 1036h46l-400 -1085h-49z" />
    <glyph glyph-name="x" unicode="x" horiz-adv-x="901" 
d="M84 1085h47l293 -510l424 510h51l-455 -542l314 -543h-47l-293 510l-424 -510h-51l454 545z" />
    <glyph glyph-name="y" unicode="y" horiz-adv-x="942" 
d="M381 90l500 995h47l-535 -1050l-219 -445h-45l227 445l-260 1050h43z" />
    <glyph glyph-name="z" unicode="z" horiz-adv-x="880" 
d="M-27 29l791 1018l-227 -3h-412l6 41h696l-4 -28l-790 -1018l227 2h453l-6 -41h-738z" />
    <glyph glyph-name="braceleft" unicode="{" 
d="M637 1720l-6 -41q-53 0 -88.5 -7.5t-70 -30t-55 -69t-30.5 -118.5l-68 -506q-13 -98 -50 -145t-99 -66q56 -21 81.5 -68.5t12.5 -142.5l-65 -506q-9 -70 -0.5 -116t36.5 -69t62.5 -31.5t87.5 -8.5l-6 -41h-8q-54 0 -94 11t-72.5 38t-44.5 80t-2 131l67 514q8 59 0 97.5
t-32.5 58t-54.5 26.5t-75 7l7 41q93 0 145 39t66 153l67 514q8 64 28 111t45 74.5t60.5 44t69.5 21.5t78 5h8z" />
    <glyph glyph-name="bar" unicode="|" horiz-adv-x="368" 
d="M31 -246l258 1966h41l-258 -1966h-41z" />
    <glyph glyph-name="braceright" unicode="}" 
d="M-31 -246l6 41q53 0 88.5 7.5t70 30t55 69t30.5 118.5l68 506q13 98 50 145t99 66q-56 21 -81.5 68.5t-12.5 142.5l66 506q9 70 0 116t-36.5 69t-62.5 31.5t-88 8.5l6 41h9q54 0 94 -11t72.5 -38t44.5 -80t2 -131l-68 -514q-8 -59 0 -97.5t32.5 -57.5t54.5 -26t75 -7
l-6 -41q-93 0 -145 -39.5t-66 -153.5l-68 -514q-8 -64 -28 -111t-45 -74.5t-60.5 -44t-69.5 -21.5t-78 -5h-8z" />
    <glyph glyph-name="asciitilde" unicode="~" horiz-adv-x="1228" 
d="M868 725q56 0 111.5 25t83.5 48.5t51 49.5l29 -29q-13 -16 -35 -35.5t-57.5 -43.5t-84 -40t-98.5 -16q-64 0 -119.5 17.5t-97 42t-82.5 49t-94 42t-113 17.5q-135 0 -245 -123l-29 29q13 16 35 35.5t57.5 43.5t83.5 40t98 16q77 0 145.5 -26.5t112 -57.5t109.5 -57.5
t139 -26.5z" />
    <glyph glyph-name="nbspace" unicode="&#xa0;" horiz-adv-x="368" 
 />
    <glyph glyph-name="exclamdown" unicode="&#xa1;" horiz-adv-x="368" 
d="M49 -410h-41l156 1137h29zM174 1004l10 81h82l-10 -81h-82z" />
    <glyph glyph-name="cent" unicode="&#xa2;" horiz-adv-x="1228" 
d="M973 1720l-99 -262q282 -71 238 -424l-6 -49h-41q63 369 -205 434l-457 -1231q65 -24 154 -24h12q192 0 303.5 97t137.5 308h41l-7 -49q-23 -185 -143.5 -291t-337.5 -106q-101 0 -174 27l-100 -273h-41l104 287q-262 123 -200 610l6 49q40 321 186.5 486.5t388.5 165.5
q59 0 105 -9l94 254h41zM199 823l-6 -49q-58 -448 176 -569l452 1222q-44 7 -82 7h-12q-218 0 -354 -153t-174 -458z" />
    <glyph glyph-name="sterling" unicode="&#xa3;" horiz-adv-x="1228" 
d="M774 1569q-91 0 -164 -29t-120.5 -76.5t-80 -111t-46 -130.5t-13.5 -137q0 -87 25 -266h450l-6 -41h-438q1 -8 16.5 -112.5t18.5 -130.5t12.5 -114t10.5 -134.5t-0.5 -116t-8.5 -129.5h582l-6 -41h-983l6 41h360q8 74 8.5 149t-7 160t-14 138t-21 154t-19.5 136h-213
l6 41h201q-21 168 -21 266q0 83 16 158t52.5 142.5t89.5 117t131.5 78.5t175.5 29q206 0 304.5 -141.5t66.5 -395.5l-6 -49h-41q37 274 -48 409.5t-276 135.5z" />
    <glyph glyph-name="yen" unicode="&#xa5;" horiz-adv-x="1228" 
d="M121 922l6 41h270l-227 634h43l371 -1042l645 1042h47l-395 -634h270l-6 -41h-289l-229 -369h471l-6 -41h-494l-66 -512h-40l65 512h-489l6 41h471l-131 369h-293z" />
    <glyph glyph-name="brokenbar" unicode="&#xa6;" horiz-adv-x="368" 
d="M170 819l119 901h41l-119 -901h-41zM31 -246l119 901h40l-118 -901h-41z" />
    <glyph glyph-name="section" unicode="&#xa7;" horiz-adv-x="1024" 
d="M143 750q0 -101 86.5 -155t255.5 -54h21q179 0 282 82t103 217q0 101 -86.5 155t-255.5 54h-21q-179 0 -282 -82t-103 -217zM104 795l2 12q17 104 96.5 173.5t211.5 92.5q-121 29 -161 89t-28 153l2 16q15 127 121.5 203t272.5 76q108 0 184 -24.5t115.5 -69.5t53.5 -103
t5 -131l-4 -33h-41q26 161 -46.5 240.5t-266.5 79.5q-167 0 -262 -77t-95 -212q0 -96 73 -140.5t257 -56.5q200 -13 277.5 -87t56.5 -201l-2 -13q-17 -104 -96.5 -173.5t-211.5 -92.5q121 -29 161 -89t28 -153l-2 -16q-15 -127 -121 -202.5t-272 -75.5q-108 0 -184 24
t-116 69.5t-54 103t-5 130.5l4 33h41q-26 -160 47 -240t267 -80q167 0 261.5 77t94.5 212q0 96 -73 140.5t-257 56.5q-200 13 -277.5 87.5t-56.5 201.5z" />
    <glyph glyph-name="dieresis" unicode="&#xa8;" horiz-adv-x="1024" 
d="M502 1475l-10 -82h-82l10 82h82zM788 1475l-10 -82h-82l11 82h81z" />
    <glyph glyph-name="copyright" unicode="&#xa9;" horiz-adv-x="1843" 
d="M111 799q0 221 108.5 407.5t295 295t407.5 108.5t407.5 -108.5t295 -295t108.5 -407.5t-108.5 -407.5t-295 -295t-407.5 -108.5t-407.5 108.5t-295 295t-108.5 407.5zM152 799q0 -157 61 -299.5t164 -245.5t245.5 -164t299.5 -61t299.5 61t245.5 164t164 245.5t61 299.5
t-61 299.5t-164 245.5t-245.5 164t-299.5 61t-299.5 -61t-245.5 -164t-164 -245.5t-61 -299.5zM922 305q-199 0 -307.5 130t-108.5 343v41q0 213 108.5 343t307.5 130q187 0 277.5 -87t90.5 -222v-20h-41q0 288 -327 288q-178 0 -276.5 -118t-98.5 -314v-41
q0 -196 98.5 -314t276.5 -118q160 0 243.5 76.5t83.5 191.5h41v-20q0 -49 -21 -97.5t-62.5 -92.5t-115.5 -71.5t-169 -27.5z" />
    <glyph glyph-name="ordfeminine" unicode="&#xaa;" horiz-adv-x="772" 
d="M115 987l2 17q7 52 27.5 92t46 63.5t64.5 40.5t69.5 24.5t74.5 14.5l281 43l4 37q8 56 2 102t-25 79t-62.5 51t-111.5 18q-56 0 -98.5 -13.5t-68.5 -34.5t-44 -54.5t-26.5 -66.5t-13.5 -77h-41l2 16q33 271 290 271q276 0 240 -281l-45 -336l-16 -198h-35l8 127
q-121 -144 -317 -144q-105 0 -162 56t-45 153zM322 819q200 0 319 162l33 260l-287 -43q-47 -7 -83 -19.5t-68 -34t-52 -57t-26 -83.5l-2 -17q-8 -72 33.5 -120t132.5 -48zM61 471l7 41h557l-7 -41h-557z" />
    <glyph glyph-name="guillemotleft" unicode="&#xab;" horiz-adv-x="1024" 
d="M547 1036l-6 -55l-412 -289l336 -289l-8 -47l-367 320l6 41zM956 1036l-6 -55l-411 -289l335 -289l-8 -47l-366 320l6 41z" />
    <glyph glyph-name="logicalnot" unicode="&#xac;" horiz-adv-x="1228" 
d="M145 1106l7 41h1022l-93 -696h-41l86 655h-981z" />
    <glyph glyph-name="uni00AD" unicode="&#xad;" horiz-adv-x="655" 
d="M90 676l6 41h451l-6 -41h-451z" />
    <glyph glyph-name="registered" unicode="&#xae;" horiz-adv-x="675" 
d="M49 1362q0 120 84.5 204.5t204.5 84.5t204.5 -84.5t84.5 -204.5t-84.5 -204.5t-204.5 -84.5t-204.5 84.5t-84.5 204.5zM82 1362q0 -106 75 -181t181 -75t181 75t75 181t-75 181t-181 75t-181 -75t-75 -181zM449 1425q0 -71 -66 -90l66 -149h-35l-66 143h-88v-143h-33v352
h113q51 0 80 -25t29 -71v-17zM418 1440q0 35 -19.5 50t-64.5 15h-74v-143h74q45 0 64.5 15t19.5 50v13z" />
    <glyph glyph-name="macron" unicode="&#xaf;" horiz-adv-x="1024" 
d="M391 1413l6 41h410l-6 -41h-410z" />
    <glyph glyph-name="degree" unicode="&#xb0;" horiz-adv-x="819" 
d="M449 1053h12q104 0 183.5 68.5t92.5 181.5l2 16q15 117 -50 183.5t-177 66.5h-12q-104 0 -184 -69t-93 -181l-2 -16q-15 -116 50 -183t178 -67zM506 1610q134 0 212.5 -79t61.5 -212l-2 -16q-17 -135 -107.5 -213t-215.5 -78q-134 0 -213 79t-62 212l2 16q17 135 108 213
t216 78z" />
    <glyph glyph-name="plusminus" unicode="&#xb1;" horiz-adv-x="1228" 
d="M664 1311h41l-43 -328h489l-6 -41h-490l-43 -328h-41l43 328h-493l6 41h494zM47 369l6 41h1022l-6 -41h-1022z" />
    <glyph glyph-name="twosuperior" unicode="&#xb2;" 
d="M217 840h336l-6 -41h-481l4 30l407 371q59 54 84 92t29 80l2 21q8 80 -36.5 128t-137.5 48h-12q-105 0 -160 -55t-70 -183h-41l4 31q32 246 273 246q116 0 174 -56t49 -157l-2 -21q-6 -53 -34 -95.5t-87 -96.5l-379 -344z" />
    <glyph glyph-name="threesuperior" unicode="&#xb3;" 
d="M315 827h13q86 0 147 42.5t70 125.5l2 21q9 84 -37.5 126t-130.5 42h-121l6 41h115q83 0 143.5 40.5t67.5 116.5l2 21q8 77 -39 121.5t-137 44.5h-13q-103 0 -159 -56.5t-68 -181.5h-41l2 21q12 122 80 189t193 67q113 0 173.5 -53.5t51.5 -149.5l-2 -21q-7 -70 -52 -118
t-114 -62q62 -12 96 -62.5t27 -125.5l-2 -21q-10 -98 -85 -152.5t-181 -54.5q-127 0 -185 65t-47 181l2 21h41q-37 -228 182 -228z" />
    <glyph glyph-name="acute" unicode="&#xb4;" horiz-adv-x="1024" 
d="M782 1597h45l-227 -327h-45z" />
    <glyph glyph-name="paragraph" unicode="&#xb6;" horiz-adv-x="1024" 
d="M719 0l203 1556h-185l-202 -1556h-41l92 696h-27q-72 0 -134.5 12.5t-119.5 44t-95 79.5t-55 124t-5 172l6 50q12 99 48.5 174.5t85 121t113.5 74t127 39t132 10.5h307l-209 -1597h-41zM199 1178l-6 -50q-12 -95 6.5 -167t55.5 -113.5t91.5 -67.5t105.5 -34.5t107 -8.5
h31l106 819h-34q-417 0 -463 -378z" />
    <glyph glyph-name="periodcentered" unicode="&#xb7;" horiz-adv-x="368" 
d="M221 737l-10 -82h-82l10 82h82z" />
    <glyph glyph-name="cedilla" unicode="&#xb8;" horiz-adv-x="1232" 
d="M201 -381l16 33q23 -15 68 -26t82 -11q159 0 159 127q0 54 -36 72t-101 18l-53 -4l-19 22l74 150h39l-65 -133q10 2 38 2q67 0 113.5 -30t46.5 -97q0 -85 -56.5 -124.5t-139.5 -39.5q-42 0 -89 11.5t-77 29.5z" />
    <glyph glyph-name="onesuperior" unicode="&#xb9;" 
d="M559 799h-481l6 41h221l92 700l-237 -145l-21 37l277 170h30l-100 -762h219z" />
    <glyph glyph-name="ordmasculine" unicode="&#xba;" horiz-adv-x="839" 
d="M76 471l6 41h610l-6 -41h-610zM758 1169l6 50q22 177 -46 263.5t-188 86.5q-132 0 -223.5 -88t-113.5 -262l-7 -50q-22 -177 46 -263.5t188 -86.5q133 0 224.5 88t113.5 262zM805 1219l-6 -50q-12 -93 -43.5 -165t-70.5 -113.5t-88 -68t-91.5 -35.5t-85.5 -9
q-42 0 -82 10.5t-81 38t-69.5 70t-41 113t-1.5 159.5l7 50q12 93 43 165t70 113.5t88.5 68t91.5 35.5t85 9q42 0 82 -10.5t81 -38t69.5 -70t41 -113t1.5 -159.5z" />
    <glyph glyph-name="guillemotright" unicode="&#xbb;" horiz-adv-x="1024" 
d="M459 356l6 56l412 288l-336 289l8 47l366 -319l-6 -41zM49 356l6 56l412 288l-336 289l8 47l367 -319l-6 -41z" />
    <glyph glyph-name="onequarter" unicode="&#xbc;" horiz-adv-x="1638" 
d="M559 799h-481l6 41h221l92 700l-237 -145l-21 37l277 170h30l-100 -762h219zM158 0h-54l1385 1597h53zM1354 0h-41l28 225h-354l4 31l428 543h39l-69 -533h147l-6 -41h-148zM1407 721l-360 -457l106 2h195z" />
    <glyph glyph-name="onehalf" unicode="&#xbd;" horiz-adv-x="1638" 
d="M158 0h-54l1385 1597h53zM559 799h-481l6 41h221l92 700l-237 -145l-21 37l277 170h30l-100 -762h219zM1137 41h336l-7 -41h-481l4 31l408 370q59 54 83 91.5t29 80.5l2 21q8 80 -36.5 128t-137.5 48h-12q-105 0 -159.5 -55t-69.5 -183h-41l4 31q32 246 272 246
q116 0 174 -56t49 -157l-2 -21q-6 -53 -33.5 -95.5t-86.5 -96.5l-379 -344z" />
    <glyph glyph-name="threequarters" unicode="&#xbe;" horiz-adv-x="1638" 
d="M315 827h13q86 0 147 42.5t70 125.5l2 21q9 84 -37.5 126t-130.5 42h-121l6 41h115q83 0 143.5 40.5t67.5 116.5l2 21q8 77 -39 121.5t-137 44.5h-13q-103 0 -159 -56.5t-68 -181.5h-41l2 21q12 122 80 189t193 67q113 0 173.5 -53.5t51.5 -149.5l-2 -21q-7 -70 -52 -118
t-114 -62q62 -12 96 -62.5t27 -125.5l-2 -21q-10 -98 -85 -152.5t-181 -54.5q-127 0 -185 65t-47 181l2 21h41q-37 -228 182 -228zM158 0h-54l1385 1597h53zM1354 0h-41l28 225h-354l4 31l428 543h39l-69 -533h147l-6 -41h-148zM1407 721l-360 -457l106 2h195z" />
    <glyph glyph-name="questiondown" unicode="&#xbf;" horiz-adv-x="901" 
d="M289 -422q-87 0 -152.5 26t-104 72.5t-57 105t-18.5 128.5q0 79 23 145t61 115t84.5 94t95.5 91t91 96.5t74.5 121.5t43.5 154h29q-9 -88 -40 -162t-72 -126t-88.5 -99t-93 -91t-82.5 -91.5t-60 -111t-23 -138.5q0 -60 15.5 -110t48 -91t90 -64.5t135.5 -23.5
q178 0 286.5 132.5t131.5 371.5h41l-7 -49q-28 -232 -144 -364t-308 -132zM440 1004l11 81h81l-10 -81h-82z" />
    <glyph glyph-name="Agrave" unicode="&#xc0;" horiz-adv-x="1208" 
d="M696 1618h41l299 -1618h-41l-86 471h-684l-209 -471h-45zM711 1556l-467 -1044h657zM610 1946h45l97 -226h-45z" />
    <glyph glyph-name="Aacute" unicode="&#xc1;" horiz-adv-x="1208" 
d="M696 1618h41l299 -1618h-41l-86 471h-684l-209 -471h-45zM711 1556l-467 -1044h657zM864 1946h45l-157 -226h-45z" />
    <glyph glyph-name="Acircumflex" unicode="&#xc2;" horiz-adv-x="1208" 
d="M696 1618h41l299 -1618h-41l-86 471h-684l-209 -471h-45zM711 1556l-467 -1044h657zM555 1720h-51l235 226h41l174 -226h-47l-149 195z" />
    <glyph glyph-name="Atilde" unicode="&#xc3;" horiz-adv-x="1208" 
d="M696 1618h41l299 -1618h-41l-86 471h-684l-209 -471h-45zM711 1556l-467 -1044h657zM993 1898h37q-10 -77 -51.5 -110t-95.5 -33q-35 0 -74 18.5t-68 41t-66 41t-69 18.5q-96 0 -110 -107h-37q10 77 51.5 110.5t95.5 33.5q35 0 74 -18.5t68 -41t66 -41t69 -18.5
q43 0 72.5 22t37.5 84z" />
    <glyph glyph-name="Adieresis" unicode="&#xc4;" horiz-adv-x="1208" 
d="M696 1618h41l299 -1618h-41l-86 471h-684l-209 -471h-45zM711 1556l-467 -1044h657zM647 1874l-10 -82h-82l10 82h82zM934 1874l-10 -82h-82l10 82h82z" />
    <glyph glyph-name="Aring" unicode="&#xc5;" horiz-adv-x="1208" 
d="M711 1556l-467 -1044h657zM752 1921q-67 0 -111.5 -44t-44.5 -112q0 -59 33.5 -91t91.5 -32q67 0 111.5 44t44.5 112q0 59 -33.5 91t-91.5 32zM752 1958q75 0 119 -43t44 -117t-52 -129t-124 -63l297 -1606h-41l-86 471h-684l-209 -471h-45l721 1608q-63 8 -99 49.5
t-36 107.5q0 79 59 136t136 57z" />
    <glyph glyph-name="AE" unicode="&#xc6;" horiz-adv-x="1679" 
d="M774 1597h912l-5 -41h-850l23 -720h629l-4 -41h-623l23 -754h602l-4 -41h-639l-15 471h-579l-240 -471h-43zM793 1552l-529 -1040h557z" />
    <glyph glyph-name="Ccedilla" unicode="&#xc7;" horiz-adv-x="1214" 
d="M336 -381l16 33q23 -15 68 -26t82 -11q160 0 160 127q0 29 -11 47.5t-32 27.5t-42.5 12t-52.5 3l-53 -4l-18 22l67 138q-246 9 -341.5 197.5t-45.5 588.5l6 49q53 418 202 602.5t409 184.5q235 0 328 -125t57 -412l-7 -49h-41q20 125 14.5 218t-25.5 155.5t-65.5 100.5
t-106.5 54.5t-148 16.5h-13q-238 0 -374.5 -174.5t-186.5 -571.5l-6 -49q-50 -393 39.5 -569t325.5 -176h12q97 0 173.5 25t138 80.5t101.5 150t56 227.5h41l-6 -49q-59 -469 -498 -475l-59 -121q10 2 39 2q67 0 113 -30t46 -97q0 -85 -56.5 -124.5t-139.5 -39.5
q-42 0 -89 11.5t-77 29.5z" />
    <glyph glyph-name="Egrave" unicode="&#xc8;" horiz-adv-x="1105" 
d="M272 1597h840l-6 -41h-797l-94 -720h694l-6 -41h-694l-98 -754h798l-6 -41h-840zM600 1946h45l96 -226h-45z" />
    <glyph glyph-name="Eacute" unicode="&#xc9;" horiz-adv-x="1105" 
d="M272 1597h840l-6 -41h-797l-94 -720h694l-6 -41h-694l-98 -754h798l-6 -41h-840zM854 1946h45l-158 -226h-45z" />
    <glyph glyph-name="Ecircumflex" unicode="&#xca;" horiz-adv-x="1105" 
d="M272 1597h840l-6 -41h-797l-94 -720h694l-6 -41h-694l-98 -754h798l-6 -41h-840zM545 1720h-51l235 226h41l174 -226h-47l-149 195z" />
    <glyph glyph-name="Edieresis" unicode="&#xcb;" horiz-adv-x="1105" 
d="M272 1597h840l-6 -41h-797l-94 -720h694l-6 -41h-694l-98 -754h798l-6 -41h-840zM637 1874l-10 -82h-82l10 82h82zM924 1874l-11 -82h-82l11 82h82z" />
    <glyph glyph-name="Igrave" unicode="&#xcc;" horiz-adv-x="389" 
d="M324 1597l-209 -1597h-41l209 1597h41zM201 1946h45l96 -226h-45z" />
    <glyph glyph-name="Iacute" unicode="&#xcd;" horiz-adv-x="389" 
d="M324 1597l-209 -1597h-41l209 1597h41zM455 1946h45l-158 -226h-45z" />
    <glyph glyph-name="Icircumflex" unicode="&#xce;" horiz-adv-x="389" 
d="M324 1597l-209 -1597h-41l209 1597h41zM145 1720h-51l236 226h41l174 -226h-47l-150 195z" />
    <glyph glyph-name="Idieresis" unicode="&#xcf;" horiz-adv-x="389" 
d="M324 1597l-209 -1597h-41l209 1597h41zM524 1874l-10 -82h-82l10 82h82zM238 1874l-11 -82h-82l11 82h82z" />
    <glyph glyph-name="Eth" unicode="&#xd0;" horiz-adv-x="1372" 
d="M55 795l6 41h224l100 761h385q582 0 485 -774l-6 -49q-21 -168 -68 -300t-110.5 -220t-147 -146t-175 -83t-195.5 -25h-377l105 795h-226zM223 41h330q127 0 231.5 39.5t191.5 124t146 228.5t84 341l6 49q22 161 11.5 282.5t-43.5 207.5t-93.5 140t-138 78.5t-178.5 24.5
h-348l-94 -720h471l-6 -41h-471z" />
    <glyph glyph-name="Ntilde" unicode="&#xd1;" horiz-adv-x="1310" 
d="M1016 66l37 292l161 1239h41l-208 -1597h-46l-698 1532l-37 -293l-162 -1239h-41l209 1597h45zM1044 1898h37q-10 -77 -51.5 -110t-95.5 -33q-35 0 -74 18.5t-68 41t-66 41t-69 18.5q-96 0 -110 -107h-37q10 77 51.5 110.5t95.5 33.5q35 0 74 -18.5t68 -41t66 -41
t69 -18.5q43 0 72.5 22t37.5 84z" />
    <glyph glyph-name="Ograve" unicode="&#xd2;" horiz-adv-x="1290" 
d="M551 29h12q158 0 266 73t179.5 238t105.5 434l6 49q50 391 -44 568.5t-331 177.5h-12q-236 0 -368.5 -173.5t-182.5 -572.5l-6 -49q-50 -391 44 -568t331 -177zM739 1610q261 0 368.5 -189.5t55.5 -597.5l-6 -49q-36 -283 -113.5 -457t-196 -251.5t-290.5 -77.5
q-262 0 -369 189.5t-55 596.5l6 49q53 420 197.5 603.5t402.5 183.5zM651 1946h45l97 -226h-45z" />
    <glyph glyph-name="Oacute" unicode="&#xd3;" horiz-adv-x="1290" 
d="M551 29h12q158 0 266 73t179.5 238t105.5 434l6 49q50 391 -44 568.5t-331 177.5h-12q-236 0 -368.5 -173.5t-182.5 -572.5l-6 -49q-50 -391 44 -568t331 -177zM739 1610q261 0 368.5 -189.5t55.5 -597.5l-6 -49q-36 -283 -113.5 -457t-196 -251.5t-290.5 -77.5
q-262 0 -369 189.5t-55 596.5l6 49q53 420 197.5 603.5t402.5 183.5zM905 1946h45l-157 -226h-45z" />
    <glyph glyph-name="Ocircumflex" unicode="&#xd4;" horiz-adv-x="1290" 
d="M551 29h12q158 0 266 73t179.5 238t105.5 434l6 49q50 391 -44 568.5t-331 177.5h-12q-236 0 -368.5 -173.5t-182.5 -572.5l-6 -49q-50 -391 44 -568t331 -177zM739 1610q261 0 368.5 -189.5t55.5 -597.5l-6 -49q-36 -283 -113.5 -457t-196 -251.5t-290.5 -77.5
q-262 0 -369 189.5t-55 596.5l6 49q53 420 197.5 603.5t402.5 183.5zM596 1720h-51l235 226h41l174 -226h-47l-149 195z" />
    <glyph glyph-name="Otilde" unicode="&#xd5;" horiz-adv-x="1290" 
d="M551 29h12q158 0 266 73t179.5 238t105.5 434l6 49q50 391 -44 568.5t-331 177.5h-12q-236 0 -368.5 -173.5t-182.5 -572.5l-6 -49q-50 -391 44 -568t331 -177zM739 1610q261 0 368.5 -189.5t55.5 -597.5l-6 -49q-36 -283 -113.5 -457t-196 -251.5t-290.5 -77.5
q-262 0 -369 189.5t-55 596.5l6 49q53 420 197.5 603.5t402.5 183.5zM1034 1898h37q-10 -77 -51.5 -110t-95.5 -33q-35 0 -74 18.5t-68 41t-66 41t-69 18.5q-96 0 -110 -107h-37q10 77 51.5 110.5t95.5 33.5q35 0 74 -18.5t68 -41t66 -41t69 -18.5q43 0 72.5 22t37.5 84z
" />
    <glyph glyph-name="Odieresis" unicode="&#xd6;" horiz-adv-x="1290" 
d="M551 29h12q158 0 266 73t179.5 238t105.5 434l6 49q50 391 -44 568.5t-331 177.5h-12q-236 0 -368.5 -173.5t-182.5 -572.5l-6 -49q-50 -391 44 -568t331 -177zM739 1610q261 0 368.5 -189.5t55.5 -597.5l-6 -49q-36 -283 -113.5 -457t-196 -251.5t-290.5 -77.5
q-262 0 -369 189.5t-55 596.5l6 49q53 420 197.5 603.5t402.5 183.5zM688 1874l-10 -82h-82l10 82h82zM975 1874l-10 -82h-82l10 82h82z" />
    <glyph glyph-name="multiply" unicode="&#xd7;" horiz-adv-x="1228" 
d="M158 1290l30 31l428 -492l555 492l31 -31l-555 -491l426 -492l-31 -31l-426 492l-557 -492l-30 31l557 492z" />
    <glyph glyph-name="Oslash" unicode="&#xd8;" horiz-adv-x="1282" 
d="M176 774q-45 -357 31 -538l864 1165q-92 168 -326 168h-12q-236 0 -368.5 -173.5t-182.5 -572.5zM80 0h-47l145 197q-93 194 -45 577l6 49q53 420 197.5 603.5t402.5 183.5q250 0 359 -172l119 159h47l-146 -196q93 -194 45 -578l-6 -49q-36 -283 -113.5 -457
t-196 -251.5t-290.5 -77.5q-249 0 -358 172zM1114 774l6 49q46 359 -30 539l-865 -1165q92 -168 326 -168h12q158 0 266 73t179.5 238t105.5 434z" />
    <glyph glyph-name="Ugrave" unicode="&#xd9;" horiz-adv-x="1269" 
d="M547 -12q-75 0 -135 9.5t-114.5 32.5t-90.5 60.5t-62 93t-30 131t6 174.5l145 1108h41l-143 -1097q-10 -93 -8 -164t24 -123t53.5 -87.5t80.5 -57t105 -30.5t128 -9q108 0 186.5 22t142 75t103 146t57.5 230l144 1095h41l-146 -1108q-19 -145 -63 -244.5t-113.5 -155
t-154 -78.5t-197.5 -23zM641 1946h45l96 -226h-45z" />
    <glyph glyph-name="Uacute" unicode="&#xda;" horiz-adv-x="1269" 
d="M547 -12q-75 0 -135 9.5t-114.5 32.5t-90.5 60.5t-62 93t-30 131t6 174.5l145 1108h41l-143 -1097q-10 -93 -8 -164t24 -123t53.5 -87.5t80.5 -57t105 -30.5t128 -9q108 0 186.5 22t142 75t103 146t57.5 230l144 1095h41l-146 -1108q-19 -145 -63 -244.5t-113.5 -155
t-154 -78.5t-197.5 -23zM895 1946h45l-158 -226h-45z" />
    <glyph glyph-name="Ucircumflex" unicode="&#xdb;" horiz-adv-x="1269" 
d="M547 -12q-75 0 -135 9.5t-114.5 32.5t-90.5 60.5t-62 93t-30 131t6 174.5l145 1108h41l-143 -1097q-10 -93 -8 -164t24 -123t53.5 -87.5t80.5 -57t105 -30.5t128 -9q108 0 186.5 22t142 75t103 146t57.5 230l144 1095h41l-146 -1108q-19 -145 -63 -244.5t-113.5 -155
t-154 -78.5t-197.5 -23zM586 1720h-51l235 226h41l174 -226h-47l-150 195z" />
    <glyph glyph-name="Udieresis" unicode="&#xdc;" horiz-adv-x="1269" 
d="M547 -12q-75 0 -135 9.5t-114.5 32.5t-90.5 60.5t-62 93t-30 131t6 174.5l145 1108h41l-143 -1097q-10 -93 -8 -164t24 -123t53.5 -87.5t80.5 -57t105 -30.5t128 -9q108 0 186.5 22t142 75t103 146t57.5 230l144 1095h41l-146 -1108q-19 -145 -63 -244.5t-113.5 -155
t-154 -78.5t-197.5 -23zM678 1874l-10 -82h-82l10 82h82zM965 1874l-11 -82h-82l11 82h82z" />
    <glyph glyph-name="Yacute" unicode="&#xdd;" horiz-adv-x="1105" 
d="M508 518l608 1079h47l-639 -1126l-61 -471h-41l61 471l-344 1126h43zM803 1946h45l-158 -226h-45z" />
    <glyph glyph-name="Thorn" unicode="&#xde;" horiz-adv-x="1114" 
d="M156 389h352q416 0 463 379l6 49q12 95 -7 167t-55.5 113.5t-91.5 67.5t-106 34.5t-107 8.5h-348zM313 1597l-45 -348h342q72 0 135 -12.5t120 -44t95 -79.5t55 -124t5 -172l-6 -49q-12 -99 -48.5 -174.5t-85 -121.5t-113.5 -74.5t-127 -39t-132 -10.5h-358l-46 -348h-41
l209 1597h41z" />
    <glyph glyph-name="germandbls" unicode="&#xdf;" horiz-adv-x="1126" 
d="M535 805l4 31q100 51 167.5 97.5t120.5 105t78 129.5t25 159q0 283 -295 283q-170 0 -256.5 -91.5t-110.5 -269.5l-164 -1249h-41l164 1257q24 188 124 291t284 103q102 0 173 -30t108 -84.5t48.5 -124t0.5 -155.5l-2 -16q-16 -129 -110 -228t-269 -196l98 -69
q76 -55 117 -87t86.5 -76t65.5 -80t30.5 -82.5t3.5 -100.5l-2 -17q-7 -61 -31 -115t-65.5 -100.5t-109 -74t-152.5 -27.5q-88 0 -152 26.5t-96 71.5t-44 97.5t-5 111.5l4 33h41q-25 -131 36.5 -215t215.5 -84q147 0 235 89.5t88 241.5q0 54 -19.5 100t-61 88t-86 77
t-113.5 84q-7 4 -10.5 6.5t-8.5 6.5t-10 7z" />
    <glyph glyph-name="agrave" unicode="&#xe0;" horiz-adv-x="993" 
d="M37 262l4 33q8 65 33.5 114t57 78.5t82.5 51t94 31.5t108 20l377 57l10 78q6 55 7 104.5t-14.5 91t-44 72t-82.5 47.5t-130 17q-78 0 -136.5 -17.5t-95 -45.5t-61.5 -73.5t-37.5 -92.5t-20.5 -111h-41l5 33q8 59 21 105.5t41.5 93.5t69 78.5t106 51t149.5 19.5
q83 0 143 -18t94.5 -50.5t54 -77t20.5 -97t-5 -110.5l-66 -503l-20 -242h-33l10 176q-151 -188 -413 -188q-138 0 -220.5 71t-66.5 203zM324 29q73 0 137.5 15t104.5 34.5t78.5 51.5t54.5 50.5t38 46.5l49 379l-391 -59q-55 -9 -91 -17.5t-78.5 -26.5t-68.5 -43t-47 -67
t-28 -98l-4 -33q-12 -103 52 -168t194 -65zM403 1597h46l141 -327h-45z" />
    <glyph glyph-name="aacute" unicode="&#xe1;" horiz-adv-x="993" 
d="M37 262l4 33q8 65 33.5 114t57 78.5t82.5 51t94 31.5t108 20l377 57l10 78q6 55 7 104.5t-14.5 91t-44 72t-82.5 47.5t-130 17q-78 0 -136.5 -17.5t-95 -45.5t-61.5 -73.5t-37.5 -92.5t-20.5 -111h-41l5 33q8 59 21 105.5t41.5 93.5t69 78.5t106 51t149.5 19.5
q83 0 143 -18t94.5 -50.5t54 -77t20.5 -97t-5 -110.5l-66 -503l-20 -242h-33l10 176q-151 -188 -413 -188q-138 0 -220.5 71t-66.5 203zM324 29q73 0 137.5 15t104.5 34.5t78.5 51.5t54.5 50.5t38 46.5l49 379l-391 -59q-55 -9 -91 -17.5t-78.5 -26.5t-68.5 -43t-47 -67
t-28 -98l-4 -33q-12 -103 52 -168t194 -65zM772 1597h45l-227 -327h-45z" />
    <glyph glyph-name="acircumflex" unicode="&#xe2;" horiz-adv-x="993" 
d="M37 262l4 33q8 65 33.5 114t57 78.5t82.5 51t94 31.5t108 20l377 57l10 78q6 55 7 104.5t-14.5 91t-44 72t-82.5 47.5t-130 17q-78 0 -136.5 -17.5t-95 -45.5t-61.5 -73.5t-37.5 -92.5t-20.5 -111h-41l5 33q8 59 21 105.5t41.5 93.5t69 78.5t106 51t149.5 19.5
q83 0 143 -18t94.5 -50.5t54 -77t20.5 -97t-5 -110.5l-66 -503l-20 -242h-33l10 176q-151 -188 -413 -188q-138 0 -220.5 71t-66.5 203zM324 29q73 0 137.5 15t104.5 34.5t78.5 51.5t54.5 50.5t38 46.5l49 379l-391 -59q-55 -9 -91 -17.5t-78.5 -26.5t-68.5 -43t-47 -67
t-28 -98l-4 -33q-12 -103 52 -168t194 -65zM844 1270h-49l-187 291l-264 -291h-53l299 327h41z" />
    <glyph glyph-name="atilde" unicode="&#xe3;" horiz-adv-x="993" 
d="M37 262l4 33q8 65 33.5 114t57 78.5t82.5 51t94 31.5t108 20l377 57l10 78q6 55 7 104.5t-14.5 91t-44 72t-82.5 47.5t-130 17q-78 0 -136.5 -17.5t-95 -45.5t-61.5 -73.5t-37.5 -92.5t-20.5 -111h-41l5 33q8 59 21 105.5t41.5 93.5t69 78.5t106 51t149.5 19.5
q83 0 143 -18t94.5 -50.5t54 -77t20.5 -97t-5 -110.5l-66 -503l-20 -242h-33l10 176q-151 -188 -413 -188q-138 0 -220.5 71t-66.5 203zM324 29q73 0 137.5 15t104.5 34.5t78.5 51.5t54.5 50.5t38 46.5l49 379l-391 -59q-55 -9 -91 -17.5t-78.5 -26.5t-68.5 -43t-47 -67
t-28 -98l-4 -33q-12 -103 52 -168t194 -65zM838 1499h36q-10 -77 -51.5 -110t-95.5 -33q-35 0 -74 18.5t-67.5 41t-65.5 41t-69 18.5q-97 0 -111 -107h-37q10 77 52 110t96 33q35 0 74 -18.5t67.5 -40.5t65.5 -40.5t69 -18.5q43 0 73 22t38 84z" />
    <glyph glyph-name="adieresis" unicode="&#xe4;" horiz-adv-x="993" 
d="M37 262l4 33q8 65 33.5 114t57 78.5t82.5 51t94 31.5t108 20l377 57l10 78q6 55 7 104.5t-14.5 91t-44 72t-82.5 47.5t-130 17q-78 0 -136.5 -17.5t-95 -45.5t-61.5 -73.5t-37.5 -92.5t-20.5 -111h-41l5 33q8 59 21 105.5t41.5 93.5t69 78.5t106 51t149.5 19.5
q83 0 143 -18t94.5 -50.5t54 -77t20.5 -97t-5 -110.5l-66 -503l-20 -242h-33l10 176q-151 -188 -413 -188q-138 0 -220.5 71t-66.5 203zM324 29q73 0 137.5 15t104.5 34.5t78.5 51.5t54.5 50.5t38 46.5l49 379l-391 -59q-55 -9 -91 -17.5t-78.5 -26.5t-68.5 -43t-47 -67
t-28 -98l-4 -33q-12 -103 52 -168t194 -65zM492 1475l-11 -82h-82l11 82h82zM778 1475l-10 -82h-82l10 82h82z" />
    <glyph glyph-name="aring" unicode="&#xe5;" horiz-adv-x="993" 
d="M37 262l4 33q8 65 33.5 114t57 78.5t82.5 51t94 31.5t108 20l377 57l10 78q6 55 7 104.5t-14.5 91t-44 72t-82.5 47.5t-130 17q-78 0 -136.5 -17.5t-95 -45.5t-61.5 -73.5t-37.5 -92.5t-20.5 -111h-41l5 33q8 59 21 105.5t41.5 93.5t69 78.5t106 51t149.5 19.5
q83 0 143 -18t94.5 -50.5t54 -77t20.5 -97t-5 -110.5l-66 -503l-20 -242h-33l10 176q-151 -188 -413 -188q-138 0 -220.5 71t-66.5 203zM324 29q73 0 137.5 15t104.5 34.5t78.5 51.5t54.5 50.5t38 46.5l49 379l-391 -59q-55 -9 -91 -17.5t-78.5 -26.5t-68.5 -43t-47 -67
t-28 -98l-4 -33q-12 -103 52 -168t194 -65zM604 1573q-67 0 -111 -44t-44 -112q0 -59 33 -91t91 -32q67 0 111.5 44t44.5 112q0 59 -33.5 91t-91.5 32zM604 1610q75 0 119.5 -43.5t44.5 -116.5q0 -79 -59 -136t-136 -57q-75 0 -119 43t-44 117q0 79 58.5 136t135.5 57z" />
    <glyph glyph-name="ae" unicode="&#xe6;" horiz-adv-x="1771" 
d="M324 29q307 0 458 264q-20 110 -6 225l10 88l-391 -59q-57 -9 -91.5 -17t-78 -26t-69 -42.5t-46.5 -67t-28 -99.5l-4 -33q-12 -103 52 -168t194 -65zM1174 -12q-147 0 -245.5 71.5t-133.5 190.5q-27 -41 -53 -73.5t-68.5 -69.5t-89.5 -61.5t-114.5 -41t-145.5 -16.5
q-138 0 -220.5 71t-66.5 203l4 33q11 86 40.5 142t89.5 86t101.5 40.5t132.5 24.5q7 1 11 2l377 57l10 78q6 56 7 105.5t-14.5 91t-44 71.5t-82.5 47t-130 17q-78 0 -136.5 -17.5t-95 -45.5t-61.5 -73.5t-37.5 -92.5t-20.5 -111h-41l5 33q8 59 21 105.5t41.5 93.5t69 78.5
t106 51t149.5 19.5q76 0 133 -16t91 -42t54 -65t26.5 -80t4.5 -92q57 148 172 221.5t254 73.5q94 0 164.5 -26.5t113.5 -74.5t68 -115.5t27.5 -150t-7.5 -176.5l-4 -33h-819q-29 -228 69 -360.5t288 -132.5q102 0 178.5 25.5t121.5 71t69 100.5t30 122h41l-4 -33
q-7 -63 -33.5 -118t-75.5 -103.5t-133 -77t-194 -28.5zM1274 1057q-186 0 -303.5 -131t-147.5 -363h779q16 108 3 199t-50 156.5t-109 102t-172 36.5z" />
    <glyph glyph-name="ccedilla" unicode="&#xe7;" horiz-adv-x="1034" 
d="M238 -381l16 33q23 -15 67.5 -26t81.5 -11q160 0 160 127q0 54 -36 72t-101 18l-53 -4l-19 22l68 138q-192 9 -282.5 149.5t-59.5 380.5l6 49q31 252 155.5 391.5t327.5 139.5q74 0 133.5 -14.5t98 -40t66 -60t39 -74t16 -83.5t-3.5 -87l-5 -32h-41q26 162 -46 256
t-257 94t-298.5 -129.5t-143.5 -360.5l-6 -49q-29 -229 57.5 -359t272.5 -130q172 0 265 88t111 241h41l-4 -32q-7 -61 -33 -117.5t-72.5 -107t-123.5 -81.5t-174 -32l-60 -121q10 2 39 2q67 0 113.5 -30t46.5 -97q0 -85 -57 -124.5t-140 -39.5q-98 0 -165 41z" />
    <glyph glyph-name="egrave" unicode="&#xe8;" horiz-adv-x="1085" 
d="M940 522h-819q-29 -228 69 -360.5t287 -132.5q102 0 179 25.5t122 71t69 100.5t30 122h41l-5 -33q-7 -63 -33.5 -118t-75.5 -103.5t-133 -77t-194 -28.5q-208 0 -317.5 142t-79.5 388l6 49q31 251 159.5 391t332.5 140q94 0 164.5 -26.5t113.5 -74.5t68 -115.5t27.5 -150
t-7.5 -176.5zM578 1057q-186 0 -303.5 -131t-147.5 -363h778q29 228 -50.5 361t-276.5 133zM444 1597h45l142 -327h-45z" />
    <glyph glyph-name="eacute" unicode="&#xe9;" horiz-adv-x="1085" 
d="M940 522h-819q-29 -228 69 -360.5t287 -132.5q102 0 179 25.5t122 71t69 100.5t30 122h41l-5 -33q-7 -63 -33.5 -118t-75.5 -103.5t-133 -77t-194 -28.5q-208 0 -317.5 142t-79.5 388l6 49q31 251 159.5 391t332.5 140q94 0 164.5 -26.5t113.5 -74.5t68 -115.5t27.5 -150
t-7.5 -176.5zM578 1057q-186 0 -303.5 -131t-147.5 -363h778q29 228 -50.5 361t-276.5 133zM813 1597h45l-227 -327h-45z" />
    <glyph glyph-name="ecircumflex" unicode="&#xea;" horiz-adv-x="1085" 
d="M940 522h-819q-29 -228 69 -360.5t287 -132.5q102 0 179 25.5t122 71t69 100.5t30 122h41l-5 -33q-7 -63 -33.5 -118t-75.5 -103.5t-133 -77t-194 -28.5q-208 0 -317.5 142t-79.5 388l6 49q31 251 159.5 391t332.5 140q94 0 164.5 -26.5t113.5 -74.5t68 -115.5t27.5 -150
t-7.5 -176.5zM578 1057q-186 0 -303.5 -131t-147.5 -363h778q29 228 -50.5 361t-276.5 133zM885 1270h-49l-187 291l-264 -291h-53l299 327h41z" />
    <glyph glyph-name="edieresis" unicode="&#xeb;" horiz-adv-x="1085" 
d="M940 522h-819q-29 -228 69 -360.5t287 -132.5q102 0 179 25.5t122 71t69 100.5t30 122h41l-5 -33q-7 -63 -33.5 -118t-75.5 -103.5t-133 -77t-194 -28.5q-208 0 -317.5 142t-79.5 388l6 49q31 251 159.5 391t332.5 140q94 0 164.5 -26.5t113.5 -74.5t68 -115.5t27.5 -150
t-7.5 -176.5zM578 1057q-186 0 -303.5 -131t-147.5 -363h778q29 228 -50.5 361t-276.5 133zM532 1475l-10 -82h-82l11 82h81zM819 1475l-10 -82h-82l10 82h82z" />
    <glyph glyph-name="igrave" unicode="&#xec;" horiz-adv-x="368" 
d="M63 0l142 1085h41l-142 -1085h-41zM86 1597h45l141 -327h-45z" />
    <glyph glyph-name="iacute" unicode="&#xed;" horiz-adv-x="368" 
d="M63 0l142 1085h41l-142 -1085h-41zM455 1597h45l-228 -327h-45z" />
    <glyph glyph-name="icircumflex" unicode="&#xee;" horiz-adv-x="368" 
d="M63 0l142 1085h41l-142 -1085h-41zM526 1270h-49l-186 291l-264 -291h-54l299 327h41z" />
    <glyph glyph-name="idieresis" unicode="&#xef;" horiz-adv-x="368" 
d="M63 0l142 1085h41l-142 -1085h-41zM174 1475l-10 -82h-82l10 82h82zM461 1475l-10 -82h-82l10 82h82z" />
    <glyph glyph-name="eth" unicode="&#xf0;" horiz-adv-x="1077" 
d="M451 29q185 0 298.5 129t143.5 360l6 49q29 229 -57.5 359.5t-272.5 130.5q-185 0 -298.5 -129.5t-143.5 -360.5l-6 -49q-29 -229 57.5 -359t272.5 -130zM866 1651l-8 -49l-219 -121q90 -72 166 -176q196 -267 135 -738l-6 -49q-31 -252 -155.5 -391t-327.5 -139
q-205 0 -303.5 140.5t-67.5 389.5l6 49q31 252 155.5 391.5t327.5 139.5q131 0 218 -59t124 -169q-21 247 -135 406q-66 95 -180 180l-336 -182l8 49l291 160q-151 100 -334 127l6 41q204 -26 371 -144z" />
    <glyph glyph-name="ntilde" unicode="&#xf1;" horiz-adv-x="1003" 
d="M780 0h-41l101 766q39 291 -260 291q-229 0 -383 -199l-113 -858h-41l111 844l20 241h33l-10 -176q149 189 383 189q161 0 242.5 -78.5t60.5 -239.5zM848 1499h37q-10 -77 -52 -110t-96 -33q-35 0 -74 18.5t-67.5 41t-65.5 41t-69 18.5q-97 0 -111 -107h-37q10 77 52 110
t96 33q35 0 74 -18.5t67.5 -40.5t65.5 -40.5t69 -18.5q43 0 73 22t38 84z" />
    <glyph glyph-name="ograve" unicode="&#xf2;" horiz-adv-x="1077" 
d="M451 -12q-205 0 -303.5 140.5t-67.5 389.5l6 49q31 252 155.5 391.5t327.5 139.5q205 0 303.5 -141t67.5 -390l-6 -49q-31 -252 -155.5 -391t-327.5 -139zM451 29q185 0 298.5 129t143.5 360l6 49q29 229 -57.5 359.5t-272.5 130.5q-185 0 -298.5 -129.5t-143.5 -360.5
l-6 -49q-29 -229 57.5 -359t272.5 -130zM440 1597h45l142 -327h-45z" />
    <glyph glyph-name="oacute" unicode="&#xf3;" horiz-adv-x="1077" 
d="M451 -12q-205 0 -303.5 140.5t-67.5 389.5l6 49q31 252 155.5 391.5t327.5 139.5q205 0 303.5 -141t67.5 -390l-6 -49q-31 -252 -155.5 -391t-327.5 -139zM451 29q185 0 298.5 129t143.5 360l6 49q29 229 -57.5 359.5t-272.5 130.5q-185 0 -298.5 -129.5t-143.5 -360.5
l-6 -49q-29 -229 57.5 -359t272.5 -130zM809 1597h45l-227 -327h-45z" />
    <glyph glyph-name="ocircumflex" unicode="&#xf4;" horiz-adv-x="1077" 
d="M451 -12q-205 0 -303.5 140.5t-67.5 389.5l6 49q31 252 155.5 391.5t327.5 139.5q205 0 303.5 -141t67.5 -390l-6 -49q-31 -252 -155.5 -391t-327.5 -139zM451 29q185 0 298.5 129t143.5 360l6 49q29 229 -57.5 359.5t-272.5 130.5q-185 0 -298.5 -129.5t-143.5 -360.5
l-6 -49q-29 -229 57.5 -359t272.5 -130zM881 1270h-50l-186 291l-264 -291h-53l299 327h41z" />
    <glyph glyph-name="otilde" unicode="&#xf5;" horiz-adv-x="1077" 
d="M451 -12q-205 0 -303.5 140.5t-67.5 389.5l6 49q31 252 155.5 391.5t327.5 139.5q205 0 303.5 -141t67.5 -390l-6 -49q-31 -252 -155.5 -391t-327.5 -139zM451 29q185 0 298.5 129t143.5 360l6 49q29 229 -57.5 359.5t-272.5 130.5q-185 0 -298.5 -129.5t-143.5 -360.5
l-6 -49q-29 -229 57.5 -359t272.5 -130zM874 1499h37q-10 -77 -51.5 -110t-95.5 -33q-35 0 -74 18.5t-68 41t-66 41t-69 18.5q-96 0 -110 -107h-37q10 77 51.5 110t95.5 33q44 0 93.5 -29.5t96.5 -59t87 -29.5q43 0 72.5 22t37.5 84z" />
    <glyph glyph-name="odieresis" unicode="&#xf6;" horiz-adv-x="1077" 
d="M451 -12q-205 0 -303.5 140.5t-67.5 389.5l6 49q31 252 155.5 391.5t327.5 139.5q205 0 303.5 -141t67.5 -390l-6 -49q-31 -252 -155.5 -391t-327.5 -139zM451 29q185 0 298.5 129t143.5 360l6 49q29 229 -57.5 359.5t-272.5 130.5q-185 0 -298.5 -129.5t-143.5 -360.5
l-6 -49q-29 -229 57.5 -359t272.5 -130zM528 1475l-10 -82h-82l10 82h82zM815 1475l-10 -82h-82l10 82h82z" />
    <glyph glyph-name="divide" unicode="&#xf7;" horiz-adv-x="1228" 
d="M725 1311l-12 -82h-82l12 82h82zM600 369l-10 -82h-82l10 82h82zM100 778l6 41h1022l-6 -41h-1022z" />
    <glyph glyph-name="oslash" unicode="&#xf8;" horiz-adv-x="1077" 
d="M121 518q-27 -213 45 -342l665 766q-86 115 -262 115q-185 0 -298.5 -129.5t-143.5 -360.5zM63 0h-51l125 143q-87 137 -57 375l6 49q31 252 155.5 391.5t327.5 139.5q190 0 291 -123l96 110h52l-125 -143q87 -137 57 -375l-6 -49q-31 -252 -155.5 -391t-327.5 -139
q-190 0 -291 123zM893 518l6 49q27 213 -45 342l-666 -766q86 -114 263 -114q185 0 298.5 129t143.5 360z" />
    <glyph glyph-name="ugrave" unicode="&#xf9;" horiz-adv-x="1003" 
d="M164 1085h41l-101 -766q-39 -290 261 -290q230 0 383 198l112 858h41l-110 -843l-21 -242h-33l11 176q-149 -188 -383 -188q-161 0 -243 78t-61 239zM393 1597h45l142 -327h-45z" />
    <glyph glyph-name="uacute" unicode="&#xfa;" horiz-adv-x="1003" 
d="M164 1085h41l-101 -766q-39 -290 261 -290q230 0 383 198l112 858h41l-110 -843l-21 -242h-33l11 176q-149 -188 -383 -188q-161 0 -243 78t-61 239zM762 1597h45l-227 -327h-45z" />
    <glyph glyph-name="ucircumflex" unicode="&#xfb;" horiz-adv-x="1003" 
d="M164 1085h41l-101 -766q-39 -290 261 -290q230 0 383 198l112 858h41l-110 -843l-21 -242h-33l11 176q-149 -188 -383 -188q-161 0 -243 78t-61 239zM834 1270h-50l-186 291l-264 -291h-53l299 327h41z" />
    <glyph glyph-name="udieresis" unicode="&#xfc;" horiz-adv-x="1003" 
d="M164 1085h41l-101 -766q-39 -290 261 -290q230 0 383 198l112 858h41l-110 -843l-21 -242h-33l11 176q-149 -188 -383 -188q-161 0 -243 78t-61 239zM481 1475l-10 -82h-82l10 82h82zM768 1475l-10 -82h-82l10 82h82z" />
    <glyph glyph-name="yacute" unicode="&#xfd;" horiz-adv-x="942" 
d="M381 90l500 995h47l-535 -1050l-219 -445h-45l227 445l-260 1050h43zM741 1597h45l-227 -327h-45z" />
    <glyph glyph-name="thorn" unicode="&#xfe;" horiz-adv-x="1044" 
d="M256 1638h41l-94 -716q50 72 139 124t207 52q203 0 294 -139.5t60 -391.5l-6 -49q-31 -254 -151 -392t-322 -138q-121 0 -202 51.5t-118 120.5l-75 -570h-41zM195 858l-84 -639q40 -78 117 -134t196 -56q184 0 293 128t139 361l6 49q30 232 -49.5 361t-263.5 129
q-211 0 -354 -199z" />
    <glyph glyph-name="ydieresis" unicode="&#xff;" horiz-adv-x="942" 
d="M381 90l500 995h47l-535 -1050l-219 -445h-45l227 445l-260 1050h43zM461 1475l-10 -82h-82l10 82h82zM748 1475l-11 -82h-82l11 82h82z" />
    <glyph glyph-name="Amacron" unicode="&#x100;" horiz-adv-x="1208" 
d="M696 1618h41l299 -1618h-41l-86 471h-684l-209 -471h-45zM711 1556l-467 -1044h657zM537 1812l6 41h409l-6 -41h-409z" />
    <glyph glyph-name="amacron" unicode="&#x101;" horiz-adv-x="993" 
d="M37 262l4 33q8 65 33.5 114t57 78.5t82.5 51t94 31.5t108 20l377 57l10 78q6 55 7 104.5t-14.5 91t-44 72t-82.5 47.5t-130 17q-78 0 -136.5 -17.5t-95 -45.5t-61.5 -73.5t-37.5 -92.5t-20.5 -111h-41l5 33q8 59 21 105.5t41.5 93.5t69 78.5t106 51t149.5 19.5
q83 0 143 -18t94.5 -50.5t54 -77t20.5 -97t-5 -110.5l-66 -503l-20 -242h-33l10 176q-151 -188 -413 -188q-138 0 -220.5 71t-66.5 203zM324 29q73 0 137.5 15t104.5 34.5t78.5 51.5t54.5 50.5t38 46.5l49 379l-391 -59q-55 -9 -91 -17.5t-78.5 -26.5t-68.5 -43t-47 -67
t-28 -98l-4 -33q-12 -103 52 -168t194 -65zM381 1413l6 41h410l-6 -41h-410z" />
    <glyph glyph-name="Abreve" unicode="&#x102;" horiz-adv-x="1208" 
d="M696 1618h41l299 -1618h-41l-86 471h-684l-209 -471h-45zM711 1556l-467 -1044h657zM727 1745q108 0 178 54t82 147h39q-15 -109 -93.5 -173.5t-203.5 -64.5q-127 0 -188.5 64.5t-46.5 173.5h34q-12 -94 39 -147.5t160 -53.5z" />
    <glyph glyph-name="abreve" unicode="&#x103;" horiz-adv-x="993" 
d="M37 262l4 33q8 65 33.5 114t57 78.5t82.5 51t94 31.5t108 20l377 57l10 78q6 55 7 104.5t-14.5 91t-44 72t-82.5 47.5t-130 17q-78 0 -136.5 -17.5t-95 -45.5t-61.5 -73.5t-37.5 -92.5t-20.5 -111h-41l5 33q8 59 21 105.5t41.5 93.5t69 78.5t106 51t149.5 19.5
q83 0 143 -18t94.5 -50.5t54 -77t20.5 -97t-5 -110.5l-66 -503l-20 -242h-33l10 176q-151 -188 -413 -188q-138 0 -220.5 71t-66.5 203zM324 29q73 0 137.5 15t104.5 34.5t78.5 51.5t54.5 50.5t38 46.5l49 379l-391 -59q-55 -9 -91 -17.5t-78.5 -26.5t-68.5 -43t-47 -67
t-28 -98l-4 -33q-12 -103 52 -168t194 -65zM567 1257q-101 0 -166 47.5t-88 122.5t-10 170h35q-16 -133 40 -218t189 -85q135 0 215.5 85.5t96.5 217.5h39q-20 -148 -110.5 -244t-240.5 -96z" />
    <glyph glyph-name="Aogonek" unicode="&#x104;" horiz-adv-x="1208" 
d="M711 1556l-467 -1044h657zM1067 -348l8 -35q-76 -39 -162 -39q-74 0 -121 40t-47 118q0 202 246 284l-82 451h-684l-209 -471h-45l725 1618h41l299 -1618q-37 -12 -66.5 -24.5t-66.5 -35t-61.5 -49t-42 -67t-17.5 -88.5q0 -63 36 -92t95 -29q78 0 154 37z" />
    <glyph glyph-name="aogonek" unicode="&#x105;" horiz-adv-x="993" 
d="M324 29q73 0 137.5 15t104.5 34.5t78.5 51.5t54.5 50.5t38 46.5l49 379l-391 -59q-55 -9 -91 -17.5t-78.5 -26.5t-68.5 -43t-47 -67t-28 -98l-4 -33q-12 -103 52 -168t194 -65zM791 -348l8 -35q-76 -39 -162 -39q-74 0 -121 40t-47 118q0 204 258 289l10 151
q-151 -188 -413 -188q-138 0 -220.5 71t-66.5 203l4 33q8 65 33.5 114t57 78.5t82.5 51t94 31.5t108 20l377 57l10 78q6 55 7 104.5t-14.5 91t-44 72t-82.5 47.5t-130 17q-78 0 -136.5 -17.5t-95 -45.5t-61.5 -73.5t-37.5 -92.5t-20.5 -111h-41l5 33q8 59 21 105.5
t41.5 93.5t69 78.5t106 51t149.5 19.5q83 0 143 -18t94.5 -50.5t54 -77t20.5 -97t-5 -110.5l-66 -503l-20 -242q-37 -12 -66.5 -24.5t-66.5 -35t-61.5 -49t-42 -67t-17.5 -88.5q0 -63 36 -92t95 -29q78 0 154 37z" />
    <glyph glyph-name="Cacute" unicode="&#x106;" horiz-adv-x="1214" 
d="M133 774l6 49q53 418 202 602.5t409 184.5q235 0 328 -125t57 -412l-7 -49h-41q20 125 14.5 218t-25.5 155.5t-65.5 100.5t-106.5 54.5t-148 16.5h-13q-238 0 -374.5 -174.5t-186.5 -571.5l-6 -49q-50 -393 39.5 -569t325.5 -176h12q97 0 173.5 25t138 80.5t101.5 150
t56 227.5h41l-6 -49q-29 -229 -154.5 -352t-355.5 -123q-260 0 -363 188.5t-51 597.5zM905 1946h45l-157 -226h-45z" />
    <glyph glyph-name="cacute" unicode="&#x107;" horiz-adv-x="1034" 
d="M80 518l6 49q31 252 155.5 391.5t327.5 139.5q74 0 133.5 -14.5t98 -40t66 -60t39 -74t16 -83.5t-3.5 -87l-5 -32h-41q26 162 -46 256t-257 94t-298.5 -129.5t-143.5 -360.5l-6 -49q-29 -229 57.5 -359t272.5 -130q172 0 265 88t111 241h41l-4 -32q-6 -49 -22.5 -95
t-50 -91t-79 -78t-113 -53.5t-148.5 -20.5q-205 0 -303.5 140.5t-67.5 389.5zM819 1597h45l-227 -327h-45z" />
    <glyph glyph-name="Ccircumflex" unicode="&#x108;" horiz-adv-x="1214" 
d="M133 774l6 49q53 418 202 602.5t409 184.5q235 0 328 -125t57 -412l-7 -49h-41q20 125 14.5 218t-25.5 155.5t-65.5 100.5t-106.5 54.5t-148 16.5h-13q-238 0 -374.5 -174.5t-186.5 -571.5l-6 -49q-50 -393 39.5 -569t325.5 -176h12q97 0 173.5 25t138 80.5t101.5 150
t56 227.5h41l-6 -49q-29 -229 -154.5 -352t-355.5 -123q-260 0 -363 188.5t-51 597.5zM596 1720h-51l235 226h41l174 -226h-47l-149 195z" />
    <glyph glyph-name="ccircumflex" unicode="&#x109;" horiz-adv-x="1034" 
d="M80 518l6 49q31 252 155.5 391.5t327.5 139.5q74 0 133.5 -14.5t98 -40t66 -60t39 -74t16 -83.5t-3.5 -87l-5 -32h-41q26 162 -46 256t-257 94t-298.5 -129.5t-143.5 -360.5l-6 -49q-29 -229 57.5 -359t272.5 -130q172 0 265 88t111 241h41l-4 -32q-6 -49 -22.5 -95
t-50 -91t-79 -78t-113 -53.5t-148.5 -20.5q-205 0 -303.5 140.5t-67.5 389.5zM891 1270h-49l-187 291l-264 -291h-53l299 327h41z" />
    <glyph glyph-name="Cdotaccent" unicode="&#x10a;" horiz-adv-x="1214" 
d="M133 774l6 49q53 418 202 602.5t409 184.5q235 0 328 -125t57 -412l-7 -49h-41q20 125 14.5 218t-25.5 155.5t-65.5 100.5t-106.5 54.5t-148 16.5h-13q-238 0 -374.5 -174.5t-186.5 -571.5l-6 -49q-50 -393 39.5 -569t325.5 -176h12q97 0 173.5 25t138 80.5t101.5 150
t56 227.5h41l-6 -49q-29 -229 -154.5 -352t-355.5 -123q-260 0 -363 188.5t-51 597.5zM831 1874l-10 -82h-82l11 82h81z" />
    <glyph glyph-name="cdotaccent" unicode="&#x10b;" horiz-adv-x="1034" 
d="M80 518l6 49q31 252 155.5 391.5t327.5 139.5q74 0 133.5 -14.5t98 -40t66 -60t39 -74t16 -83.5t-3.5 -87l-5 -32h-41q26 162 -46 256t-257 94t-298.5 -129.5t-143.5 -360.5l-6 -49q-29 -229 57.5 -359t272.5 -130q172 0 265 88t111 241h41l-4 -32q-6 -49 -22.5 -95
t-50 -91t-79 -78t-113 -53.5t-148.5 -20.5q-205 0 -303.5 140.5t-67.5 389.5zM682 1475l-10 -82h-82l10 82h82z" />
    <glyph glyph-name="Ccaron" unicode="&#x10c;" horiz-adv-x="1214" 
d="M133 774l6 49q53 418 202 602.5t409 184.5q235 0 328 -125t57 -412l-7 -49h-41q20 125 14.5 218t-25.5 155.5t-65.5 100.5t-106.5 54.5t-148 16.5h-13q-238 0 -374.5 -174.5t-186.5 -571.5l-6 -49q-50 -393 39.5 -569t325.5 -176h12q97 0 173.5 25t138 80.5t101.5 150
t56 227.5h41l-6 -49q-29 -229 -154.5 -352t-355.5 -123q-260 0 -363 188.5t-51 597.5zM975 1946h51l-235 -226h-41l-175 226h48l149 -195z" />
    <glyph glyph-name="ccaron" unicode="&#x10d;" horiz-adv-x="1034" 
d="M80 518l6 49q31 252 155.5 391.5t327.5 139.5q74 0 133.5 -14.5t98 -40t66 -60t39 -74t16 -83.5t-3.5 -87l-5 -32h-41q26 162 -46 256t-257 94t-298.5 -129.5t-143.5 -360.5l-6 -49q-29 -229 57.5 -359t272.5 -130q172 0 265 88t111 241h41l-4 -32q-6 -49 -22.5 -95
t-50 -91t-79 -78t-113 -53.5t-148.5 -20.5q-205 0 -303.5 140.5t-67.5 389.5zM381 1597h49l186 -290l265 290h53l-299 -327h-41z" />
    <glyph glyph-name="Dcaron" unicode="&#x10e;" horiz-adv-x="1259" 
d="M1143 823l-6 -49q-21 -168 -68 -300t-111 -220t-147.5 -146t-175 -83t-195.5 -25h-377l209 1597h385q87 0 158.5 -17.5t133.5 -55.5t104.5 -98.5t70.5 -146.5t31.5 -199t-12.5 -257zM111 41h329q127 0 231.5 39.5t192 124t146.5 228.5t84 341l6 49q22 161 11.5 282.5
t-43.5 207.5t-94 140t-138.5 78.5t-178.5 24.5h-348zM883 1946h51l-236 -226h-41l-174 226h47l150 -195z" />
    <glyph glyph-name="dcaron" unicode="&#x10f;" horiz-adv-x="1044" 
d="M559 1098q121 0 202 -51.5t118 -120.5l94 712h41l-183 -1396l-20 -242h-33l10 176q-57 -81 -146 -134.5t-208 -53.5q-203 0 -294 139t-60 391l6 49q31 254 151 392.5t322 138.5zM872 866q-40 78 -117 134.5t-196 56.5q-184 0 -293 -128.5t-139 -361.5l-6 -49
q-30 -231 49.5 -360t263.5 -129q212 0 354 198zM1194 1597h41l-64 -327h-20z" />
    <glyph glyph-name="Dcroat" unicode="&#x110;" horiz-adv-x="1372" 
d="M55 795l6 41h224l100 761h385q582 0 485 -774l-6 -49q-21 -168 -68 -300t-110.5 -220t-147 -146t-175 -83t-195.5 -25h-377l105 795h-226zM223 41h330q127 0 231.5 39.5t191.5 124t146 228.5t84 341l6 49q22 161 11.5 282.5t-43.5 207.5t-93.5 140t-138 78.5t-178.5 24.5
h-348l-94 -720h471l-6 -41h-471z" />
    <glyph glyph-name="dcroat" unicode="&#x111;" horiz-adv-x="1044" 
d="M872 866q-40 78 -117 134.5t-196 56.5q-184 0 -293 -128.5t-139 -361.5l-6 -49q-30 -231 49.5 -360t263.5 -129q212 0 354 198zM596 1341l6 41h338l33 256h41l-33 -256h215l-6 -41h-215l-144 -1099l-20 -242h-33l10 176q-57 -81 -146 -134.5t-208 -53.5q-203 0 -294 139
t-60 391l6 49q31 254 151 392.5t322 138.5q121 0 202 -51.5t118 -120.5l55 415h-338z" />
    <glyph glyph-name="Emacron" unicode="&#x112;" horiz-adv-x="1105" 
d="M272 1597h840l-6 -41h-797l-94 -720h694l-6 -41h-694l-98 -754h798l-6 -41h-840zM526 1812l6 41h410l-6 -41h-410z" />
    <glyph glyph-name="emacron" unicode="&#x113;" horiz-adv-x="1085" 
d="M940 522h-819q-29 -228 69 -360.5t287 -132.5q102 0 179 25.5t122 71t69 100.5t30 122h41l-5 -33q-7 -63 -33.5 -118t-75.5 -103.5t-133 -77t-194 -28.5q-208 0 -317.5 142t-79.5 388l6 49q31 251 159.5 391t332.5 140q94 0 164.5 -26.5t113.5 -74.5t68 -115.5t27.5 -150
t-7.5 -176.5zM578 1057q-186 0 -303.5 -131t-147.5 -363h778q29 228 -50.5 361t-276.5 133zM422 1413l6 41h410l-7 -41h-409z" />
    <glyph glyph-name="Ebreve" unicode="&#x114;" horiz-adv-x="1105" 
d="M272 1597h840l-6 -41h-797l-94 -720h694l-6 -41h-694l-98 -754h798l-6 -41h-840zM717 1745q108 0 178 54t82 147h39q-15 -109 -93.5 -173.5t-203.5 -64.5q-127 0 -189 64.5t-47 173.5h35q-12 -94 39 -147.5t160 -53.5z" />
    <glyph glyph-name="ebreve" unicode="&#x115;" horiz-adv-x="1085" 
d="M940 522h-819q-29 -228 69 -360.5t287 -132.5q102 0 179 25.5t122 71t69 100.5t30 122h41l-5 -33q-7 -63 -33.5 -118t-75.5 -103.5t-133 -77t-194 -28.5q-208 0 -317.5 142t-79.5 388l6 49q31 251 159.5 391t332.5 140q94 0 164.5 -26.5t113.5 -74.5t68 -115.5t27.5 -150
t-7.5 -176.5zM578 1057q-186 0 -303.5 -131t-147.5 -363h778q29 228 -50.5 361t-276.5 133zM608 1257q-101 0 -166 47.5t-88 122.5t-10 170h35q-16 -133 40 -218t189 -85q135 0 215.5 85.5t96.5 217.5h38q-20 -148 -110 -244t-240 -96z" />
    <glyph glyph-name="Edotaccent" unicode="&#x116;" horiz-adv-x="1105" 
d="M272 1597h840l-6 -41h-797l-94 -720h694l-6 -41h-694l-98 -754h798l-6 -41h-840zM780 1874l-10 -82h-82l10 82h82z" />
    <glyph glyph-name="edotaccent" unicode="&#x117;" horiz-adv-x="1085" 
d="M940 522h-819q-29 -228 69 -360.5t287 -132.5q102 0 179 25.5t122 71t69 100.5t30 122h41l-5 -33q-7 -63 -33.5 -118t-75.5 -103.5t-133 -77t-194 -28.5q-208 0 -317.5 142t-79.5 388l6 49q31 251 159.5 391t332.5 140q94 0 164.5 -26.5t113.5 -74.5t68 -115.5t27.5 -150
t-7.5 -176.5zM578 1057q-186 0 -303.5 -131t-147.5 -363h778q29 228 -50.5 361t-276.5 133zM676 1475l-10 -82h-82l10 82h82z" />
    <glyph glyph-name="Eogonek" unicode="&#x118;" horiz-adv-x="1105" 
d="M934 -348l8 -35q-76 -39 -162 -39q-74 0 -121 40t-47 118q0 179 193 264h-742l209 1597h840l-6 -41h-797l-94 -720h694l-6 -41h-694l-98 -754h798l-6 -41q-37 -12 -66.5 -24.5t-66.5 -35t-61.5 -49t-42 -67t-17.5 -88.5q0 -63 36 -92t95 -29q78 0 154 37z" />
    <glyph glyph-name="eogonek" unicode="&#x119;" horiz-adv-x="1085" 
d="M639 -348l8 -35q-76 -39 -162 -39q-74 0 -121 40t-47 118q0 166 168 252h-8q-208 0 -317.5 142t-79.5 388l6 49q31 251 159.5 391t332.5 140q94 0 164.5 -26.5t113.5 -74.5t68 -115.5t27.5 -150t-7.5 -176.5l-4 -33h-819q-29 -228 69 -360.5t287 -132.5q102 0 179 25.5
t122 71t69 100.5t30 122h41l-5 -33q-14 -112 -88 -200t-217 -115q-40 -7 -81.5 -26t-81.5 -50t-65.5 -80t-25.5 -108q0 -63 36 -92t95 -29q78 0 154 37zM578 1057q-186 0 -303.5 -131t-147.5 -363h778q29 228 -50.5 361t-276.5 133z" />
    <glyph glyph-name="Ecaron" unicode="&#x11a;" horiz-adv-x="1105" 
d="M272 1597h840l-6 -41h-797l-94 -720h694l-6 -41h-694l-98 -754h798l-6 -41h-840zM924 1946h51l-236 -226h-41l-174 226h47l150 -195z" />
    <glyph glyph-name="ecaron" unicode="&#x11b;" horiz-adv-x="1085" 
d="M940 522h-819q-29 -228 69 -360.5t287 -132.5q102 0 179 25.5t122 71t69 100.5t30 122h41l-5 -33q-7 -63 -33.5 -118t-75.5 -103.5t-133 -77t-194 -28.5q-208 0 -317.5 142t-79.5 388l6 49q31 251 159.5 391t332.5 140q94 0 164.5 -26.5t113.5 -74.5t68 -115.5t27.5 -150
t-7.5 -176.5zM578 1057q-186 0 -303.5 -131t-147.5 -363h778q29 228 -50.5 361t-276.5 133zM375 1597h49l186 -290l264 290h54l-299 -327h-41z" />
    <glyph glyph-name="Gcircumflex" unicode="&#x11c;" horiz-adv-x="1280" 
d="M590 -12q-277 0 -393 189.5t-64 596.5l6 49q36 281 118.5 456.5t205 253t295.5 77.5q249 0 345 -132.5t62 -404.5l-6 -49h-41q39 295 -45.5 420t-308.5 125h-12q-115 0 -206.5 -41t-165 -128.5t-123.5 -232t-75 -344.5l-6 -49q-50 -389 54 -567t354 -178h12
q136 0 245 44.5t167 102.5l69 524h-327l6 41h366l-75 -583q-170 -170 -457 -170zM616 1720h-51l236 226h41l174 -226h-47l-150 195z" />
    <glyph glyph-name="gcircumflex" unicode="&#x11d;" horiz-adv-x="1044" 
d="M369 -422q-209 0 -297 101.5t-64 287.5l4 33h41q-30 -194 45 -287.5t271 -93.5q182 0 275 98t116 283l31 246q-51 -73 -137.5 -124.5t-204.5 -51.5q-197 0 -296 123.5t-69 365.5l6 49q30 245 150.5 367.5t314.5 122.5q122 0 206.5 -54t123.5 -129l37 170h30l-43 -249
l-112 -863q-25 -185 -129 -290t-299 -105zM799 309l73 557q-18 35 -44 66t-64 60.5t-92 47t-117 17.5q-175 0 -285 -113t-139 -336l-6 -49q-28 -221 59.5 -334.5t264.5 -113.5q208 0 350 198zM868 1270h-49l-186 291l-264 -291h-54l299 327h41z" />
    <glyph glyph-name="Gbreve" unicode="&#x11e;" horiz-adv-x="1280" 
d="M590 -12q-277 0 -393 189.5t-64 596.5l6 49q36 281 118.5 456.5t205 253t295.5 77.5q249 0 345 -132.5t62 -404.5l-6 -49h-41q39 295 -45.5 420t-308.5 125h-12q-115 0 -206.5 -41t-165 -128.5t-123.5 -232t-75 -344.5l-6 -49q-50 -389 54 -567t354 -178h12
q136 0 245 44.5t167 102.5l69 524h-327l6 41h366l-75 -583q-170 -170 -457 -170zM788 1745q109 0 179 54.5t82 146.5h38q-15 -109 -93 -173.5t-203 -64.5q-127 0 -189 64.5t-47 173.5h35q-12 -94 39 -147.5t159 -53.5z" />
    <glyph glyph-name="gbreve" unicode="&#x11f;" horiz-adv-x="1044" 
d="M369 -422q-209 0 -297 101.5t-64 287.5l4 33h41q-30 -194 45 -287.5t271 -93.5q182 0 275 98t116 283l31 246q-51 -73 -137.5 -124.5t-204.5 -51.5q-197 0 -296 123.5t-69 365.5l6 49q30 245 150.5 367.5t314.5 122.5q122 0 206.5 -54t123.5 -129l37 170h30l-43 -249
l-112 -863q-25 -185 -129 -290t-299 -105zM799 309l73 557q-18 35 -44 66t-64 60.5t-92 47t-117 17.5q-175 0 -285 -113t-139 -336l-6 -49q-28 -221 59.5 -334.5t264.5 -113.5q208 0 350 198zM592 1257q-101 0 -166 47.5t-88 122.5t-10 170h34q-8 -63 1 -116.5t35.5 -96
t76 -66.5t117.5 -24q135 0 215 85.5t96 217.5h39q-20 -148 -110 -244t-240 -96z" />
    <glyph glyph-name="Gdotaccent" unicode="&#x120;" horiz-adv-x="1280" 
d="M590 -12q-277 0 -393 189.5t-64 596.5l6 49q36 281 118.5 456.5t205 253t295.5 77.5q249 0 345 -132.5t62 -404.5l-6 -49h-41q39 295 -45.5 420t-308.5 125h-12q-115 0 -206.5 -41t-165 -128.5t-123.5 -232t-75 -344.5l-6 -49q-50 -389 54 -567t354 -178h12
q136 0 245 44.5t167 102.5l69 524h-327l6 41h366l-75 -583q-170 -170 -457 -170zM852 1874l-10 -82h-82l10 82h82z" />
    <glyph glyph-name="gdotaccent" unicode="&#x121;" horiz-adv-x="1044" 
d="M369 -422q-209 0 -297 101.5t-64 287.5l4 33h41q-30 -194 45 -287.5t271 -93.5q182 0 275 98t116 283l31 246q-51 -73 -137.5 -124.5t-204.5 -51.5q-197 0 -296 123.5t-69 365.5l6 49q30 245 150.5 367.5t314.5 122.5q122 0 206.5 -54t123.5 -129l37 170h30l-43 -249
l-112 -863q-25 -185 -129 -290t-299 -105zM799 309l73 557q-18 35 -44 66t-64 60.5t-92 47t-117 17.5q-175 0 -285 -113t-139 -336l-6 -49q-28 -221 59.5 -334.5t264.5 -113.5q208 0 350 198zM659 1475l-10 -82h-82l11 82h81z" />
    <glyph glyph-name="Gcommaaccent" unicode="&#x122;" horiz-adv-x="1280" 
d="M590 -12q-277 0 -393 189.5t-64 596.5l6 49q36 281 118.5 456.5t205 253t295.5 77.5q249 0 345 -132.5t62 -404.5l-6 -49h-41q39 295 -45.5 420t-308.5 125h-12q-115 0 -206.5 -41t-165 -128.5t-123.5 -232t-75 -344.5l-6 -49q-50 -389 54 -567t354 -178h12
q136 0 245 44.5t167 102.5l69 524h-327l6 41h366l-75 -583q-170 -170 -457 -170zM608 -143l-8 -66q-14 -109 -67.5 -161t-124.5 -52l4 41q122 0 145 156h-41l10 82h82z" />
    <glyph glyph-name="gcommaaccent" unicode="&#x123;" horiz-adv-x="1044" 
d="M369 -422q-209 0 -297 101.5t-64 287.5l4 33h41q-30 -194 45 -287.5t271 -93.5q182 0 275 98t116 283l31 246q-51 -73 -137.5 -124.5t-204.5 -51.5q-197 0 -296 123.5t-69 365.5l6 49q30 245 150.5 367.5t314.5 122.5q122 0 206.5 -54t123.5 -129l37 170h30l-43 -249
l-112 -863q-25 -185 -129 -290t-299 -105zM799 309l73 557q-18 35 -44 66t-64 60.5t-92 47t-117 17.5q-175 0 -285 -113t-139 -336l-6 -49q-28 -221 59.5 -334.5t264.5 -113.5q208 0 350 198zM559 1331l8 66q14 109 68 161t125 52l-4 -41q-123 0 -146 -156h41l-10 -82h-82z
" />
    <glyph glyph-name="Hcircumflex" unicode="&#x124;" horiz-adv-x="1269" 
d="M1174 1597h40l-208 -1597h-41l104 795h-860l-105 -795h-41l209 1597h41l-100 -761h860zM586 1720h-51l235 226h41l174 -226h-47l-150 195z" />
    <glyph glyph-name="hcircumflex" unicode="&#x125;" horiz-adv-x="1003" 
d="M43 0l215 1638h41l-94 -718q144 178 375 178q161 0 242.5 -78.5t60.5 -239.5l-103 -780h-41l101 766q39 291 -260 291q-229 0 -383 -199l-113 -858h-41zM115 1720h-52l236 226h41l174 -226h-47l-150 195z" />
    <glyph glyph-name="Hbar" unicode="&#x126;" horiz-adv-x="1269" 
d="M1174 1597h40l-208 -1597h-41l104 795h-860l-105 -795h-41l209 1597h41l-47 -360h860zM213 836h860l47 360h-860z" />
    <glyph glyph-name="hbar" unicode="&#x127;" horiz-adv-x="1003" 
d="M4 1341l6 41h215l33 256h41l-33 -256h338l-6 -41h-338l-55 -421q144 178 375 178q161 0 242.5 -78.5t60.5 -239.5l-103 -780h-41l101 766q39 291 -260 291q-229 0 -383 -199l-113 -858h-41l176 1341h-215z" />
    <glyph glyph-name="Itilde" unicode="&#x128;" horiz-adv-x="389" 
d="M324 1597l-209 -1597h-41l209 1597h41zM584 1898h37q-10 -77 -52 -110t-96 -33q-35 0 -74 18.5t-67.5 41t-65.5 41t-69 18.5q-97 0 -111 -107h-37q10 77 52 110.5t96 33.5q35 0 74 -18.5t67.5 -41t65.5 -41t69 -18.5q43 0 73 22t38 84z" />
    <glyph glyph-name="itilde" unicode="&#x129;" horiz-adv-x="368" 
d="M63 0l142 1085h41l-142 -1085h-41zM520 1499h37q-10 -77 -51.5 -110t-95.5 -33q-35 0 -74 18.5t-68 41t-66 41t-69 18.5q-96 0 -110 -107h-37q10 77 51.5 110t95.5 33q44 0 93.5 -29.5t96.5 -59t87 -29.5q43 0 72.5 22t37.5 84z" />
    <glyph glyph-name="Imacron" unicode="&#x12a;" horiz-adv-x="389" 
d="M324 1597l-209 -1597h-41l209 1597h41zM127 1812l6 41h410l-6 -41h-410z" />
    <glyph glyph-name="imacron" unicode="&#x12b;" horiz-adv-x="368" 
d="M63 0l142 1085h41l-142 -1085h-41zM63 1413l7 41h409l-6 -41h-410z" />
    <glyph glyph-name="Ibreve" unicode="&#x12c;" horiz-adv-x="389" 
d="M324 1597l-209 -1597h-41l209 1597h41zM317 1745q109 0 179 54.5t82 146.5h38q-15 -109 -93.5 -173.5t-203.5 -64.5q-127 0 -188.5 64.5t-46.5 173.5h35q-12 -94 39 -147.5t159 -53.5z" />
    <glyph glyph-name="ibreve" unicode="&#x12d;" horiz-adv-x="368" 
d="M63 0l142 1085h41l-142 -1085h-41zM250 1257q-101 0 -166 47.5t-88 122.5t-10 170h34q-8 -63 1 -116.5t35.5 -96t76 -66.5t117.5 -24q135 0 215 85.5t96 217.5h39q-20 -148 -110 -244t-240 -96z" />
    <glyph glyph-name="Iogonek" unicode="&#x12e;" horiz-adv-x="389" 
d="M145 -348l9 -35q-76 -39 -162 -39q-74 0 -121 40t-47 118q0 203 252 287l207 1574h41l-209 -1597q-37 -12 -66.5 -24.5t-66.5 -35t-61.5 -49t-42 -67t-17.5 -88.5q0 -63 36 -92t95 -29q77 0 153 37z" />
    <glyph glyph-name="iogonek" unicode="&#x12f;" horiz-adv-x="368" 
d="M317 1475l-10 -82h-82l11 82h81zM135 -348l8 -35q-76 -39 -161 -39q-74 0 -121 40t-47 118q0 203 252 287l139 1062h41l-142 -1085q-37 -12 -66.5 -24.5t-66.5 -35t-61.5 -49t-42 -67t-17.5 -88.5q0 -63 36.5 -92t95.5 -29q77 0 153 37z" />
    <glyph glyph-name="Idotaccent" unicode="&#x130;" horiz-adv-x="389" 
d="M324 1597l-209 -1597h-41l209 1597h41zM381 1874l-10 -82h-82l10 82h82z" />
    <glyph glyph-name="dotlessi" unicode="&#x131;" horiz-adv-x="368" 
d="M63 0l142 1085h41l-142 -1085h-41z" />
    <glyph glyph-name="IJ" unicode="&#x132;" horiz-adv-x="921" 
d="M324 1597l-209 -1597h-41l209 1597h41zM659 291l172 1306h41l-174 -1318q-39 -291 -305 -291q-87 0 -127 20l4 41q14 -7 50 -13.5t71 -6.5q113 0 181 57.5t87 204.5z" />
    <glyph glyph-name="ij" unicode="&#x133;" horiz-adv-x="655" 
d="M63 0l142 1085h41l-142 -1085h-41zM317 1475l-10 -82h-82l11 82h81zM334 -129l158 1214h40l-159 -1226q-37 -281 -305 -281q-85 0 -127 21l4 41q14 -7 50 -14t71 -7q114 0 181.5 55t86.5 197zM604 1475l-10 -82h-82l10 82h82z" />
    <glyph glyph-name="Jcircumflex" unicode="&#x134;" horiz-adv-x="962" 
d="M872 1597h41l-149 -1140q-14 -111 -43 -194t-78 -146.5t-124.5 -96t-176.5 -32.5q-374 0 -315 469l6 49h41q-38 -240 24.5 -358.5t243.5 -118.5q182 0 268.5 112.5t118.5 360.5zM735 1720h-51l236 226h41l174 -226h-48l-149 195z" />
    <glyph glyph-name="jcircumflex" unicode="&#x135;" horiz-adv-x="368" 
d="M47 -129l158 1214h41l-160 -1226q-37 -281 -305 -281q-85 0 -127 21l4 41q14 -7 50 -14t71 -7q114 0 181.5 55t86.5 197zM526 1270h-49l-186 291l-264 -291h-54l299 327h41z" />
    <glyph glyph-name="Kcommaaccent" unicode="&#x136;" horiz-adv-x="1060" 
d="M453 -143l-9 -66q-14 -109 -67.5 -161t-124.5 -52l4 41q122 0 145 156h-41l11 82h82zM313 1597l-135 -1026l856 1026h58l-584 -694l375 -903h-47l-357 868l-309 -366l-66 -502h-41l209 1597h41z" />
    <glyph glyph-name="kcommaaccent" unicode="&#x137;" horiz-adv-x="937" 
d="M309 1638l-162 -1226l707 673h57l-432 -411l291 -674h-47l-277 643l-307 -293l-45 -350h-41l215 1638h41zM412 -143l-9 -66q-14 -109 -67.5 -161t-124.5 -52l4 41q122 0 145 156h-41l11 82h82z" />
    <glyph glyph-name="kgreenlandic" unicode="&#x138;" horiz-adv-x="937" 
d="M195 1085h41l-89 -673l707 673h57l-432 -411l291 -674h-47l-277 643l-307 -293l-45 -350h-41z" />
    <glyph glyph-name="Lacute" unicode="&#x139;" horiz-adv-x="950" 
d="M444 1946h45l-157 -226h-45zM821 0h-758l209 1597h43l-204 -1556h716z" />
    <glyph glyph-name="lacute" unicode="&#x13a;" horiz-adv-x="368" 
d="M63 0l216 1638h40l-215 -1638h-41zM444 1946h45l-157 -226h-45z" />
    <glyph glyph-name="Lcommaaccent" unicode="&#x13b;" horiz-adv-x="950" 
d="M821 0h-758l209 1597h43l-204 -1556h716zM463 -143l-8 -66q-14 -109 -68 -161t-125 -52l4 41q123 0 146 156h-41l10 82h82z" />
    <glyph glyph-name="lcommaaccent" unicode="&#x13c;" horiz-adv-x="368" 
d="M63 0l216 1638h40l-215 -1638h-41zM104 -143l-8 -66q-14 -109 -67.5 -161t-124.5 -52l4 41q122 0 145 156h-41l11 82h81z" />
    <glyph glyph-name="Lcaron" unicode="&#x13d;" horiz-adv-x="950" 
d="M821 0h-758l209 1597h43l-204 -1556h716zM723 1597h41l-64 -327h-20z" />
    <glyph glyph-name="lcaron" unicode="&#x13e;" horiz-adv-x="368" 
d="M63 0l216 1638h40l-215 -1638h-41zM498 1597h41l-64 -327h-20z" />
    <glyph glyph-name="Ldot" unicode="&#x13f;" horiz-adv-x="950" 
d="M821 0h-758l209 1597h43l-204 -1556h716zM711 856l-11 -82h-82l11 82h82z" />
    <glyph glyph-name="ldot" unicode="&#x140;" horiz-adv-x="573" 
d="M63 0l216 1638h40l-215 -1638h-41zM508 737l-10 -82h-82l10 82h82z" />
    <glyph glyph-name="Lslash" unicode="&#x141;" horiz-adv-x="1062" 
d="M35 627l239 129l111 841h43l-109 -817l508 273l-8 -49l-506 -273l-90 -690h715l-4 -41h-758l92 707l-241 -129z" />
    <glyph glyph-name="lslash" unicode="&#x142;" horiz-adv-x="532" 
d="M532 1085l-6 -51l-225 -151l-115 -883h-41l111 854l-201 -135l6 51l203 135l96 733h41l-92 -704z" />
    <glyph glyph-name="Nacute" unicode="&#x143;" horiz-adv-x="1310" 
d="M1016 66l37 292l161 1239h41l-208 -1597h-46l-698 1532l-37 -293l-162 -1239h-41l209 1597h45zM915 1946h46l-158 -226h-45z" />
    <glyph glyph-name="nacute" unicode="&#x144;" horiz-adv-x="1003" 
d="M780 0h-41l101 766q39 291 -260 291q-229 0 -383 -199l-113 -858h-41l111 844l20 241h33l-10 -176q149 189 383 189q161 0 242.5 -78.5t60.5 -239.5zM782 1597h45l-227 -327h-45z" />
    <glyph glyph-name="Ncommaaccent" unicode="&#x145;" horiz-adv-x="1310" 
d="M1016 66l37 292l161 1239h41l-208 -1597h-46l-698 1532l-37 -293l-162 -1239h-41l209 1597h45zM575 -143l-8 -66q-14 -109 -67.5 -161t-124.5 -52l4 41q122 0 145 156h-41l11 82h81z" />
    <glyph glyph-name="ncommaaccent" unicode="&#x146;" horiz-adv-x="1003" 
d="M780 0h-41l101 766q39 291 -260 291q-229 0 -383 -199l-113 -858h-41l111 844l20 241h33l-10 -176q149 189 383 189q161 0 242.5 -78.5t60.5 -239.5zM432 -143l-8 -66q-14 -109 -68 -161t-125 -52l5 41q122 0 145 156h-41l10 82h82z" />
    <glyph glyph-name="Ncaron" unicode="&#x147;" horiz-adv-x="1310" 
d="M1016 66l37 292l161 1239h41l-208 -1597h-46l-698 1532l-37 -293l-162 -1239h-41l209 1597h45zM985 1946h51l-235 -226h-41l-174 226h47l149 -195z" />
    <glyph glyph-name="ncaron" unicode="&#x148;" horiz-adv-x="1003" 
d="M780 0h-41l101 766q39 291 -260 291q-229 0 -383 -199l-113 -858h-41l111 844l20 241h33l-10 -176q149 189 383 189q161 0 242.5 -78.5t60.5 -239.5zM344 1597h49l187 -290l264 290h53l-299 -327h-41z" />
    <glyph glyph-name="Eng" unicode="&#x14a;" horiz-adv-x="1310" 
d="M1006 -8l-703 1540l-37 -293l-162 -1239h-41l209 1597h45l699 -1531l37 292l161 1239h41l-227 -1738q-37 -281 -305 -281q-85 0 -127 21l4 41q14 -7 50 -14t71 -7q114 0 181.5 55t86.5 197z" />
    <glyph glyph-name="eng" unicode="&#x14b;" horiz-adv-x="1003" 
d="M883 780l-121 -921q-37 -281 -305 -281q-85 0 -127 21l4 41q14 -7 50 -14t71 -7q114 0 181.5 55t86.5 197l117 895q39 291 -260 291q-229 0 -383 -199l-113 -858h-41l111 844l20 241h33l-10 -176q149 189 383 189q161 0 242.5 -78.5t60.5 -239.5z" />
    <glyph glyph-name="Omacron" unicode="&#x14c;" horiz-adv-x="1290" 
d="M551 29h12q158 0 266 73t179.5 238t105.5 434l6 49q50 391 -44 568.5t-331 177.5h-12q-236 0 -368.5 -173.5t-182.5 -572.5l-6 -49q-50 -391 44 -568t331 -177zM739 1610q261 0 368.5 -189.5t55.5 -597.5l-6 -49q-36 -283 -113.5 -457t-196 -251.5t-290.5 -77.5
q-262 0 -369 189.5t-55 596.5l6 49q53 420 197.5 603.5t402.5 183.5zM578 1812l6 41h409l-6 -41h-409z" />
    <glyph glyph-name="omacron" unicode="&#x14d;" horiz-adv-x="1077" 
d="M451 -12q-205 0 -303.5 140.5t-67.5 389.5l6 49q31 252 155.5 391.5t327.5 139.5q205 0 303.5 -141t67.5 -390l-6 -49q-31 -252 -155.5 -391t-327.5 -139zM451 29q185 0 298.5 129t143.5 360l6 49q29 229 -57.5 359.5t-272.5 130.5q-185 0 -298.5 -129.5t-143.5 -360.5
l-6 -49q-29 -229 57.5 -359t272.5 -130zM418 1413l6 41h410l-7 -41h-409z" />
    <glyph glyph-name="Obreve" unicode="&#x14e;" horiz-adv-x="1290" 
d="M551 29h12q158 0 266 73t179.5 238t105.5 434l6 49q50 391 -44 568.5t-331 177.5h-12q-236 0 -368.5 -173.5t-182.5 -572.5l-6 -49q-50 -391 44 -568t331 -177zM739 1610q261 0 368.5 -189.5t55.5 -597.5l-6 -49q-36 -283 -113.5 -457t-196 -251.5t-290.5 -77.5
q-262 0 -369 189.5t-55 596.5l6 49q53 420 197.5 603.5t402.5 183.5zM768 1745q108 0 178 54t82 147h39q-15 -109 -93.5 -173.5t-203.5 -64.5q-127 0 -188.5 64.5t-46.5 173.5h34q-12 -94 39 -147.5t160 -53.5z" />
    <glyph glyph-name="obreve" unicode="&#x14f;" horiz-adv-x="1077" 
d="M451 -12q-205 0 -303.5 140.5t-67.5 389.5l6 49q31 252 155.5 391.5t327.5 139.5q205 0 303.5 -141t67.5 -390l-6 -49q-31 -252 -155.5 -391t-327.5 -139zM451 29q185 0 298.5 129t143.5 360l6 49q29 229 -57.5 359.5t-272.5 130.5q-185 0 -298.5 -129.5t-143.5 -360.5
l-6 -49q-29 -229 57.5 -359t272.5 -130zM604 1257q-101 0 -166 47.5t-88 122.5t-10 170h35q-16 -133 40 -218t189 -85q135 0 215 85.5t96 217.5h39q-20 -148 -110 -244t-240 -96z" />
    <glyph glyph-name="Ohungarumlaut" unicode="&#x150;" horiz-adv-x="1290" 
d="M551 29h12q158 0 266 73t179.5 238t105.5 434l6 49q50 391 -44 568.5t-331 177.5h-12q-236 0 -368.5 -173.5t-182.5 -572.5l-6 -49q-50 -391 44 -568t331 -177zM739 1610q261 0 368.5 -189.5t55.5 -597.5l-6 -49q-36 -283 -113.5 -457t-196 -251.5t-290.5 -77.5
q-262 0 -369 189.5t-55 596.5l6 49q53 420 197.5 603.5t402.5 183.5zM1008 1946h45l-158 -226h-45zM803 1946h45l-158 -226h-45z" />
    <glyph glyph-name="ohungarumlaut" unicode="&#x151;" horiz-adv-x="1077" 
d="M451 -12q-205 0 -303.5 140.5t-67.5 389.5l6 49q31 252 155.5 391.5t327.5 139.5q205 0 303.5 -141t67.5 -390l-6 -49q-31 -252 -155.5 -391t-327.5 -139zM451 29q185 0 298.5 129t143.5 360l6 49q29 229 -57.5 359.5t-272.5 130.5q-185 0 -298.5 -129.5t-143.5 -360.5
l-6 -49q-29 -229 57.5 -359t272.5 -130zM911 1597h45l-227 -327h-45zM707 1597h45l-228 -327h-45z" />
    <glyph glyph-name="OE" unicode="&#x152;" horiz-adv-x="1925" 
d="M1087 1556h-262q-127 0 -231.5 -39.5t-191.5 -124t-146 -228.5t-84 -341l-6 -49q-22 -161 -11.5 -282.5t43.5 -207.5t93.5 -140t138 -78.5t178.5 -24.5h281zM1722 0h-1114q-582 0 -485 774l6 49q21 168 68 300t110.5 220t147 146t175 83t195.5 25h1106l-6 -41h-797
l-94 -720h695l-7 -41h-694l-98 -754h799z" />
    <glyph glyph-name="oe" unicode="&#x153;" horiz-adv-x="1896" 
d="M451 29q185 0 298.5 129t143.5 360l6 49q29 229 -57.5 359.5t-272.5 130.5q-185 0 -298.5 -129.5t-143.5 -360.5l-6 -49q-29 -229 57.5 -359t272.5 -130zM1389 1057q-186 0 -303.5 -131t-147.5 -363h778q29 228 -50.5 361t-276.5 133zM1751 522h-819q-29 -228 69 -360.5
t287 -132.5q102 0 179 25.5t122 71t69 100.5t30 122h41l-5 -33q-7 -63 -33.5 -118t-75.5 -103.5t-133 -77t-194 -28.5q-169 0 -273.5 95.5t-121.5 268.5q-52 -176 -164 -270t-278 -94q-205 0 -303.5 140.5t-67.5 389.5l6 49q31 252 155.5 391.5t327.5 139.5
q166 0 260.5 -94.5t108.5 -266.5q55 173 170.5 267t280.5 94q94 0 164.5 -26.5t113.5 -74.5t68 -115.5t27.5 -150t-7.5 -176.5z" />
    <glyph glyph-name="Racute" unicode="&#x154;" horiz-adv-x="1132" 
d="M197 696l-93 -696h-41l209 1597h383q72 0 135 -12.5t120 -44t95 -79.5t55 -124t5 -172l-6 -49q-43 -335 -348 -403l200 -713h-41l-198 705q-59 -9 -119 -9h-356zM201 737h352q416 0 463 379l6 49q12 95 -7 167t-55.5 113.5t-91.5 67.5t-106 34.5t-107 8.5h-348zM793 1946
h45l-158 -226h-45z" />
    <glyph glyph-name="racute" unicode="&#x155;" horiz-adv-x="608" 
d="M535 1098l30 -2l-6 -39h-18q-64 0 -121.5 -19t-100 -51t-71.5 -63.5t-51 -65.5l-113 -858h-41l111 844l20 241h33l-10 -176q48 77 136.5 133t201.5 56zM598 1597h45l-227 -327h-45z" />
    <glyph glyph-name="Rcommaaccent" unicode="&#x156;" horiz-adv-x="1132" 
d="M197 696l-93 -696h-41l209 1597h383q72 0 135 -12.5t120 -44t95 -79.5t55 -124t5 -172l-6 -49q-43 -335 -348 -403l200 -713h-41l-198 705q-59 -9 -119 -9h-356zM201 737h352q416 0 463 379l6 49q12 95 -7 167t-55.5 113.5t-91.5 67.5t-106 34.5t-107 8.5h-348zM494 -143
l-9 -66q-14 -109 -67.5 -161t-124.5 -52l4 41q122 0 145 156h-41l11 82h82z" />
    <glyph glyph-name="rcommaaccent" unicode="&#x157;" horiz-adv-x="608" 
d="M535 1098l30 -2l-6 -39h-18q-64 0 -121.5 -19t-100 -51t-71.5 -63.5t-51 -65.5l-113 -858h-41l111 844l20 241h33l-10 -176q48 77 136.5 133t201.5 56zM94 -143l-8 -66q-14 -109 -67.5 -161t-124.5 -52l4 41q122 0 145 156h-41l10 82h82z" />
    <glyph glyph-name="Rcaron" unicode="&#x158;" horiz-adv-x="1132" 
d="M197 696l-93 -696h-41l209 1597h383q72 0 135 -12.5t120 -44t95 -79.5t55 -124t5 -172l-6 -49q-43 -335 -348 -403l200 -713h-41l-198 705q-59 -9 -119 -9h-356zM201 737h352q416 0 463 379l6 49q12 95 -7 167t-55.5 113.5t-91.5 67.5t-106 34.5t-107 8.5h-348zM862 1946
h51l-235 -226h-41l-174 226h47l149 -195z" />
    <glyph glyph-name="rcaron" unicode="&#x159;" horiz-adv-x="608" 
d="M535 1098l30 -2l-6 -39h-18q-64 0 -121.5 -19t-100 -51t-71.5 -63.5t-51 -65.5l-113 -858h-41l111 844l20 241h33l-10 -176q48 77 136.5 133t201.5 56zM160 1597h49l186 -290l264 290h54l-299 -327h-41z" />
    <glyph glyph-name="Sacute" unicode="&#x15a;" horiz-adv-x="1187" 
d="M592 809q-248 35 -346 133.5t-78 257.5l6 49q15 121 87 204t179 120t244 37q247 0 356.5 -128t79.5 -368l-6 -49h-41q37 266 -61 385t-322 119h-12q-118 0 -216 -35t-165 -109t-80 -176l-6 -49q-19 -152 73 -235.5t332 -116.5q249 -34 347 -145t75 -297l-6 -50
q-47 -368 -528 -368q-252 0 -361.5 123t-81.5 352l7 49h41q-77 -483 389 -483h12q203 0 330.5 78.5t148.5 248.5l6 50q22 179 -72 274t-331 129zM854 1946h45l-158 -226h-45z" />
    <glyph glyph-name="sacute" unicode="&#x15b;" horiz-adv-x="983" 
d="M436 535q-103 9 -171 32.5t-101 60.5t-43 79t-4 96l2 16q15 127 121 203t272 76q108 0 184 -24.5t115.5 -69.5t53.5 -103t5 -131l-4 -33h-41q26 161 -46.5 240.5t-266.5 79.5q-167 0 -261.5 -77t-94.5 -212q0 -96 70 -139t259 -60q199 -18 273.5 -86t58.5 -194l-2 -17
q-15 -128 -121 -206t-284 -78q-89 0 -157.5 16.5t-111 44.5t-67.5 68t-32 83.5t-1 94.5l4 33h41q-26 -142 49 -220.5t275 -78.5q168 0 268 79t100 207q0 111 -74.5 156.5t-267.5 63.5zM762 1597h45l-227 -327h-45z" />
    <glyph glyph-name="Scircumflex" unicode="&#x15c;" horiz-adv-x="1187" 
d="M592 809q-248 35 -346 133.5t-78 257.5l6 49q15 121 87 204t179 120t244 37q247 0 356.5 -128t79.5 -368l-6 -49h-41q37 266 -61 385t-322 119h-12q-118 0 -216 -35t-165 -109t-80 -176l-6 -49q-19 -152 73 -235.5t332 -116.5q249 -34 347 -145t75 -297l-6 -50
q-47 -368 -528 -368q-252 0 -361.5 123t-81.5 352l7 49h41q-77 -483 389 -483h12q203 0 330.5 78.5t148.5 248.5l6 50q22 179 -72 274t-331 129zM545 1720h-51l235 226h41l174 -226h-47l-149 195z" />
    <glyph glyph-name="scircumflex" unicode="&#x15d;" horiz-adv-x="983" 
d="M436 535q-103 9 -171 32.5t-101 60.5t-43 79t-4 96l2 16q15 127 121 203t272 76q108 0 184 -24.5t115.5 -69.5t53.5 -103t5 -131l-4 -33h-41q26 161 -46.5 240.5t-266.5 79.5q-167 0 -261.5 -77t-94.5 -212q0 -96 70 -139t259 -60q199 -18 273.5 -86t58.5 -194l-2 -17
q-15 -128 -121 -206t-284 -78q-89 0 -157.5 16.5t-111 44.5t-67.5 68t-32 83.5t-1 94.5l4 33h41q-26 -142 49 -220.5t275 -78.5q168 0 268 79t100 207q0 111 -74.5 156.5t-267.5 63.5zM834 1270h-50l-186 291l-264 -291h-53l299 327h41z" />
    <glyph glyph-name="Scedilla" unicode="&#x15e;" horiz-adv-x="1187" 
d="M281 -381l16 33q23 -15 67.5 -26t81.5 -11q160 0 160 127q0 54 -36 72t-101 18l-53 -4l-19 22l68 140q-231 9 -331.5 131t-72.5 342l7 49h41q-77 -483 389 -483h12q203 0 330.5 78.5t148.5 248.5l6 50q22 179 -72 274t-331 129q-248 35 -346 133.5t-78 257.5l6 49
q15 121 87 204t179 120t244 37q247 0 356.5 -128t79.5 -368l-6 -49h-41q37 266 -61 385t-322 119h-12q-118 0 -216 -35t-165 -109t-80 -176l-6 -49q-19 -152 73 -235.5t332 -116.5q249 -34 347 -145t75 -297l-6 -50q-47 -368 -528 -368l-60 -121q10 2 39 2q67 0 113.5 -30
t46.5 -97q0 -85 -57 -124.5t-140 -39.5q-98 0 -165 41z" />
    <glyph glyph-name="scedilla" unicode="&#x15f;" horiz-adv-x="983" 
d="M186 -381l17 33q23 -15 67.5 -26t81.5 -11q160 0 160 127q0 54 -36 72t-101 18l-53 -4l-19 22l68 140q-99 4 -169.5 29.5t-106.5 68.5t-49 94.5t-5 112.5l4 33h41q-26 -142 49 -220.5t275 -78.5q168 0 268 79t100 207q0 111 -74.5 156.5t-267.5 63.5q-103 9 -171 32.5
t-101 60.5t-43 79t-4 96l2 16q15 127 121 203t272 76q108 0 184 -24.5t115.5 -69.5t53.5 -103t5 -131l-4 -33h-41q26 161 -46.5 240.5t-266.5 79.5q-167 0 -261.5 -77t-94.5 -212q0 -96 70 -139t259 -60q199 -18 273.5 -86t58.5 -194l-2 -17q-15 -128 -121 -206t-284 -78
l-60 -121q10 2 39 2q67 0 113.5 -30t46.5 -97q0 -85 -57 -124.5t-140 -39.5q-42 0 -89 11.5t-77 29.5z" />
    <glyph glyph-name="Scaron" unicode="&#x160;" horiz-adv-x="1187" 
d="M592 809q-248 35 -346 133.5t-78 257.5l6 49q15 121 87 204t179 120t244 37q247 0 356.5 -128t79.5 -368l-6 -49h-41q37 266 -61 385t-322 119h-12q-118 0 -216 -35t-165 -109t-80 -176l-6 -49q-19 -152 73 -235.5t332 -116.5q249 -34 347 -145t75 -297l-6 -50
q-47 -368 -528 -368q-252 0 -361.5 123t-81.5 352l7 49h41q-77 -483 389 -483h12q203 0 330.5 78.5t148.5 248.5l6 50q22 179 -72 274t-331 129zM924 1946h51l-236 -226h-41l-174 226h47l150 -195z" />
    <glyph glyph-name="scaron" unicode="&#x161;" horiz-adv-x="983" 
d="M436 535q-103 9 -171 32.5t-101 60.5t-43 79t-4 96l2 16q15 127 121 203t272 76q108 0 184 -24.5t115.5 -69.5t53.5 -103t5 -131l-4 -33h-41q26 161 -46.5 240.5t-266.5 79.5q-167 0 -261.5 -77t-94.5 -212q0 -96 70 -139t259 -60q199 -18 273.5 -86t58.5 -194l-2 -17
q-15 -128 -121 -206t-284 -78q-89 0 -157.5 16.5t-111 44.5t-67.5 68t-32 83.5t-1 94.5l4 33h41q-26 -142 49 -220.5t275 -78.5q168 0 268 79t100 207q0 111 -74.5 156.5t-267.5 63.5zM324 1597h49l186 -290l264 290h54l-299 -327h-41z" />
    <glyph glyph-name="Tcommaaccent" unicode="&#x162;" horiz-adv-x="1003" 
d="M625 1556l-205 -1556h-41l203 1556h-428l6 41h899l-6 -41h-428zM422 -143l-8 -66q-14 -109 -68 -161t-125 -52l4 41q123 0 146 156h-41l10 82h82z" />
    <glyph glyph-name="tcommaaccent" unicode="&#x163;" horiz-adv-x="737" 
d="M317 1085h379l-6 -41h-377l-100 -763q-19 -142 32.5 -197t164.5 -55q86 0 131 20l-6 -41q-50 -20 -125 -20q-61 0 -106.5 13t-81 42.5t-49.5 85.5t-3 135l102 780h-176l6 41h174l41 308h41zM350 -143l-8 -66q-14 -109 -67.5 -161t-124.5 -52l4 41q122 0 145 156h-41
l10 82h82z" />
    <glyph glyph-name="Tcaron" unicode="&#x164;" horiz-adv-x="1003" 
d="M625 1556l-205 -1556h-41l203 1556h-428l6 41h899l-6 -41h-428zM831 1946h52l-236 -226h-41l-174 226h47l150 -195z" />
    <glyph glyph-name="tcaron" unicode="&#x165;" horiz-adv-x="737" 
d="M317 1085h379l-6 -41h-377l-100 -763q-19 -142 32.5 -197t164.5 -55q86 0 131 20l-6 -41q-50 -20 -125 -20q-61 0 -106.5 13t-81 42.5t-49.5 85.5t-3 135l102 780h-176l6 41h174l41 308h41zM569 1597h41l-63 -327h-21z" />
    <glyph glyph-name="Tbar" unicode="&#x166;" horiz-adv-x="1003" 
d="M240 795l6 41h241l95 720h-428l6 41h899l-6 -41h-428l-97 -720h250l-6 -41h-248l-104 -795h-41l102 795h-241z" />
    <glyph glyph-name="tbar" unicode="&#x167;" horiz-adv-x="737" 
d="M317 1085h379l-6 -41h-377l-63 -481h297l-6 -41h-297l-31 -241q-19 -142 32.5 -197t164.5 -55q86 0 131 20l-6 -41q-50 -20 -125 -20q-61 0 -106.5 13t-81 42.5t-49.5 85.5t-3 135l33 258h-174l6 41h174l63 481h-176l6 41h174l41 308h41z" />
    <glyph glyph-name="Utilde" unicode="&#x168;" horiz-adv-x="1269" 
d="M547 -12q-75 0 -135 9.5t-114.5 32.5t-90.5 60.5t-62 93t-30 131t6 174.5l145 1108h41l-143 -1097q-10 -93 -8 -164t24 -123t53.5 -87.5t80.5 -57t105 -30.5t128 -9q108 0 186.5 22t142 75t103 146t57.5 230l144 1095h41l-146 -1108q-19 -145 -63 -244.5t-113.5 -155
t-154 -78.5t-197.5 -23zM1024 1898h37q-10 -77 -52 -110t-96 -33q-35 0 -74 18.5t-67.5 41t-65.5 41t-69 18.5q-97 0 -111 -107h-37q10 77 52 110.5t96 33.5q35 0 74 -18.5t67.5 -41t65.5 -41t69 -18.5q43 0 73 22t38 84z" />
    <glyph glyph-name="utilde" unicode="&#x169;" horiz-adv-x="1003" 
d="M164 1085h41l-101 -766q-39 -290 261 -290q230 0 383 198l112 858h41l-110 -843l-21 -242h-33l11 176q-149 -188 -383 -188q-161 0 -243 78t-61 239zM827 1499h37q-10 -77 -51.5 -110t-95.5 -33q-35 0 -74 18.5t-68 41t-66 41t-69 18.5q-96 0 -110 -107h-37
q10 77 51.5 110t95.5 33q44 0 93.5 -29.5t96.5 -59t87 -29.5q43 0 72.5 22t37.5 84z" />
    <glyph glyph-name="Umacron" unicode="&#x16a;" horiz-adv-x="1269" 
d="M547 -12q-75 0 -135 9.5t-114.5 32.5t-90.5 60.5t-62 93t-30 131t6 174.5l145 1108h41l-143 -1097q-10 -93 -8 -164t24 -123t53.5 -87.5t80.5 -57t105 -30.5t128 -9q108 0 186.5 22t142 75t103 146t57.5 230l144 1095h41l-146 -1108q-19 -145 -63 -244.5t-113.5 -155
t-154 -78.5t-197.5 -23zM567 1812l6 41h410l-6 -41h-410z" />
    <glyph glyph-name="umacron" unicode="&#x16b;" horiz-adv-x="1003" 
d="M164 1085h41l-101 -766q-39 -290 261 -290q230 0 383 198l112 858h41l-110 -843l-21 -242h-33l11 176q-149 -188 -383 -188q-161 0 -243 78t-61 239zM371 1413l6 41h409l-6 -41h-409z" />
    <glyph glyph-name="Ubreve" unicode="&#x16c;" horiz-adv-x="1269" 
d="M547 -12q-75 0 -135 9.5t-114.5 32.5t-90.5 60.5t-62 93t-30 131t6 174.5l145 1108h41l-143 -1097q-10 -93 -8 -164t24 -123t53.5 -87.5t80.5 -57t105 -30.5t128 -9q108 0 186.5 22t142 75t103 146t57.5 230l144 1095h41l-146 -1108q-19 -145 -63 -244.5t-113.5 -155
t-154 -78.5t-197.5 -23zM758 1745q108 0 178 54t82 147h39q-15 -109 -93.5 -173.5t-203.5 -64.5q-127 0 -189 64.5t-47 173.5h35q-12 -94 39 -147.5t160 -53.5z" />
    <glyph glyph-name="ubreve" unicode="&#x16d;" horiz-adv-x="1003" 
d="M164 1085h41l-101 -766q-39 -290 261 -290q230 0 383 198l112 858h41l-110 -843l-21 -242h-33l11 176q-149 -188 -383 -188q-161 0 -243 78t-61 239zM557 1257q-101 0 -166 47.5t-88 122.5t-10 170h35q-16 -133 40 -218t189 -85q135 0 215 85.5t96 217.5h39
q-20 -148 -110 -244t-240 -96z" />
    <glyph glyph-name="Uring" unicode="&#x16e;" horiz-adv-x="1269" 
d="M547 -12q-75 0 -135 9.5t-114.5 32.5t-90.5 60.5t-62 93t-30 131t6 174.5l145 1108h41l-143 -1097q-10 -93 -8 -164t24 -123t53.5 -87.5t80.5 -57t105 -30.5t128 -9q108 0 186.5 22t142 75t103 146t57.5 230l144 1095h41l-146 -1108q-19 -145 -63 -244.5t-113.5 -155
t-154 -78.5t-197.5 -23zM784 1921q-67 0 -111 -44t-44 -112q0 -59 33.5 -91t91.5 -32q67 0 111 44t44 112q0 59 -33.5 91t-91.5 32zM784 1958q75 0 119.5 -43.5t44.5 -116.5q0 -79 -58.5 -135.5t-135.5 -56.5q-75 0 -119.5 43t-44.5 116q0 79 58.5 136t135.5 57z" />
    <glyph glyph-name="uring" unicode="&#x16f;" horiz-adv-x="1003" 
d="M164 1085h41l-101 -766q-39 -290 261 -290q230 0 383 198l112 858h41l-110 -843l-21 -242h-33l11 176q-149 -188 -383 -188q-161 0 -243 78t-61 239zM594 1573q-67 0 -111.5 -44t-44.5 -112q0 -59 33.5 -91t91.5 -32q67 0 111.5 44t44.5 112q0 59 -33.5 91t-91.5 32z
M594 1610q75 0 119.5 -43.5t44.5 -116.5q0 -79 -59 -136t-136 -57q-75 0 -119.5 43.5t-44.5 116.5q0 79 59 136t136 57z" />
    <glyph glyph-name="Uhungarumlaut" unicode="&#x170;" horiz-adv-x="1269" 
d="M547 -12q-75 0 -135 9.5t-114.5 32.5t-90.5 60.5t-62 93t-30 131t6 174.5l145 1108h41l-143 -1097q-10 -93 -8 -164t24 -123t53.5 -87.5t80.5 -57t105 -30.5t128 -9q108 0 186.5 22t142 75t103 146t57.5 230l144 1095h41l-146 -1108q-19 -145 -63 -244.5t-113.5 -155
t-154 -78.5t-197.5 -23zM997 1946h45l-157 -226h-45zM793 1946h45l-158 -226h-45z" />
    <glyph glyph-name="uhungarumlaut" unicode="&#x171;" horiz-adv-x="1003" 
d="M164 1085h41l-101 -766q-39 -290 261 -290q230 0 383 198l112 858h41l-110 -843l-21 -242h-33l11 176q-149 -188 -383 -188q-161 0 -243 78t-61 239zM864 1597h45l-227 -327h-45zM659 1597h46l-228 -327h-45z" />
    <glyph glyph-name="Uogonek" unicode="&#x172;" horiz-adv-x="1269" 
d="M727 -348l8 -35q-76 -39 -162 -39q-73 0 -120 40t-47 118q0 167 167 252h-26q-75 0 -135 9.5t-114.5 32.5t-90.5 60.5t-62 93t-30 131t6 174.5l145 1108h41l-143 -1097q-10 -93 -8 -164t24 -123t53.5 -87.5t80.5 -57t105 -30.5t128 -9q108 0 186.5 22t142 75t103 146
t57.5 230l144 1095h41l-146 -1108q-16 -119 -48.5 -206.5t-81.5 -144.5t-109.5 -90t-139.5 -48q-37 -7 -78 -25.5t-82 -49.5t-67.5 -80.5t-26.5 -108.5q0 -63 36 -92t95 -29q78 0 154 37z" />
    <glyph glyph-name="uogonek" unicode="&#x173;" horiz-adv-x="1003" 
d="M801 -348l8 -35q-76 -39 -162 -39q-74 0 -121 40t-47 118q0 204 258 289l11 151q-149 -188 -383 -188q-161 0 -243 78t-61 239l103 780h41l-101 -766q-39 -290 261 -290q230 0 383 198l112 858h41l-110 -843l-21 -242q-37 -12 -66.5 -24.5t-66.5 -35t-61.5 -49t-42 -67
t-17.5 -88.5q0 -63 36 -92t95 -29q78 0 154 37z" />
    <glyph glyph-name="Wcircumflex" unicode="&#x174;" horiz-adv-x="1761" 
d="M1010 1597l215 -1529l522 1529h45l-551 -1597h-45l-215 1532l-616 -1532h-46l-133 1597h41l125 -1525l613 1525h45zM831 1720h-51l236 226h41l174 -226h-47l-150 195z" />
    <glyph glyph-name="wcircumflex" unicode="&#x175;" horiz-adv-x="1372" 
d="M721 1032l-447 -1032h-49l-116 1085h43l106 -1032l444 1032h50l174 -1036l374 1036h46l-400 -1085h-49zM1028 1270h-49l-186 291l-265 -291h-53l299 327h41z" />
    <glyph glyph-name="Ycircumflex" unicode="&#x176;" horiz-adv-x="1105" 
d="M508 518l608 1079h47l-639 -1126l-61 -471h-41l61 471l-344 1126h43zM494 1720h-52l236 226h41l174 -226h-47l-150 195z" />
    <glyph glyph-name="ycircumflex" unicode="&#x177;" horiz-adv-x="942" 
d="M381 90l500 995h47l-535 -1050l-219 -445h-45l227 445l-260 1050h43zM813 1270h-49l-186 291l-265 -291h-53l299 327h41z" />
    <glyph glyph-name="Ydieresis" unicode="&#x178;" horiz-adv-x="1105" 
d="M508 518l608 1079h47l-639 -1126l-61 -471h-41l61 471l-344 1126h43zM586 1874l-11 -82h-81l10 82h82zM872 1874l-10 -82h-82l11 82h81z" />
    <glyph glyph-name="Zacute" unicode="&#x179;" horiz-adv-x="1097" 
d="M-14 29l1085 1530l-229 -3h-637l6 41h922l-5 -28l-1085 -1530l229 2h678l-6 -41h-962zM823 1946h45l-157 -226h-45z" />
    <glyph glyph-name="zacute" unicode="&#x17a;" horiz-adv-x="860" 
d="M-27 29l791 1018l-227 -3h-412l6 41h696l-4 -28l-790 -1018l227 2h453l-6 -41h-738zM709 1597h45l-228 -327h-45z" />
    <glyph glyph-name="Zdotaccent" unicode="&#x17b;" horiz-adv-x="1097" 
d="M-14 29l1085 1530l-229 -3h-637l6 41h922l-5 -28l-1085 -1530l229 2h678l-6 -41h-962zM750 1874l-11 -82h-82l11 82h82z" />
    <glyph glyph-name="zdotaccent" unicode="&#x17c;" horiz-adv-x="860" 
d="M-27 29l791 1018l-227 -3h-412l6 41h696l-4 -28l-790 -1018l227 2h453l-6 -41h-738zM571 1475l-10 -82h-82l10 82h82z" />
    <glyph glyph-name="Zcaron" unicode="&#x17d;" horiz-adv-x="1097" 
d="M-14 29l1085 1530l-229 -3h-637l6 41h922l-5 -28l-1085 -1530l229 2h678l-6 -41h-962zM893 1946h51l-235 -226h-41l-174 226h47l149 -195z" />
    <glyph glyph-name="zcaron" unicode="&#x17e;" horiz-adv-x="860" 
d="M-27 29l791 1018l-227 -3h-412l6 41h696l-4 -28l-790 -1018l227 2h453l-6 -41h-738zM270 1597h49l187 -290l264 290h53l-299 -327h-41z" />
    <glyph glyph-name="Scommaaccent" unicode="&#x218;" horiz-adv-x="1187" 
d="M592 809q-248 35 -346 133.5t-78 257.5l6 49q15 121 87 204t179 120t244 37q247 0 356.5 -128t79.5 -368l-6 -49h-41q37 266 -61 385t-322 119h-12q-118 0 -216 -35t-165 -109t-80 -176l-6 -49q-19 -152 73 -235.5t332 -116.5q249 -34 347 -145t75 -297l-6 -50
q-47 -368 -528 -368q-252 0 -361.5 123t-81.5 352l7 49h41q-77 -483 389 -483h12q203 0 330.5 78.5t148.5 248.5l6 50q22 179 -72 274t-331 129zM514 -143l-8 -66q-14 -109 -68 -161t-125 -52l4 41q123 0 146 156h-41l10 82h82z" />
    <glyph glyph-name="scommaaccent" unicode="&#x219;" horiz-adv-x="983" 
d="M436 535q-103 9 -171 32.5t-101 60.5t-43 79t-4 96l2 16q15 127 121 203t272 76q108 0 184 -24.5t115.5 -69.5t53.5 -103t5 -131l-4 -33h-41q26 161 -46.5 240.5t-266.5 79.5q-167 0 -261.5 -77t-94.5 -212q0 -96 70 -139t259 -60q199 -18 273.5 -86t58.5 -194l-2 -17
q-15 -128 -121 -206t-284 -78q-89 0 -157.5 16.5t-111 44.5t-67.5 68t-32 83.5t-1 94.5l4 33h41q-26 -142 49 -220.5t275 -78.5q168 0 268 79t100 207q0 111 -74.5 156.5t-267.5 63.5zM412 -143l-9 -66q-14 -109 -67.5 -161t-124.5 -52l4 41q122 0 145 156h-41l11 82h82z
" />
    <glyph glyph-name="Ymacron" unicode="&#x232;" horiz-adv-x="1105" 
d="M508 518l608 1079h47l-639 -1126l-61 -471h-41l61 471l-344 1126h43zM475 1812l6 41h410l-6 -41h-410z" />
    <glyph glyph-name="ymacron" unicode="&#x233;" horiz-adv-x="942" 
d="M381 90l500 995h47l-535 -1050l-219 -445h-45l227 445l-260 1050h43zM350 1413l6 41h410l-6 -41h-410z" />
    <glyph glyph-name="dotlessj" unicode="&#x237;" horiz-adv-x="368" 
d="M47 -129l158 1214h41l-160 -1226q-37 -281 -305 -281q-85 0 -127 21l4 41q14 -7 50 -14t71 -7q114 0 181.5 55t86.5 197z" />
    <glyph glyph-name="circumflex" unicode="&#x2c6;" horiz-adv-x="1024" 
d="M854 1270h-49l-187 291l-264 -291h-53l299 327h41z" />
    <glyph glyph-name="caron" unicode="&#x2c7;" horiz-adv-x="1024" 
d="M344 1597h49l187 -290l264 290h53l-299 -327h-41z" />
    <glyph glyph-name="breve" unicode="&#x2d8;" horiz-adv-x="1024" 
d="M578 1257q-150 0 -217.5 97t-47.5 243h35q-8 -63 1 -116.5t35.5 -96t76 -66.5t117.5 -24q135 0 215 85.5t96 217.5h39q-20 -148 -110 -244t-240 -96z" />
    <glyph glyph-name="dotaccent" unicode="&#x2d9;" horiz-adv-x="1024" 
d="M645 1475l-10 -82h-82l10 82h82z" />
    <glyph glyph-name="ring" unicode="&#x2da;" horiz-adv-x="1024" 
d="M614 1573q-67 0 -111 -44t-44 -112q0 -59 33.5 -91t91.5 -32q67 0 111 44t44 112q0 59 -33.5 91t-91.5 32zM614 1610q75 0 119.5 -43.5t44.5 -116.5q0 -79 -58.5 -136t-135.5 -57q-75 0 -119.5 43.5t-44.5 116.5q0 79 58.5 136t135.5 57z" />
    <glyph glyph-name="ogonek" unicode="&#x2db;" horiz-adv-x="1232" 
d="M512 -348l8 -35q-76 -39 -162 -39q-74 0 -121 40t-47 118q0 64 24.5 115.5t68 86t88 56t100.5 39.5l10 -33q-37 -12 -66.5 -24.5t-66.5 -35t-61.5 -49t-42 -67t-17.5 -88.5q0 -63 36 -92t95 -29q78 0 154 37z" />
    <glyph glyph-name="tilde" unicode="&#x2dc;" horiz-adv-x="1024" 
d="M848 1499h37q-10 -77 -52 -110t-96 -33q-35 0 -74 18.5t-67.5 41t-65.5 41t-69 18.5q-97 0 -111 -107h-37q10 77 52 110t96 33q35 0 74 -18.5t67.5 -40.5t65.5 -40.5t69 -18.5q43 0 73 22t38 84z" />
    <glyph glyph-name="hungarumlaut" unicode="&#x2dd;" horiz-adv-x="1024" 
d="M885 1597h45l-228 -327h-45zM680 1597h45l-227 -327h-45z" />
    <glyph glyph-name="Bdotaccent" unicode="&#x1e02;" horiz-adv-x="1130" 
d="M272 1597h363q70 0 128.5 -10t114 -37t92 -69t53 -110.5t5.5 -158.5l-6 -49q-11 -91 -40.5 -157t-74 -104.5t-93 -58.5t-109.5 -28q306 -47 264 -381l-6 -49q-12 -97 -45 -168t-77 -112t-107.5 -65.5t-124 -32t-138.5 -7.5h-408zM567 795h-358l-98 -754h360q48 0 85 2.5
t82 10.5t79.5 22.5t70.5 40t60.5 61.5t44 88.5t27.5 118.5l6 49q44 361 -359 361zM635 1556h-326l-94 -720h352q43 0 78 3t75.5 11.5t73 23t64.5 39.5t55 58.5t40.5 82.5t25.5 109l6 49q11 85 -6.5 149.5t-51.5 100.5t-86.5 58t-100.5 29t-105 7zM719 1874l-10 -82h-82
l10 82h82z" />
    <glyph glyph-name="bdotaccent" unicode="&#x1e03;" horiz-adv-x="1044" 
d="M299 1638l-94 -716q50 72 139 124t207 52q203 0 294 -139.5t60 -391.5l-6 -49q-31 -254 -151 -392t-322 -138q-122 0 -204 53t-122 129l-37 -170h-30l43 250l182 1388h41zM197 858l-84 -639q40 -78 117 -134t196 -56q184 0 293 128t139 361l6 49q30 232 -49.5 361
t-263.5 129q-211 0 -354 -199zM350 1874l-10 -82h-82l10 82h82z" />
    <glyph glyph-name="Ddotaccent" unicode="&#x1e0a;" horiz-adv-x="1259" 
d="M1143 823l-6 -49q-21 -168 -68 -300t-111 -220t-147.5 -146t-175 -83t-195.5 -25h-377l209 1597h385q87 0 158.5 -17.5t133.5 -55.5t104.5 -98.5t70.5 -146.5t31.5 -199t-12.5 -257zM111 41h329q127 0 231.5 39.5t192 124t146.5 228.5t84 341l6 49q22 161 11.5 282.5
t-43.5 207.5t-94 140t-138.5 78.5t-178.5 24.5h-348zM739 1874l-10 -82h-82l10 82h82z" />
    <glyph glyph-name="ddotaccent" unicode="&#x1e0b;" horiz-adv-x="1044" 
d="M559 1098q121 0 202 -51.5t118 -120.5l94 712h41l-183 -1396l-20 -242h-33l10 176q-57 -81 -146 -134.5t-208 -53.5q-203 0 -294 139t-60 391l6 49q31 254 151 392.5t322 138.5zM872 866q-40 78 -117 134.5t-196 56.5q-184 0 -293 -128.5t-139 -361.5l-6 -49
q-30 -231 49.5 -360t263.5 -129q212 0 354 198zM1067 1874l-10 -82h-82l10 82h82z" />
    <glyph glyph-name="Fdotaccent" unicode="&#x1e1e;" horiz-adv-x="991" 
d="M272 1597h799l-6 -41h-756l-94 -720h653l-6 -41h-653l-105 -795h-41zM750 1874l-11 -82h-82l11 82h82z" />
    <glyph glyph-name="fdotaccent" unicode="&#x1e1f;" horiz-adv-x="696" 
d="M356 1376l-39 -291h338l-6 -41h-336l-137 -1044h-41l137 1044h-176l6 41h174l43 318q8 60 28.5 105t47 72t63.5 43.5t72.5 22t79.5 5.5q32 0 65.5 -6.5t49.5 -11.5t23 -9l-7 -41q-54 27 -131 27q-109 0 -172.5 -50.5t-81.5 -183.5zM596 1874l-10 -82h-82l10 82h82z" />
    <glyph glyph-name="Mdotaccent" unicode="&#x1e40;" horiz-adv-x="1556" 
d="M965 1874l-11 -82h-82l11 82h82zM684 61l770 1536h47l-209 -1597h-41l150 1149l51 354l-754 -1503h-41l-360 1503l-43 -356l-150 -1147h-41l209 1597h43z" />
    <glyph glyph-name="mdotaccent" unicode="&#x1e41;" horiz-adv-x="1536" 
d="M1153 1098q140 0 212.5 -68.5t53.5 -218.5l-106 -811h-41l104 797q35 260 -223 260q-113 0 -201.5 -59.5t-140.5 -139.5l-4 -31q0 -3 -1 -8.5t-1 -7.5l-107 -811h-41l105 797q35 260 -223 260q-113 0 -201.5 -59.5t-140.5 -139.5l-113 -858h-41l111 844l20 241h33
l-10 -176q51 77 138.5 133t203.5 56q113 0 184 -46.5t82 -144.5q142 191 348 191zM911 1475l-10 -82h-82l10 82h82z" />
    <glyph glyph-name="Pdotaccent" unicode="&#x1e56;" horiz-adv-x="1114" 
d="M197 696l-93 -696h-41l209 1597h383q72 0 135 -12.5t120 -44t95 -79.5t55 -124t5 -172l-6 -49q-12 -99 -48.5 -174.5t-85 -121.5t-113.5 -74.5t-127 -39t-132 -10.5h-356zM201 737h352q416 0 463 379l6 49q12 95 -7 167t-55.5 113.5t-91.5 67.5t-106 34.5t-107 8.5h-348z
M729 1874l-10 -82h-82l10 82h82z" />
    <glyph glyph-name="pdotaccent" unicode="&#x1e57;" horiz-adv-x="1044" 
d="M424 -12q-121 0 -202 51.5t-118 120.5l-75 -570h-41l164 1254l20 241h33l-10 -176q57 81 146 135t208 54q203 0 294 -139.5t60 -391.5l-6 -49q-31 -254 -151 -392t-322 -138zM195 858l-84 -639q40 -78 117 -134t196 -56q184 0 293 128t139 361l6 49q30 232 -49.5 361
t-263.5 129q-211 0 -354 -199zM649 1475l-10 -82h-82l10 82h82z" />
    <glyph glyph-name="Tdotaccent" unicode="&#x1e6a;" horiz-adv-x="1003" 
d="M625 1556l-205 -1556h-41l203 1556h-428l6 41h899l-6 -41h-428zM688 1874l-10 -82h-82l10 82h82z" />
    <glyph glyph-name="tdotaccent" unicode="&#x1e6b;" horiz-adv-x="737" 
d="M317 1085h379l-6 -41h-377l-100 -763q-19 -142 32.5 -197t164.5 -55q86 0 131 20l-6 -41q-50 -20 -125 -20q-61 0 -106.5 13t-81 42.5t-49.5 85.5t-3 135l102 780h-176l6 41h174l41 308h41zM410 1628l-11 -82h-82l11 82h82z" />
    <glyph glyph-name="Wgrave" unicode="&#x1e80;" horiz-adv-x="1761" 
d="M1010 1597l215 -1529l522 1529h45l-551 -1597h-45l-215 1532l-616 -1532h-46l-133 1597h41l125 -1525l613 1525h45zM887 1946h45l96 -226h-45z" />
    <glyph glyph-name="wgrave" unicode="&#x1e81;" horiz-adv-x="1372" 
d="M721 1032l-447 -1032h-49l-116 1085h43l106 -1032l444 1032h50l174 -1036l374 1036h46l-400 -1085h-49zM588 1597h45l141 -327h-45z" />
    <glyph glyph-name="Wacute" unicode="&#x1e82;" horiz-adv-x="1761" 
d="M1010 1597l215 -1529l522 1529h45l-551 -1597h-45l-215 1532l-616 -1532h-46l-133 1597h41l125 -1525l613 1525h45zM1141 1946h45l-158 -226h-45z" />
    <glyph glyph-name="wacute" unicode="&#x1e83;" horiz-adv-x="1372" 
d="M721 1032l-447 -1032h-49l-116 1085h43l106 -1032l444 1032h50l174 -1036l374 1036h46l-400 -1085h-49zM956 1597h45l-227 -327h-45z" />
    <glyph glyph-name="Wdieresis" unicode="&#x1e84;" horiz-adv-x="1761" 
d="M1010 1597l215 -1529l522 1529h45l-551 -1597h-45l-215 1532l-616 -1532h-46l-133 1597h41l125 -1525l613 1525h45zM924 1874l-11 -82h-82l11 82h82zM1210 1874l-10 -82h-82l10 82h82z" />
    <glyph glyph-name="wdieresis" unicode="&#x1e85;" horiz-adv-x="1372" 
d="M721 1032l-447 -1032h-49l-116 1085h43l106 -1032l444 1032h50l174 -1036l374 1036h46l-400 -1085h-49zM676 1475l-10 -82h-82l10 82h82zM963 1475l-11 -82h-82l11 82h82z" />
    <glyph glyph-name="Eszett" unicode="&#x1e9e;" horiz-adv-x="1433" 
d="M645 868l451 635q-109 66 -293 66q-87 0 -160 -13.5t-142 -46.5t-120 -86t-88 -136t-51 -191l-144 -1096h-41l146 1108q65 502 600 502q213 0 338 -88l-4 -31l-439 -619l207 -26q219 -29 321.5 -136.5t80.5 -279.5l-7 -49q-17 -134 -84.5 -224t-166.5 -129.5t-228 -39.5
q-220 0 -321 114.5t-70 360.5l6 49h41q-14 -82 -12 -148t12 -116.5t34 -87.5t53.5 -62t70 -40.5t84 -22t96.5 -6.5h12q178 0 293.5 89.5t136.5 262.5l7 49q21 169 -78.5 260.5t-306.5 118.5l-238 31z" />
    <glyph glyph-name="Ygrave" unicode="&#x1ef2;" horiz-adv-x="1105" 
d="M508 518l608 1079h47l-639 -1126l-61 -471h-41l61 471l-344 1126h43zM549 1946h45l96 -226h-45z" />
    <glyph glyph-name="ygrave" unicode="&#x1ef3;" horiz-adv-x="942" 
d="M381 90l500 995h47l-535 -1050l-219 -445h-45l227 445l-260 1050h43zM373 1597h45l141 -327h-45z" />
    <glyph glyph-name="enspace" unicode="&#x2002;" horiz-adv-x="1024" 
 />
    <glyph glyph-name="emspace" unicode="&#x2003;" horiz-adv-x="2048" 
 />
    <glyph glyph-name="threeperemspace" unicode="&#x2004;" horiz-adv-x="681" 
 />
    <glyph glyph-name="fourperemspace" unicode="&#x2005;" horiz-adv-x="512" 
 />
    <glyph glyph-name="sixperemspace" unicode="&#x2006;" horiz-adv-x="342" 
 />
    <glyph glyph-name="figurespace" unicode="&#x2007;" horiz-adv-x="1228" 
 />
    <glyph glyph-name="punctuationspace" unicode="&#x2008;" horiz-adv-x="368" 
 />
    <glyph glyph-name="thinspace" unicode="&#x2009;" horiz-adv-x="307" 
 />
    <glyph glyph-name="hairspace" unicode="&#x200a;" horiz-adv-x="102" 
 />
    <glyph glyph-name="zerowidthspace" unicode="&#x200b;" horiz-adv-x="0" 
 />
    <glyph glyph-name="figuredash" unicode="&#x2012;" horiz-adv-x="1228" 
d="M90 676l6 41h1024l-6 -41h-1024z" />
    <glyph glyph-name="endash" unicode="&#x2013;" horiz-adv-x="1024" 
d="M90 676l6 41h819l-6 -41h-819z" />
    <glyph glyph-name="emdash" unicode="&#x2014;" horiz-adv-x="2048" 
d="M90 676l6 41h1843l-6 -41h-1843z" />
    <glyph glyph-name="uni2015" unicode="&#x2015;" horiz-adv-x="2457" 
d="M90 676l6 41h2253l-6 -41h-2253z" />
    <glyph glyph-name="doublebar" unicode="&#x2016;" horiz-adv-x="573" 
d="M31 -246l258 1966h41l-258 -1966h-41zM236 -246l258 1966h41l-259 -1966h-40z" />
    <glyph glyph-name="quoteleft" unicode="&#x2018;" horiz-adv-x="368" 
d="M215 1313l8 65q15 114 69.5 173t135.5 59l-4 -41q-132 0 -158 -174h41l-10 -82h-82z" />
    <glyph glyph-name="quoteright" unicode="&#x2019;" horiz-adv-x="368" 
d="M334 1597l-8 -65q-15 -114 -69.5 -173t-135.5 -59l4 41q132 0 158 175h-41l10 81h82z" />
    <glyph glyph-name="quotesinglbase" unicode="&#x201a;" horiz-adv-x="368" 
d="M135 82l-8 -66q-15 -114 -69.5 -172.5t-135.5 -58.5l4 41q132 0 158 174h-41l10 82h82z" />
    <glyph glyph-name="reversequoteleft" unicode="&#x201b;" horiz-adv-x="368" 
d="M244 1532l8 65h82l-10 -81h-41q-21 -175 108 -175l-4 -41q-80 0 -119 59t-24 173z" />
    <glyph glyph-name="quotedblleft" unicode="&#x201c;" horiz-adv-x="532" 
d="M215 1313l8 65q15 114 69.5 173t135.5 59l-4 -41q-132 0 -158 -174h41l-10 -82h-82zM379 1313l8 65q15 114 69.5 173t135.5 59l-4 -41q-132 0 -158 -174h41l-10 -82h-82z" />
    <glyph glyph-name="quotedblright" unicode="&#x201d;" horiz-adv-x="532" 
d="M334 1597l-8 -65q-15 -114 -69.5 -173t-135.5 -59l4 41q132 0 158 175h-41l10 81h82zM498 1597l-9 -65q-15 -114 -69.5 -173t-134.5 -59l4 41q131 0 157 175h-40l10 81h82z" />
    <glyph glyph-name="quotedblbase" unicode="&#x201e;" horiz-adv-x="532" 
d="M135 82l-8 -66q-15 -114 -69.5 -172.5t-135.5 -58.5l4 41q132 0 158 174h-41l10 82h82zM299 82l-8 -66q-15 -114 -69.5 -172.5t-135.5 -58.5l4 41q132 0 158 174h-41l10 82h82z" />
    <glyph glyph-name="reversequotedblleft" unicode="&#x201f;" horiz-adv-x="532" 
d="M244 1532l8 65h82l-10 -81h-41q-21 -175 108 -175l-4 -41q-80 0 -119 59t-24 173zM408 1532l8 65h82l-11 -81h-41q-21 -175 109 -175l-4 -41q-80 0 -119 59t-24 173z" />
    <glyph glyph-name="dagger" unicode="&#x2020;" horiz-adv-x="778" 
d="M483 1638h41l-41 -307h-41zM399 696h-41l68 512h41zM104 1249l7 41h286l-6 -41h-287zM805 1290l-6 -41h-287l6 41h287z" />
    <glyph glyph-name="daggerdbl" unicode="&#x2021;" horiz-adv-x="778" 
d="M483 1638h41l-41 -307h-41zM104 1249l7 41h286l-6 -41h-287zM805 1290l-6 -41h-287l6 41h287zM426 1208h41l-41 -307h-41zM342 266h-41l68 512h41zM47 819l6 41h287l-6 -41h-287zM748 860l-7 -41h-286l6 41h287z" />
    <glyph glyph-name="bullet" unicode="&#x2022;" horiz-adv-x="778" 
d="M657 942l-65 -491h-492l66 491h491z" />
    <glyph glyph-name="ellipsis" unicode="&#x2026;" horiz-adv-x="2048" 
d="M319 82l-10 -82h-82l11 82h81zM1630 82l-10 -82h-82l10 82h82zM975 82l-10 -82h-82l10 82h82z" />
    <glyph glyph-name="perthousand" unicode="&#x2030;" horiz-adv-x="2580" 
d="M782 1278l-2 -16q-20 -155 -110.5 -243.5t-227.5 -88.5q-141 0 -214.5 89t-53.5 243l2 16q20 155 110.5 243.5t227.5 88.5q52 0 104 -15q180 -59 386 -59q96 0 201 19.5t167 41.5l-4 -30l-856 -1567h-45l842 1540q-141 -45 -305 -45q-143 0 -279 31q76 -88 57 -248z
M1329 29h12q117 0 196.5 80.5t94.5 209.5l2 17q17 133 -43.5 212t-177.5 79h-12q-117 0 -196.5 -81t-94.5 -210l-2 -17q-17 -133 43.5 -211.5t177.5 -78.5zM1335 -12q-141 0 -214.5 88.5t-53.5 242.5l2 17q20 155 110.5 243.5t227.5 88.5q141 0 214.5 -89t53.5 -243l-2 -17
q-20 -155 -110.5 -243t-227.5 -88zM739 1262l2 16q17 133 -43.5 212t-177.5 79h-12q-117 0 -196.5 -81t-94.5 -210l-2 -16q-17 -133 43.5 -212t177.5 -79h13q117 0 196 81t94 210zM2066 29h13q117 0 196.5 80.5t94.5 209.5l2 17q17 133 -43.5 212t-178.5 79h-12
q-117 0 -196.5 -81t-94.5 -210l-2 -17q-17 -133 43.5 -211.5t177.5 -78.5zM2073 -12q-141 0 -215 88.5t-54 242.5l2 17q20 155 110.5 243.5t227.5 88.5q141 0 215 -89t54 -243l-3 -17q-20 -155 -110 -243t-227 -88z" />
    <glyph glyph-name="tripleprime" unicode="&#x2034;" horiz-adv-x="778" 
d="M272 1597h41l-77 -512h-21zM682 1597h41l-78 -512h-20zM477 1597h41l-78 -512h-20z" />
    <glyph glyph-name="guilsinglleft" unicode="&#x2039;" 
d="M547 1036l-6 -55l-412 -289l336 -289l-8 -47l-367 320l6 41z" />
    <glyph glyph-name="guilsinglright" unicode="&#x203a;" 
d="M49 356l6 56l412 288l-336 289l8 47l367 -319l-6 -41z" />
    <glyph glyph-name="interrobang" unicode="&#x203d;" horiz-adv-x="901" 
d="M412 358h-29l152 1211q-169 -10 -264 -147.5t-130 -397.5h-41l2 14q36 274 152 423t313 149q79 0 140 -24.5t96 -66t57.5 -95.5t24.5 -113t-4 -119q-9 -70 -36.5 -133t-65.5 -113t-82 -99t-89 -100.5t-84 -106.5t-69.5 -127.5t-42.5 -154.5zM838 1178q6 57 5.5 111.5
t-18.5 104t-47.5 88t-81.5 62t-121 25.5l-141 -1030q31 73 82.5 144t101 125.5t96.5 110.5t81 122t43 137zM401 82l-10 -82h-82l10 82h82z" />
    <glyph glyph-name="fraction" unicode="&#x2044;" horiz-adv-x="409" 
d="M-457 0h-53l1384 1597h54z" />
    <glyph glyph-name="uni2070" unicode="&#x2070;" 
d="M625 1378l-47 -360q-29 -230 -263 -230q-122 0 -174.5 61.5t-38.5 168.5l48 360q29 230 262 230q122 0 174.5 -61.5t38.5 -168.5zM537 1032l43 330q26 207 -162 207h-12q-102 0 -152 -50.5t-64 -154.5l-43 -330q-26 -207 162 -207h13q101 0 151 50t64 155z" />
    <glyph glyph-name="uni2074" unicode="&#x2074;" 
d="M434 799h-41l29 225h-354l4 31l428 542h39l-70 -532h147l-6 -41h-147zM487 1520l-360 -457l106 2h195z" />
    <glyph glyph-name="uni2075" unicode="&#x2075;" 
d="M145 1137l-34 8l79 452h465l-6 -41h-426l-59 -337q72 81 201 81q108 0 174 -62t55 -181l-2 -21q-12 -118 -88 -183t-182 -65q-127 0 -185 65t-47 181l2 21h41q-37 -228 182 -228h13q86 0 148.5 52.5t72.5 154.5l2 21q10 103 -42 155t-138 52h-13q-66 0 -124 -32t-89 -93z
" />
    <glyph glyph-name="uni2076" unicode="&#x2076;" 
d="M637 1608l-6 -41q-210 0 -338 -144q-84 -94 -125 -219q34 41 90 68.5t115 27.5q114 0 176 -60t51 -183l-2 -21q-12 -123 -84.5 -185.5t-183.5 -62.5q-119 0 -180.5 74.5t-49.5 202.5l2 20q22 212 160 365q145 158 375 158zM379 1262h-12q-65 0 -125 -38t-90 -94
q-13 -63 -13 -100q0 -97 50 -150t135 -53h12q93 0 151.5 54.5t67.5 152.5l2 21q10 99 -40.5 153t-137.5 54z" />
    <glyph glyph-name="uni2077" unicode="&#x2077;" 
d="M137 1311l37 286h492l-4 -30l-414 -768h-45l409 757h-403l-33 -245h-39z" />
    <glyph glyph-name="uni2078" unicode="&#x2078;" 
d="M322 788q-114 0 -180 51.5t-56 155.5l2 21q7 79 55 126.5t119 63.5q-60 16 -93 61.5t-26 114.5l2 21q9 95 80 150t185 55q113 0 173.5 -53.5t51.5 -149.5l-2 -21q-7 -74 -51 -120t-115 -60q62 -12 96 -62.5t27 -125.5l-2 -21q-10 -98 -85 -152.5t-181 -54.5zM379 1184
h-35q-84 0 -144 -42.5t-69 -125.5l-2 -21q-9 -88 41.5 -128t144.5 -40h13q86 0 147 42.5t70 125.5l2 21q9 84 -37.5 126t-130.5 42zM416 1569h-13q-91 0 -149 -46.5t-66 -121.5l-2 -21q-7 -77 39 -116t129 -39h25q85 0 144 38.5t67 118.5l2 21q8 77 -39 121.5t-137 44.5z
" />
    <glyph glyph-name="uni2079" unicode="&#x2079;" 
d="M84 788l6 41q214 0 342 144q84 94 125 219q-34 -41 -90 -68.5t-115 -27.5q-114 0 -176 60t-51 183l2 21q12 123 84.5 185.5t183.5 62.5q119 0 180.5 -74.5t49.5 -202.5l-2 -20q-22 -212 -160 -365q-145 -158 -379 -158zM346 1135h12q66 0 125.5 37.5t89.5 93.5
q13 63 13 100q0 97 -50 150t-135 53h-12q-93 0 -151.5 -54.5t-67.5 -152.5l-2 -21q-10 -99 40.5 -152.5t137.5 -53.5z" />
    <glyph glyph-name="uni207A" unicode="&#x207a;" 
d="M377 1454h41l-31 -235h236l-7 -41h-235l-31 -236h-41l31 236h-236l7 41h235z" />
    <glyph glyph-name="uni207B" unicode="&#x207b;" 
d="M104 1178l7 41h512l-7 -41h-512z" />
    <glyph glyph-name="uni207C" unicode="&#x207c;" 
d="M119 1280l6 41h512l-6 -41h-512zM90 1075l6 41h512l-6 -41h-512z" />
    <glyph glyph-name="uni207D" unicode="&#x207d;" horiz-adv-x="307" 
d="M121 1194l2 16q28 220 176 387h47q-155 -167 -182 -387l-2 -16q-13 -107 8.5 -210.5t71.5 -184.5h-45q-101 184 -76 395z" />
    <glyph glyph-name="uni207E" unicode="&#x207e;" horiz-adv-x="307" 
d="M297 1202l-2 -16q-28 -220 -176 -387h-47q155 167 182 387l2 16q13 107 -8.5 210.5t-71.5 184.5h45q101 -184 76 -395z" />
    <glyph glyph-name="uni2080" unicode="&#x2080;" 
d="M520 580l-47 -361q-29 -229 -262 -229q-122 0 -174.5 61t-38.5 168l47 361q29 229 262 229q122 0 174.5 -61t38.5 -168zM432 233l43 330q26 207 -162 207h-12q-101 0 -151 -50t-64 -155l-43 -329q-26 -207 162 -207h12q101 0 151 50t64 154z" />
    <glyph glyph-name="uni2081" unicode="&#x2081;" 
d="M455 0h-482l7 41h221l92 700l-238 -145l-20 37l276 170h31l-100 -762h219z" />
    <glyph glyph-name="uni2082" unicode="&#x2082;" 
d="M113 41h336l-7 -41h-481l4 31l408 370q59 54 83 91.5t29 80.5l2 21q8 80 -36.5 128t-137.5 48h-12q-105 0 -159.5 -55t-69.5 -183h-41l4 31q32 246 272 246q116 0 174 -56t49 -157l-2 -21q-6 -53 -33.5 -95.5t-86.5 -96.5l-379 -344z" />
    <glyph glyph-name="uni2083" unicode="&#x2083;" 
d="M211 29h12q86 0 147 42.5t70 125.5l2 20q9 84 -37.5 126t-130.5 42h-120l6 41h114q83 0 143.5 41t67.5 117l2 20q8 77 -39 121.5t-137 44.5h-12q-103 0 -159 -56.5t-68 -181.5h-41l2 21q12 123 79.5 189.5t192.5 66.5q113 0 173.5 -53.5t51.5 -149.5l-2 -20
q-7 -70 -52 -118t-114 -62q61 -12 95.5 -63t27.5 -126l-2 -20q-10 -98 -85 -152.5t-181 -54.5q-127 0 -184.5 65t-46.5 181l2 20h41q-37 -227 182 -227z" />
    <glyph glyph-name="uni2084" unicode="&#x2084;" 
d="M330 0h-41l28 225h-354l4 31l428 543h39l-69 -533h147l-6 -41h-148zM383 721l-360 -457l106 2h195z" />
    <glyph glyph-name="uni2085" unicode="&#x2085;" 
d="M41 338l-35 8l80 453h465l-6 -41h-426l-60 -338q73 82 201 82q108 0 174 -62.5t55 -181.5l-2 -20q-12 -118 -88 -183t-182 -65q-127 0 -184.5 65t-46.5 181l2 20h41q-37 -227 182 -227h12q86 0 148.5 52.5t72.5 154.5l2 20q10 103 -42 155t-138 52h-12q-66 0 -124 -32
t-89 -93z" />
    <glyph glyph-name="uni2086" unicode="&#x2086;" 
d="M532 809l-6 -41q-211 0 -338 -143q-84 -94 -125 -219q34 41 90 68.5t115 27.5q114 0 176.5 -60.5t51.5 -183.5l-2 -20q-12 -123 -85 -185.5t-184 -62.5q-119 0 -180 74t-49 202l2 21q22 211 160 364q145 158 374 158zM274 463h-12q-66 0 -125.5 -37.5t-89.5 -93.5
q-12 -58 -12 -101q0 -97 49.5 -149.5t134.5 -52.5h12q93 0 152 55t68 152l2 20q10 99 -41 153t-138 54z" />
    <glyph glyph-name="uni2087" unicode="&#x2087;" 
d="M33 512l37 287h491l-4 -31l-414 -768h-45l410 758h-404l-32 -246h-39z" />
    <glyph glyph-name="uni2088" unicode="&#x2088;" 
d="M217 -10q-114 0 -179.5 51.5t-55.5 155.5l2 20q7 79 55 127t119 64q-60 16 -93 61.5t-26 114.5l2 20q9 95 79.5 150t184.5 55q113 0 173.5 -53.5t51.5 -149.5l-2 -20q-7 -74 -51 -120t-115 -60q61 -12 95.5 -63t27.5 -126l-2 -20q-10 -98 -85 -152.5t-181 -54.5zM274 385
h-34q-84 0 -144 -42.5t-69 -125.5l-2 -20q-9 -88 41.5 -128t144.5 -40h12q86 0 147 42.5t70 125.5l2 20q9 84 -37.5 126t-130.5 42zM311 770h-12q-91 0 -149 -46.5t-66 -121.5l-2 -20q-7 -77 39 -116.5t129 -39.5h24q85 0 144 39t67 119l2 20q8 77 -39 121.5t-137 44.5z" />
    <glyph glyph-name="uni2089" unicode="&#x2089;" 
d="M-20 -10l6 41q215 0 342 143q84 94 125 219q-34 -41 -90 -68.5t-115 -27.5q-114 0 -176.5 60.5t-51.5 183.5l3 20q12 123 84.5 185.5t183.5 62.5q119 0 180 -74.5t49 -202.5l-2 -20q-22 -212 -160 -365q-144 -157 -378 -157zM242 336h12q66 0 125.5 37.5t89.5 93.5
q12 58 12 100q0 97 -49.5 150t-134.5 53h-12q-93 0 -151.5 -54.5t-67.5 -152.5l-3 -20q-10 -99 41 -153t138 -54z" />
    <glyph glyph-name="uni208A" unicode="&#x208a;" 
d="M272 655h41l-30 -235h235l-6 -41h-236l-30 -236h-41l31 236h-236l6 41h236z" />
    <glyph glyph-name="uni208B" unicode="&#x208b;" 
d="M0 379l6 41h512l-6 -41h-512z" />
    <glyph glyph-name="uni208C" unicode="&#x208c;" 
d="M14 481l6 41h512l-6 -41h-512zM-14 276l6 41h512l-6 -41h-512z" />
    <glyph glyph-name="uni208D" unicode="&#x208d;" horiz-adv-x="307" 
d="M16 395l2 17q28 219 177 387h47q-156 -169 -183 -387l-2 -17q-13 -107 8.5 -210.5t71.5 -184.5h-45q-101 184 -76 395z" />
    <glyph glyph-name="uni208E" unicode="&#x208e;" horiz-adv-x="307" 
d="M193 403l-3 -16q-28 -220 -176 -387h-47q156 169 183 387l2 16q13 107 -8.5 211t-71.5 185h45q101 -184 76 -396z" />
    <glyph glyph-name="Euro" unicode="&#x20ac;" horiz-adv-x="1228" 
d="M63 635l7 41h155l33 246h-156l7 41h155q81 647 543 647q219 0 301.5 -125.5t46.5 -411.5l-6 -49h-41q21 154 17 258t-43.5 168t-104 91.5t-164.5 27.5h-12q-207 0 -331.5 -145t-164.5 -461h621l-27 -41h-600l-33 -246h520l-26 -41h-498q-39 -295 49.5 -450.5
t286.5 -155.5h12q186 0 296.5 114.5t135.5 368.5h41l-6 -49q-59 -475 -473 -475q-223 0 -324.5 164.5t-60.5 482.5h-156z" />
    <glyph glyph-name="ruble" unicode="&#x20bd;" horiz-adv-x="1228" 
d="M309 696l-33 -245h451l-6 -41h-451l-53 -410h-41l53 410h-225l6 41h223l33 245h-225l6 41h223l115 860h383q72 0 135 -12.5t120 -44t95 -79.5t55 -124t5 -172l-7 -49q-12 -99 -48.5 -174.5t-85 -121.5t-113 -74.5t-126.5 -39t-132 -10.5h-357zM313 737h353q415 0 462 379
l7 49q12 95 -7 167t-55.5 113.5t-91.5 67.5t-106 34.5t-107 8.5h-348z" />
    <glyph glyph-name="numero" unicode="&#x2116;" horiz-adv-x="2150" 
d="M1016 66l37 292l161 1239h41l-208 -1597h-46l-698 1532l-37 -293l-162 -1239h-41l209 1597h45zM1386 471l7 41h610l-6 -41h-611zM2068 1169l7 50q22 177 -46 263.5t-188 86.5q-133 0 -224.5 -88t-113.5 -262l-6 -50q-22 -177 46 -263.5t188 -86.5q132 0 223.5 88
t113.5 262zM2116 1219l-7 -50q-12 -93 -43 -165t-70 -113.5t-88.5 -68t-91.5 -35.5t-85 -9q-42 0 -82 10.5t-81 38t-69.5 70t-41 113t-1.5 159.5l6 50q12 93 43.5 165t70.5 113.5t88 68t91.5 35.5t85.5 9q42 0 82 -10.5t81 -38t69.5 -70t41 -113t1.5 -159.5z" />
    <glyph glyph-name="published" unicode="&#x2117;" horiz-adv-x="1843" 
d="M111 799q0 221 108.5 407.5t295 295t407.5 108.5t407.5 -108.5t295 -295t108.5 -407.5t-108.5 -407.5t-295 -295t-407.5 -108.5t-407.5 108.5t-295 295t-108.5 407.5zM152 799q0 -157 61 -299.5t164 -245.5t245.5 -164t299.5 -61t299.5 61t245.5 164t164 245.5t61 299.5
t-61 299.5t-164 245.5t-245.5 164t-299.5 61t-299.5 -61t-245.5 -164t-164 -245.5t-61 -299.5zM670 727v-410h-41v963h329q53 0 98.5 -12.5t87.5 -40.5t66.5 -81.5t24.5 -127.5v-29q0 -74 -24.5 -127.5t-66.5 -81.5t-87.5 -40.5t-98.5 -12.5h-288zM670 768h293
q31 0 60.5 5.5t61.5 20.5t55 39t38.5 65.5t15.5 94.5v21q0 53 -15.5 94.5t-38.5 65.5t-55 39t-61.5 20.5t-60.5 5.5h-293v-471z" />
    <glyph glyph-name="servicemark" unicode="&#x2120;" horiz-adv-x="942" 
d="M668 1085l-162 459l4 -149v-310h-33v553h29l178 -508l178 508h29v-553h-33v310l4 149l-162 -459h-32zM201 1358q-160 21 -160 137v8q0 66 46.5 105t121.5 39q89 0 130.5 -44t41.5 -139v-10h-33q0 91 -29.5 125.5t-105.5 34.5h-8q-58 0 -94.5 -28.5t-36.5 -78.5v-8
q0 -49 31.5 -76t113.5 -39q88 -13 127 -49t39 -98v-8q0 -69 -50.5 -110.5t-129.5 -41.5q-83 0 -125.5 47t-42.5 131v7h33q0 -152 131 -152h8q68 0 105.5 31t37.5 86v6q0 56 -36.5 85t-114.5 40z" />
    <glyph glyph-name="trademark" unicode="&#x2122;" horiz-adv-x="942" 
d="M668 1085l-162 459l4 -149v-310h-33v553h29l178 -508l178 508h29v-553h-33v310l4 149l-162 -459h-32zM236 1606v-521h-33v521h-162v32h356v-32h-161z" />
    <glyph glyph-name="uni2153" unicode="&#x2153;" horiz-adv-x="1638" 
d="M559 799h-481l6 41h221l92 700l-237 -145l-21 37l277 170h30l-100 -762h219zM158 0h-54l1385 1597h53zM1235 29h12q86 0 147 42.5t70 125.5l2 20q9 84 -37.5 126t-130.5 42h-120l6 41h114q83 0 143.5 41t67.5 117l2 20q8 77 -39 121.5t-137 44.5h-12q-103 0 -159 -56.5
t-68 -181.5h-41l2 21q12 123 79.5 189.5t192.5 66.5q113 0 173.5 -53.5t51.5 -149.5l-2 -20q-7 -70 -52 -118t-114 -62q61 -12 95.5 -63t27.5 -126l-2 -20q-10 -98 -85 -152.5t-181 -54.5q-127 0 -184.5 65t-46.5 181l2 20h41q-37 -227 182 -227z" />
    <glyph glyph-name="uni2154" unicode="&#x2154;" horiz-adv-x="1638" 
d="M217 840h336l-6 -41h-481l4 30l407 371q59 54 84 92t29 80l2 21q8 80 -36.5 128t-137.5 48h-12q-105 0 -160 -55t-70 -183h-41l4 31q32 246 273 246q116 0 174 -56t49 -157l-2 -21q-6 -53 -34 -95.5t-87 -96.5l-379 -344zM158 0h-54l1385 1597h53zM1235 29h12
q86 0 147 42.5t70 125.5l2 20q9 84 -37.5 126t-130.5 42h-120l6 41h114q83 0 143.5 41t67.5 117l2 20q8 77 -39 121.5t-137 44.5h-12q-103 0 -159 -56.5t-68 -181.5h-41l2 21q12 123 79.5 189.5t192.5 66.5q113 0 173.5 -53.5t51.5 -149.5l-2 -20q-7 -70 -52 -118t-114 -62
q61 -12 95.5 -63t27.5 -126l-2 -20q-10 -98 -85 -152.5t-181 -54.5q-127 0 -184.5 65t-46.5 181l2 20h41q-37 -227 182 -227z" />
    <glyph glyph-name="uni2155" unicode="&#x2155;" horiz-adv-x="1638" 
d="M559 799h-481l6 41h221l92 700l-237 -145l-21 37l277 170h30l-100 -762h219zM158 0h-54l1385 1597h53zM1065 338l-35 8l80 453h465l-6 -41h-426l-60 -338q73 82 201 82q108 0 174 -62.5t55 -181.5l-2 -20q-12 -118 -88 -183t-182 -65q-127 0 -184.5 65t-46.5 181l2 20h41
q-37 -227 182 -227h12q86 0 148.5 52.5t72.5 154.5l2 20q10 103 -42 155t-138 52h-12q-66 0 -124 -32t-89 -93z" />
    <glyph glyph-name="uni2156" unicode="&#x2156;" horiz-adv-x="1638" 
d="M217 840h336l-6 -41h-481l4 30l407 371q59 54 84 92t29 80l2 21q8 80 -36.5 128t-137.5 48h-12q-105 0 -160 -55t-70 -183h-41l4 31q32 246 273 246q116 0 174 -56t49 -157l-2 -21q-6 -53 -34 -95.5t-87 -96.5l-379 -344zM158 0h-54l1385 1597h53zM1065 338l-35 8l80 453
h465l-6 -41h-426l-60 -338q73 82 201 82q108 0 174 -62.5t55 -181.5l-2 -20q-12 -118 -88 -183t-182 -65q-127 0 -184.5 65t-46.5 181l2 20h41q-37 -227 182 -227h12q86 0 148.5 52.5t72.5 154.5l2 20q10 103 -42 155t-138 52h-12q-66 0 -124 -32t-89 -93z" />
    <glyph glyph-name="uni2157" unicode="&#x2157;" horiz-adv-x="1638" 
d="M315 827h13q86 0 147 42.5t70 125.5l2 21q9 84 -37.5 126t-130.5 42h-121l6 41h115q83 0 143.5 40.5t67.5 116.5l2 21q8 77 -39 121.5t-137 44.5h-13q-103 0 -159 -56.5t-68 -181.5h-41l2 21q12 122 80 189t193 67q113 0 173.5 -53.5t51.5 -149.5l-2 -21q-7 -70 -52 -118
t-114 -62q62 -12 96 -62.5t27 -125.5l-2 -21q-10 -98 -85 -152.5t-181 -54.5q-127 0 -185 65t-47 181l2 21h41q-37 -228 182 -228zM158 0h-54l1385 1597h53zM1065 338l-35 8l80 453h465l-6 -41h-426l-60 -338q73 82 201 82q108 0 174 -62.5t55 -181.5l-2 -20
q-12 -118 -88 -183t-182 -65q-127 0 -184.5 65t-46.5 181l2 20h41q-37 -227 182 -227h12q86 0 148.5 52.5t72.5 154.5l2 20q10 103 -42 155t-138 52h-12q-66 0 -124 -32t-89 -93z" />
    <glyph glyph-name="uni2158" unicode="&#x2158;" horiz-adv-x="1638" 
d="M434 799h-41l29 225h-354l4 31l428 542h39l-70 -532h147l-6 -41h-147zM487 1520l-360 -457l106 2h195zM158 0h-54l1385 1597h53zM1065 338l-35 8l80 453h465l-6 -41h-426l-60 -338q73 82 201 82q108 0 174 -62.5t55 -181.5l-2 -20q-12 -118 -88 -183t-182 -65
q-127 0 -184.5 65t-46.5 181l2 20h41q-37 -227 182 -227h12q86 0 148.5 52.5t72.5 154.5l2 20q10 103 -42 155t-138 52h-12q-66 0 -124 -32t-89 -93z" />
    <glyph glyph-name="uni2159" unicode="&#x2159;" horiz-adv-x="1638" 
d="M559 799h-481l6 41h221l92 700l-237 -145l-21 37l277 170h30l-100 -762h219zM158 0h-54l1385 1597h53zM1556 809l-6 -41q-211 0 -338 -143q-84 -94 -125 -219q34 41 90 68.5t115 27.5q114 0 176.5 -60.5t51.5 -183.5l-2 -20q-12 -123 -85 -185.5t-184 -62.5
q-119 0 -180 74t-49 202l2 21q22 211 160 364q145 158 374 158zM1298 463h-12q-66 0 -125.5 -37.5t-89.5 -93.5q-12 -58 -12 -101q0 -97 49.5 -149.5t134.5 -52.5h12q93 0 152 55t68 152l2 20q10 99 -41 153t-138 54z" />
    <glyph glyph-name="uni215A" unicode="&#x215a;" horiz-adv-x="1638" 
d="M145 1137l-34 8l79 452h465l-6 -41h-426l-59 -337q72 81 201 81q108 0 174 -62t55 -181l-2 -21q-12 -118 -88 -183t-182 -65q-127 0 -185 65t-47 181l2 21h41q-37 -228 182 -228h13q86 0 148.5 52.5t72.5 154.5l2 21q10 103 -42 155t-138 52h-13q-66 0 -124 -32t-89 -93z
M158 0h-54l1385 1597h53zM1556 809l-6 -41q-211 0 -338 -143q-84 -94 -125 -219q34 41 90 68.5t115 27.5q114 0 176.5 -60.5t51.5 -183.5l-2 -20q-12 -123 -85 -185.5t-184 -62.5q-119 0 -180 74t-49 202l2 21q22 211 160 364q145 158 374 158zM1298 463h-12
q-66 0 -125.5 -37.5t-89.5 -93.5q-12 -58 -12 -101q0 -97 49.5 -149.5t134.5 -52.5h12q93 0 152 55t68 152l2 20q10 99 -41 153t-138 54z" />
    <glyph glyph-name="uni215B" unicode="&#x215b;" horiz-adv-x="1638" 
d="M559 799h-481l6 41h221l92 700l-237 -145l-21 37l277 170h30l-100 -762h219zM158 0h-54l1385 1597h53zM1241 -10q-114 0 -179.5 51.5t-55.5 155.5l2 20q7 79 55 127t119 64q-60 16 -93 61.5t-26 114.5l2 20q9 95 79.5 150t184.5 55q113 0 173.5 -53.5t51.5 -149.5l-2 -20
q-7 -74 -51 -120t-115 -60q61 -12 95.5 -63t27.5 -126l-2 -20q-10 -98 -85 -152.5t-181 -54.5zM1298 385h-34q-84 0 -144 -42.5t-69 -125.5l-2 -20q-9 -88 41.5 -128t144.5 -40h12q86 0 147 42.5t70 125.5l2 20q9 84 -37.5 126t-130.5 42zM1335 770h-12q-91 0 -149 -46.5
t-66 -121.5l-2 -20q-7 -77 39 -116.5t129 -39.5h24q85 0 144 39t67 119l2 20q8 77 -39 121.5t-137 44.5z" />
    <glyph glyph-name="uni215C" unicode="&#x215c;" horiz-adv-x="1638" 
d="M315 827h13q86 0 147 42.5t70 125.5l2 21q9 84 -37.5 126t-130.5 42h-121l6 41h115q83 0 143.5 40.5t67.5 116.5l2 21q8 77 -39 121.5t-137 44.5h-13q-103 0 -159 -56.5t-68 -181.5h-41l2 21q12 122 80 189t193 67q113 0 173.5 -53.5t51.5 -149.5l-2 -21q-7 -70 -52 -118
t-114 -62q62 -12 96 -62.5t27 -125.5l-2 -21q-10 -98 -85 -152.5t-181 -54.5q-127 0 -185 65t-47 181l2 21h41q-37 -228 182 -228zM158 0h-54l1385 1597h53zM1241 -10q-114 0 -179.5 51.5t-55.5 155.5l2 20q7 79 55 127t119 64q-60 16 -93 61.5t-26 114.5l2 20
q9 95 79.5 150t184.5 55q113 0 173.5 -53.5t51.5 -149.5l-2 -20q-7 -74 -51 -120t-115 -60q61 -12 95.5 -63t27.5 -126l-2 -20q-10 -98 -85 -152.5t-181 -54.5zM1298 385h-34q-84 0 -144 -42.5t-69 -125.5l-2 -20q-9 -88 41.5 -128t144.5 -40h12q86 0 147 42.5t70 125.5
l2 20q9 84 -37.5 126t-130.5 42zM1335 770h-12q-91 0 -149 -46.5t-66 -121.5l-2 -20q-7 -77 39 -116.5t129 -39.5h24q85 0 144 39t67 119l2 20q8 77 -39 121.5t-137 44.5z" />
    <glyph glyph-name="uni215D" unicode="&#x215d;" horiz-adv-x="1638" 
d="M145 1137l-34 8l79 452h465l-6 -41h-426l-59 -337q72 81 201 81q108 0 174 -62t55 -181l-2 -21q-12 -118 -88 -183t-182 -65q-127 0 -185 65t-47 181l2 21h41q-37 -228 182 -228h13q86 0 148.5 52.5t72.5 154.5l2 21q10 103 -42 155t-138 52h-13q-66 0 -124 -32t-89 -93z
M158 0h-54l1385 1597h53zM1241 -10q-114 0 -179.5 51.5t-55.5 155.5l2 20q7 79 55 127t119 64q-60 16 -93 61.5t-26 114.5l2 20q9 95 79.5 150t184.5 55q113 0 173.5 -53.5t51.5 -149.5l-2 -20q-7 -74 -51 -120t-115 -60q61 -12 95.5 -63t27.5 -126l-2 -20
q-10 -98 -85 -152.5t-181 -54.5zM1298 385h-34q-84 0 -144 -42.5t-69 -125.5l-2 -20q-9 -88 41.5 -128t144.5 -40h12q86 0 147 42.5t70 125.5l2 20q9 84 -37.5 126t-130.5 42zM1335 770h-12q-91 0 -149 -46.5t-66 -121.5l-2 -20q-7 -77 39 -116.5t129 -39.5h24q85 0 144 39
t67 119l2 20q8 77 -39 121.5t-137 44.5z" />
    <glyph glyph-name="uni215E" unicode="&#x215e;" horiz-adv-x="1638" 
d="M137 1311l37 286h492l-4 -30l-414 -768h-45l409 757h-403l-33 -245h-39zM158 0h-54l1385 1597h53zM1241 -10q-114 0 -179.5 51.5t-55.5 155.5l2 20q7 79 55 127t119 64q-60 16 -93 61.5t-26 114.5l2 20q9 95 79.5 150t184.5 55q113 0 173.5 -53.5t51.5 -149.5l-2 -20
q-7 -74 -51 -120t-115 -60q61 -12 95.5 -63t27.5 -126l-2 -20q-10 -98 -85 -152.5t-181 -54.5zM1298 385h-34q-84 0 -144 -42.5t-69 -125.5l-2 -20q-9 -88 41.5 -128t144.5 -40h12q86 0 147 42.5t70 125.5l2 20q9 84 -37.5 126t-130.5 42zM1335 770h-12q-91 0 -149 -46.5
t-66 -121.5l-2 -20q-7 -77 39 -116.5t129 -39.5h24q85 0 144 39t67 119l2 20q8 77 -39 121.5t-137 44.5z" />
    <glyph glyph-name="uni215F" unicode="&#x215f;" horiz-adv-x="1024" 
d="M158 0h-54l1385 1597h53zM559 799h-481l6 41h221l92 700l-237 -145l-21 37l277 170h30l-100 -762h219z" />
    <glyph glyph-name="arrowleft" unicode="&#x2190;" horiz-adv-x="1884" 
d="M930 1597h59l-778 -778h1530v-41h-1530l778 -778h-59l-799 799z" />
    <glyph glyph-name="arrowup" unicode="&#x2191;" horiz-adv-x="1884" 
d="M1741 811v-59l-778 778v-1530h-41v1530l-779 -778v59l799 799z" />
    <glyph glyph-name="arrowright" unicode="&#x2192;" horiz-adv-x="1884" 
d="M954 0h-59l778 778h-1530v41h1530l-778 778h59l799 -798z" />
    <glyph glyph-name="arrowdown" unicode="&#x2193;" horiz-adv-x="1884" 
d="M143 786v60l779 -778v1529h41v-1529l778 778v-60l-799 -798z" />
    <glyph glyph-name="uni2196" unicode="&#x2196;" horiz-adv-x="1884" 
d="M184 0h-41v1597h1598v-41h-1528l1540 -1540l-29 -28l-1540 1540v-1528z" />
    <glyph glyph-name="uni2197" unicode="&#x2197;" horiz-adv-x="1884" 
d="M143 1556v41h1598v-1597h-41v1528l-1540 -1540l-29 28l1540 1540h-1528z" />
    <glyph glyph-name="uni2198" unicode="&#x2198;" horiz-adv-x="1884" 
d="M143 0v41h1528l-1540 1540l29 29l1540 -1540v1527h41v-1597h-1598z" />
    <glyph glyph-name="uni2199" unicode="&#x2199;" horiz-adv-x="1884" 
d="M1741 41v-41h-1598v1597h41v-1527l1540 1540l29 -29l-1540 -1540h1528z" />
    <glyph glyph-name="minus" unicode="&#x2212;" horiz-adv-x="1228" 
d="M100 778l6 41h1022l-6 -41h-1022z" />
    <glyph glyph-name="approxequal" unicode="&#x2248;" horiz-adv-x="1228" 
d="M895 930q56 0 111.5 25t83.5 48.5t51 49.5l28 -29q-13 -16 -35 -35.5t-57.5 -43.5t-83.5 -40t-98 -16q-77 0 -145.5 26.5t-112 57.5t-109.5 57.5t-139 26.5q-56 0 -111.5 -25t-83.5 -48.5t-51 -49.5l-28 29q13 16 35 35.5t57.5 43.5t83.5 40t98 16q64 0 119.5 -17.5
t97 -42t82.5 -49t94 -42t113 -17.5zM840 520q135 0 245 123l29 -29q-13 -16 -35 -35.5t-57.5 -43.5t-83.5 -40t-98 -16q-77 0 -145.5 26.5t-112 57.5t-109.5 57.5t-139 26.5q-56 0 -111.5 -25t-83.5 -48.5t-51 -49.5l-29 29q13 16 35 35.5t57.5 43.5t84 40t98.5 16
q64 0 119.5 -17.5t97 -42t82.5 -49t94 -42t113 -17.5z" />
    <glyph glyph-name="notequal" unicode="&#x2260;" horiz-adv-x="1228" 
d="M129 983l6 41h613l202 287h54l-203 -287h356l-6 -41h-379l-260 -369h592l-6 -41h-615l-200 -286h-54l201 286h-354l6 41h377l260 369h-590z" />
    <glyph glyph-name="equivalence" unicode="&#x2261;" horiz-adv-x="1228" 
d="M156 1188l6 41h1022l-6 -41h-1022zM102 778l7 41h1021l-6 -41h-1022zM49 369l6 41h1022l-6 -41h-1022z" />
    <glyph glyph-name="lessequal" unicode="&#x2264;" horiz-adv-x="1228" 
d="M180 913l916 -362l-6 -43l-973 389l4 37l1077 389l-6 -47zM1065 317l-6 -43l-973 388l6 43z" />
    <glyph glyph-name="greaterequal" unicode="&#x2265;" horiz-adv-x="1228" 
d="M1083 918l-915 362l6 43l973 -389l-4 -37l-1077 -389l6 47zM41 322l1077 389l-6 -47l-1077 -390z" />
    <glyph glyph-name="squaremultiply" unicode="&#x22a0;" horiz-adv-x="1884" 
d="M1741 0h-1598v1597h1598v-1597zM1700 1556h-1516v-1515h1516v1515zM420 1290l31 31l491 -492l492 492l30 -31l-491 -491l491 -492l-30 -31l-492 492l-491 -492l-31 31l491 492z" />
    <glyph glyph-name="house" unicode="&#x2302;" horiz-adv-x="1740" 
d="M1597 0h-1454v922l727 696l727 -696v-922z" />
    <glyph glyph-name="blacksquare" unicode="&#x25a0;" horiz-adv-x="1884" 
d="M1741 0h-1598v1597h1598v-1597z" />
    <glyph glyph-name="blacksquare" unicode="&#xe740;" horiz-adv-x="1884" 
d="M1741 0h-1598v1597h1598v-1597z" />
    <glyph glyph-name="whitesquare" unicode="&#x25a1;" horiz-adv-x="1884" 
d="M1741 0h-1598v1597h1598v-1597zM1700 1556h-1516v-1515h1516v1515z" />
    <glyph glyph-name="blacksmallsquare" unicode="&#x25aa;" horiz-adv-x="1392" 
d="M1229 0h-1086v1085h1086v-1085z" />
    <glyph glyph-name="whitesmallsquare" unicode="&#x25ab;" horiz-adv-x="1392" 
d="M1229 0h-1086v1085h1086v-1085zM1188 1044h-1004v-1003h1004v1003z" />
    <glyph glyph-name="triagup" unicode="&#x25b2;" horiz-adv-x="1904" 
d="M973 1610l790 -1610h-45l-766 1563l-766 -1563h-45l791 1610h41z" />
    <glyph glyph-name="triagrt" unicode="&#x25ba;" horiz-adv-x="1904" 
d="M1774 819v-41l-1610 -790v45l1562 766l-1562 766v45z" />
    <glyph glyph-name="triagdn" unicode="&#x25bc;" horiz-adv-x="1904" 
d="M932 -12l-791 1609h45l766 -1562l766 1562h45l-790 -1609h-41z" />
    <glyph glyph-name="triaglf" unicode="&#x25c4;" horiz-adv-x="1904" 
d="M131 819l1610 791v-45l-1563 -766l1563 -766v-45l-1610 790v41z" />
    <glyph glyph-name="whitecircle" unicode="&#x25cb;" horiz-adv-x="1884" 
d="M131 799q0 221 108.5 407.5t295 295t407.5 108.5t407.5 -108.5t295 -295t108.5 -407.5t-108.5 -407.5t-295 -295t-407.5 -108.5t-407.5 108.5t-295 295t-108.5 407.5zM172 799q0 -157 61 -299.5t164 -245.5t245.5 -164t299.5 -61t299.5 61t245.5 164t164 245.5t61 299.5
t-61 299.5t-164 245.5t-245.5 164t-299.5 61t-299.5 -61t-245.5 -164t-164 -245.5t-61 -299.5z" />
    <glyph glyph-name="whitecircle" unicode="&#x25ef;" horiz-adv-x="1884" 
d="M131 799q0 221 108.5 407.5t295 295t407.5 108.5t407.5 -108.5t295 -295t108.5 -407.5t-108.5 -407.5t-295 -295t-407.5 -108.5t-407.5 108.5t-295 295t-108.5 407.5zM172 799q0 -157 61 -299.5t164 -245.5t245.5 -164t299.5 -61t299.5 61t245.5 164t164 245.5t61 299.5
t-61 299.5t-164 245.5t-245.5 164t-299.5 61t-299.5 -61t-245.5 -164t-164 -245.5t-61 -299.5z" />
    <glyph glyph-name="blackcircle" unicode="&#x25cf;" horiz-adv-x="1884" 
d="M131 799q0 221 108.5 407.5t295 295t407.5 108.5t407.5 -108.5t295 -295t108.5 -407.5t-108.5 -407.5t-295 -295t-407.5 -108.5t-407.5 108.5t-295 295t-108.5 407.5z" />
    <glyph glyph-name="uni25E2" unicode="&#x25e2;" horiz-adv-x="1904" 
d="M1755 14l-29 -28l-1701 583l30 31l1655 -569l-569 1655l30 30z" />
    <glyph glyph-name="uni25E3" unicode="&#x25e3;" horiz-adv-x="1904" 
d="M178 -14l-28 28l583 1702l31 -30l-569 -1655l1654 569l31 -31z" />
    <glyph glyph-name="uni25E4" unicode="&#x25e4;" horiz-adv-x="1904" 
d="M150 1583l28 29l1702 -584l-31 -31l-1654 570l569 -1655l-31 -31z" />
    <glyph glyph-name="uni25E5" unicode="&#x25e5;" horiz-adv-x="1904" 
d="M1755 1583l-584 -1702l-30 31l569 1655l-1655 -570l-30 31l1701 584z" />
    <glyph glyph-name="uni2605" unicode="&#x2605;" horiz-adv-x="1802" 
d="M901 369l-532 -389l202 628l-532 387h659l203 627l203 -627h659l-532 -387l203 -628z" />
    <glyph glyph-name="ballotboxwithx" unicode="&#x2612;" horiz-adv-x="1392" 
d="M1229 0h-1086v1085h1086v-1085zM1188 1044h-1004v-1003h1004v1003zM369 829l30 31l287 -287l287 287l31 -31l-287 -286l287 -287l-31 -31l-287 287l-287 -287l-30 31l286 287z" />
    <glyph glyph-name="uni263C" unicode="&#x263c;" horiz-adv-x="1966" 
d="M1067 391l-86 -414l-86 414q0 -80 -59 -135q-17 -16 -61 -45.5t-61.5 -53.5t-17.5 -61q0 -19 6 -37t12 -26l7 -8q-45 13 -69.5 48t-24.5 79q0 61 43 104q41 41 62.5 97t21.5 98l-353 -232l232 352q-53 -53 -135 -53q-19 0 -64.5 8.5t-62.5 8.5q-31 0 -55 -10t-36 -24.5
t-19.5 -29.5t-8.5 -25l-2 -10q-17 31 -17 58q0 59 42.5 100t103.5 41q42 0 89.5 17.5t74.5 35t32 25.5l-413 86l413 86q-80 0 -135 59q-16 18 -37.5 48.5t-34 47t-35.5 30t-52 13.5q-19 0 -37 -6t-26 -12l-9 -6q13 45 48 69.5t79 24.5q61 0 104 -43q41 -41 97 -62.5
t98 -21.5l-232 352l353 -231q-54 54 -54 135q0 19 8.5 64.5t8.5 62.5q0 31 -10 55t-24.5 36t-29 19.5t-24.5 8.5l-10 2q29 16 57 16q59 0 100 -42t41 -103q0 -42 17.5 -89.5t35 -75t25.5 -32.5l86 414l86 -414q0 80 59 135q17 16 61 45.5t61.5 53.5t17.5 61q0 19 -6 37
t-12 26l-7 9q45 -13 69.5 -48t24.5 -79q0 -62 -43 -105q-41 -41 -62.5 -96.5t-21.5 -97.5l353 231l-232 -352q53 53 135 53q19 0 64.5 -8t62.5 -8q31 0 55 10t36 24.5t19.5 29t8.5 24.5l2 10q17 -31 17 -57q0 -59 -42.5 -100t-103.5 -41q-42 0 -89.5 -17.5t-74.5 -35
t-32 -25.5l413 -86l-413 -86q79 0 135 -60q16 -18 37.5 -48.5t34 -47t35.5 -30t52 -13.5q19 0 37 6t26 12l9 7q-13 -45 -48.5 -70t-78.5 -25q-61 0 -104 43q-41 41 -97 62.5t-98 21.5l232 -352l-353 232q54 -54 54 -136q0 -19 -8.5 -64.5t-8.5 -62.5q0 -31 10 -55
t24.5 -35.5t29 -19t24.5 -8.5l10 -2q-31 -17 -57 -17q-59 0 -100 42.5t-41 103.5q0 42 -17.5 89.5t-35 74.5t-25.5 32z" />
    <glyph glyph-name="uni263E" unicode="&#x263e;" horiz-adv-x="1966" 
d="M1278 1491q-181 0 -333.5 -92.5t-241.5 -252t-89 -347.5q0 -141 52.5 -269.5t141.5 -221t212 -147.5t258 -55q99 0 197 31q-218 -157 -492 -157q-167 0 -318.5 65t-261 174.5t-174.5 261t-65 318.5t65 318.5t174.5 261t261 174.5t318.5 65q268 0 492 -158
q-109 31 -197 31z" />
    <glyph glyph-name="spade" unicode="&#x2660;" horiz-adv-x="1843" 
d="M924 1618q66 -99 199 -238t278 -233q60 -39 104 -73t90.5 -79t75.5 -90t47.5 -102t18.5 -119q0 -150 -105 -253t-256 -103q-142 0 -246 93.5t-163 235.5l-6 -2q17 -210 54 -356.5t113 -298.5h-413q76 152 113.5 299t54.5 356l-6 2q-27 -67 -65.5 -124t-89 -104
t-116.5 -74t-139 -27q-151 0 -256 103t-105 253q0 62 18.5 119t47.5 102t75.5 90t90.5 79t104 73q146 95 279 233.5t199 237.5h4z" />
    <glyph glyph-name="club" unicode="&#x2663;" horiz-adv-x="1843" 
d="M715 0q76 152 113.5 299t54.5 356l-6 2q-27 -67 -65.5 -124t-89 -104t-116.5 -74t-139 -27q-151 0 -256 103t-105 253q0 161 99 265t258 104q84 0 172 -47l4 4q-78 118 -78 239q0 154 103.5 261.5t257.5 107.5t257 -107.5t103 -261.5q0 -121 -78 -239l4 -4q88 47 172 47
q159 0 258 -104t99 -265q0 -150 -105 -253t-256 -103q-142 0 -246 93.5t-163 235.5l-6 -2q17 -210 54 -356.5t113 -298.5h-413z" />
    <glyph glyph-name="heart" unicode="&#x2665;" horiz-adv-x="1843" 
d="M924 -20h-4q-59 88 -193.5 259t-284.5 341q-64 73 -114 136.5t-105 148.5t-86 170t-31 161q0 185 107 303.5t285 118.5q92 0 163.5 -25.5t120.5 -73t80.5 -100.5t55.5 -123h8q24 70 55.5 123t80.5 100.5t120.5 73t163.5 25.5q178 0 284.5 -118.5t106.5 -303.5
q0 -76 -31 -161t-86 -170t-105 -148.5t-114 -136.5q-149 -169 -283.5 -340t-193.5 -260z" />
    <glyph glyph-name="diamond" unicode="&#x2666;" horiz-adv-x="1843" 
d="M1673 799q-218 -170 -415 -386t-334 -433h-4q-137 217 -334.5 433t-415.5 386q218 170 415.5 386t334.5 433h4q137 -217 334 -433t415 -386z" />
    <glyph glyph-name="uni267B" unicode="&#x267b;" horiz-adv-x="1966" 
d="M1767 545l2 -4l-196 -342q-41 -60 -60 -77q-44 -38 -120 -38h-117v-100l-232 278l232 277v-101h297q34 0 66.5 11t54.5 27t39.5 31.5t25.5 26.5zM381 250h-4l-197 344q-23 42 -31.5 65.5t-5.5 63t29 82.5l57 100l-86 49l357 64l121 -340l-84 49q-144 -246 -148 -256
q-27 -46 -29 -101.5t10 -87.5zM827 1595v2h396q37 -1 56 -3t46 -11t47 -29t39 -53l57 -100l88 49l-124 -340l-355 64l84 49l-147 256q-27 47 -74 76t-80 35zM410 1225l137 243q21 38 69 64q63 34 131.5 30.5t126.5 -33t80 -69.5l-237 -411zM913 84h-276q-43 0 -90 27
q-45 26 -76 70.5t-42.5 91.5t-9.5 91.5t19 73.5h475v-354zM1651 1079l141 -239q20 -36 20 -90q1 -99 -78 -178.5t-151 -79.5l-237 411z" />
    <glyph glyph-name="uni267C" unicode="&#x267c;" horiz-adv-x="1966" 
d="M598 1321l-106 -188l237 -138l184 320q-17 30 -62 52.5t-98 25.5t-102 -23q-37 -21 -53 -49zM807 1421v-2q4 0 11 -1.5t26.5 -7.5t36.5 -14.5t37.5 -26.5t33.5 -40l115 -199l-66 -38l275 -50l96 265l-67 -39l-45 78q-28 49 -60 62t-86 13h-307zM659 248h215v274h-368
q-13 -22 -15 -57t7.5 -71.5t33.5 -71t58 -54.5q36 -20 69 -20zM467 377h2q-5 10 -10.5 27.5t-5 63t21.5 81.5l115 199l65 -39l-94 264l-276 -49l67 -39l-45 -78q-20 -34 -22.5 -65t4 -48.5t24.5 -50.5zM1563 834l-109 186l-237 -137l184 -320q57 0 118 61.5t60 139.5
q0 42 -16 70zM1546 602l-2 2q-2 -3 -6.5 -8.5t-19.5 -20t-31.5 -25t-42 -19.5t-51.5 -9h-230v78l-180 -215l180 -215v78h90q57 0 85 21.5t55 66.5zM131 799q0 221 108.5 407.5t295 295t407.5 108.5t407.5 -108.5t295 -295t108.5 -407.5t-108.5 -407.5t-295 -295
t-407.5 -108.5t-407.5 108.5t-295 295t-108.5 407.5z" />
    <glyph glyph-name="uni267D" unicode="&#x267d;" horiz-adv-x="1966" 
d="M492 1133l106 188q16 28 53 49q49 26 102 23t98 -25.5t62 -52.5l-184 -320zM807 1419v2h307q54 0 86 -13t60 -62l45 -78l67 39l-96 -265l-275 50l66 38l-115 199q-21 36 -57 58.5t-62 26.5zM874 248h-215q-33 0 -69 20q-34 20 -58 54.5t-33.5 71t-7.5 71.5t15 57h368
v-274zM469 377h-2l-154 266q-18 33 -24.5 50.5t-4 48.5t22.5 65l45 78l-67 39l276 49l94 -264l-65 39l-115 -199q-21 -36 -22.5 -79t7.5 -68zM1454 1020l109 -186q16 -28 16 -70q1 -78 -60 -139.5t-118 -61.5l-184 320zM1544 604l2 -2l-153 -266q-18 -30 -31 -46t-41 -29
t-68 -13h-90v-78l-180 215l180 215v-78h230q42 0 79.5 20.5t54.5 41.5zM131 799q0 221 108.5 407.5t295 295t407.5 108.5t407.5 -108.5t295 -295t108.5 -407.5t-108.5 -407.5t-295 -295t-407.5 -108.5t-407.5 108.5t-295 295t-108.5 407.5zM172 799q0 -157 61 -299.5
t164 -245.5t245.5 -164t299.5 -61t299.5 61t245.5 164t164 245.5t61 299.5t-61 299.5t-164 245.5t-245.5 164t-299.5 61t-299.5 -61t-245.5 -164t-164 -245.5t-61 -299.5z" />
    <glyph glyph-name="mediumwhitecircle" unicode="&#x26aa;" horiz-adv-x="1372" 
d="M131 543q0 113 44 216t118 177t177 118t216 44t216 -44t177 -118t118 -177t44 -216t-44 -216t-118 -177t-177 -118t-216 -44t-216 44t-177 118t-118 177t-44 216zM172 543q0 -140 68.5 -258.5t187 -187t258.5 -68.5t258.5 68.5t187 187t68.5 258.5t-68.5 258.5t-187 187
t-258.5 68.5t-258.5 -68.5t-187 -187t-68.5 -258.5z" />
    <glyph glyph-name="mediumblackcircle" unicode="&#x26ab;" horiz-adv-x="1372" 
d="M131 543q0 113 44 216t118 177t177 118t216 44t216 -44t177 -118t118 -177t44 -216t-44 -216t-118 -177t-177 -118t-216 -44t-216 44t-177 118t-118 177t-44 216z" />
    <glyph glyph-name="anglebracketleft" unicode="&#x3008;" 
d="M635 1720l-463 -987l201 -979h-41l-203 983l461 983h45z" />
    <glyph glyph-name="anglebracketright" unicode="&#x3009;" 
d="M-29 -246l463 987l-201 979h41l203 -983l-461 -983h-45z" />
    <glyph glyph-name="fi" unicode="&#xe38c;" horiz-adv-x="1064" 
d="M356 1376l-39 -291h338l-6 -41h-336l-137 -1044h-41l137 1044h-176l6 41h174l43 318q8 60 28.5 105t47 72t63.5 43.5t72.5 22t79.5 5.5q32 0 65.5 -6.5t49.5 -11.5t23 -9l-7 -41q-54 27 -131 27q-109 0 -172.5 -50.5t-81.5 -183.5zM760 0l141 1085h41l-141 -1085h-41z
M1014 1475l-10 -82h-82l10 82h82z" />
    <glyph glyph-name="fi" unicode="&#xfb01;" horiz-adv-x="1064" 
d="M356 1376l-39 -291h338l-6 -41h-336l-137 -1044h-41l137 1044h-176l6 41h174l43 318q8 60 28.5 105t47 72t63.5 43.5t72.5 22t79.5 5.5q32 0 65.5 -6.5t49.5 -11.5t23 -9l-7 -41q-54 27 -131 27q-109 0 -172.5 -50.5t-81.5 -183.5zM760 0l141 1085h41l-141 -1085h-41z
M1014 1475l-10 -82h-82l10 82h82z" />
    <glyph glyph-name="fl" unicode="&#xe38d;" horiz-adv-x="1064" 
d="M356 1376l-39 -291h338l-6 -41h-336l-137 -1044h-41l137 1044h-176l6 41h174l43 318q8 60 28.5 105t47 72t63.5 43.5t72.5 22t79.5 5.5q32 0 65.5 -6.5t49.5 -11.5t23 -9l-7 -41q-54 27 -131 27q-109 0 -172.5 -50.5t-81.5 -183.5zM760 0l215 1638h41l-215 -1638h-41z
" />
    <glyph glyph-name="fl" unicode="&#xfb02;" horiz-adv-x="1064" 
d="M356 1376l-39 -291h338l-6 -41h-336l-137 -1044h-41l137 1044h-176l6 41h174l43 318q8 60 28.5 105t47 72t63.5 43.5t72.5 22t79.5 5.5q32 0 65.5 -6.5t49.5 -11.5t23 -9l-7 -41q-54 27 -131 27q-109 0 -172.5 -50.5t-81.5 -183.5zM760 0l215 1638h41l-215 -1638h-41z
" />
    <glyph glyph-name="invertedbreve" unicode="&#xe411;" horiz-adv-x="1024" 
d="M621 1610q101 0 166 -47.5t88 -122.5t10 -170h-35q16 133 -40 218t-189 85q-135 0 -215.5 -85.5t-96.5 -217.5h-39q20 148 110.5 244t240.5 96z" />
    <glyph glyph-name="doublegrave" unicode="&#xe412;" horiz-adv-x="1024" 
d="M311 1597h45l142 -327h-45zM516 1597h45l141 -327h-45z" />
    <glyph glyph-name="caronSlovak" unicode="&#xe413;" horiz-adv-x="1024" 
d="M805 1597h41l-64 -327h-20z" />
    <glyph glyph-name="commaaccent" unicode="&#xe414;" horiz-adv-x="1232" 
d="M432 -143l-8 -66q-14 -109 -68 -161t-125 -52l5 41q122 0 145 156h-41l10 82h82z" />
    <glyph glyph-name="commaaccent" unicode="&#xf6c3;" horiz-adv-x="1232" 
d="M432 -143l-8 -66q-14 -109 -68 -161t-125 -52l5 41q122 0 145 156h-41l10 82h82z" />
    <glyph glyph-name="dotbelow" unicode="&#xe415;" horiz-adv-x="1232" 
d="M330 -307l10 82h82l-10 -82h-82z" />
    <glyph glyph-name="altcedilla" unicode="&#xe416;" horiz-adv-x="1232" 
d="M401 -131q67 0 114.5 -30t47.5 -97q0 -85 -56.5 -124.5t-139.5 -39.5q-42 0 -89 11.5t-77 29.5l16 33q23 -15 68 -26t82 -11q159 0 159 127q0 54 -36.5 72t-102.5 18q-53 0 -119 -20v34q59 23 133 23z" />
    <glyph glyph-name="grave.cap" unicode="&#xe421;" horiz-adv-x="1024" 
d="M518 1946h45l96 -226h-45z" />
    <glyph glyph-name="acute.cap" unicode="&#xe422;" horiz-adv-x="1024" 
d="M772 1946h45l-158 -226h-45z" />
    <glyph glyph-name="circumflex.cap" unicode="&#xe423;" horiz-adv-x="1024" 
d="M463 1720h-51l235 226h41l174 -226h-47l-149 195z" />
    <glyph glyph-name="tilde.cap" unicode="&#xe424;" horiz-adv-x="1024" 
d="M901 1898h37q-10 -77 -51.5 -110t-95.5 -33q-35 0 -74 18.5t-68 41t-66 41t-69 18.5q-97 0 -111 -107h-36q10 77 51.5 110.5t95.5 33.5q35 0 74 -18.5t68 -41t66 -41t69 -18.5q43 0 72.5 22t37.5 84z" />
    <glyph glyph-name="macron.cap" unicode="&#xe425;" horiz-adv-x="1024" 
d="M444 1812l7 41h409l-6 -41h-410z" />
    <glyph glyph-name="breve.cap" unicode="&#xe426;" horiz-adv-x="1024" 
d="M635 1745q108 0 178 54t82 147h39q-15 -109 -93.5 -173.5t-203.5 -64.5q-127 0 -189 64.5t-47 173.5h35q-12 -94 39 -147.5t160 -53.5z" />
    <glyph glyph-name="invertedbreve.cap" unicode="&#xe427;" horiz-adv-x="1024" 
d="M670 1921q-108 0 -178 -54t-82 -147h-39q15 109 93.5 173.5t203.5 64.5q127 0 188.5 -64.5t46.5 -173.5h-35q12 94 -39 147.5t-159 53.5z" />
    <glyph glyph-name="dotaccent.cap" unicode="&#xe428;" horiz-adv-x="1024" 
d="M698 1874l-10 -82h-82l10 82h82z" />
    <glyph glyph-name="dieresis.cap" unicode="&#xe429;" horiz-adv-x="1024" 
d="M555 1874l-10 -82h-82l10 82h82zM842 1874l-11 -82h-81l10 82h82z" />
    <glyph glyph-name="ring.cap" unicode="&#xe42a;" horiz-adv-x="1024" 
d="M662 1921q-67 0 -111.5 -44t-44.5 -112q0 -59 33.5 -91t91.5 -32q67 0 111 44t44 112q0 59 -33 91t-91 32zM662 1958q75 0 119 -43t44 -117q0 -79 -58.5 -135.5t-135.5 -56.5q-75 0 -119.5 43t-44.5 116q0 79 59 136t136 57z" />
    <glyph glyph-name="hungarumlaut.cap" unicode="&#xe42b;" horiz-adv-x="1024" 
d="M874 1946h46l-158 -226h-45zM670 1946h45l-158 -226h-45z" />
    <glyph glyph-name="doublegrave.cap" unicode="&#xe42c;" horiz-adv-x="1024" 
d="M416 1946h45l96 -226h-45zM621 1946h45l96 -226h-45z" />
    <glyph glyph-name="caron.cap" unicode="&#xe42d;" horiz-adv-x="1024" 
d="M842 1946h51l-236 -226h-41l-174 226h47l150 -195z" />
    <glyph glyph-name="commaaccent.cap" unicode="&#xe42e;" horiz-adv-x="1024" 
d="M596 1720l8 66q12 88 52.5 130t117.5 42l-4 -41q-107 0 -123 -115h41l-10 -82h-82z" />
    <glyph glyph-name="exclamdown.cap" unicode="&#xe441;" horiz-adv-x="368" 
d="M104 0h-41l168 1239h29zM242 1516l10 81h82l-10 -81h-82z" />
    <glyph glyph-name="questiondown.cap" unicode="&#xe444;" horiz-adv-x="901" 
d="M356 -12q-169 0 -250 98.5t-81 253.5q0 81 23 152.5t61 128t84.5 109.5t95.5 107.5t91 111.5t74.5 132t43.5 158h28q-9 -88 -40 -165.5t-71.5 -135.5t-88 -112.5t-93 -107t-82.5 -107t-60 -124.5t-23 -149q0 -64 15 -117.5t47.5 -97.5t90 -69t135.5 -25q176 0 279 141.5
t133 402.5h41l-6 -49q-15 -120 -50 -217t-89.5 -169t-133 -111t-174.5 -39zM508 1516l10 81h82l-10 -81h-82z" />
    <glyph glyph-name="guilsinglleft.cap" unicode="&#xe451;" 
d="M561 1139l-6 -56l-412 -288l336 -289l-8 -47l-367 319l7 41z" />
    <glyph glyph-name="guilsinglright.cap" unicode="&#xe452;" 
d="M63 459l7 55l411 289l-336 289l9 47l366 -320l-6 -41z" />
    <glyph glyph-name="guillemotleft.cap" unicode="&#xe453;" horiz-adv-x="1024" 
d="M561 1139l-6 -56l-412 -288l336 -289l-8 -47l-367 319l7 41zM971 1139l-6 -56l-412 -288l336 -289l-8 -47l-367 319l6 41z" />
    <glyph glyph-name="guillemotright.cap" unicode="&#xe454;" horiz-adv-x="1024" 
d="M473 459l6 55l412 289l-336 289l8 47l367 -320l-6 -41zM63 459l7 55l411 289l-336 289l9 47l366 -320l-6 -41z" />
    <glyph glyph-name="slash.cap" unicode="&#xe461;" 
d="M31 0h-41l602 1597h41z" />
    <glyph glyph-name="backslash.cap" unicode="&#xe462;" 
d="M199 1597h41l184 -1597h-41z" />
    <glyph glyph-name="bar.cap" unicode="&#xe463;" horiz-adv-x="368" 
d="M63 0l209 1597h41l-209 -1597h-41z" />
    <glyph glyph-name="doublebar.cap" unicode="&#xe464;" horiz-adv-x="573" 
d="M63 0l209 1597h41l-209 -1597h-41zM268 0l209 1597h41l-209 -1597h-41z" />
    <glyph glyph-name="brokenbar.cap" unicode="&#xe465;" horiz-adv-x="368" 
d="M178 881l94 716h41l-94 -716h-41zM63 0l95 717h41l-95 -717h-41z" />
    <glyph glyph-name="bullet.cap" unicode="&#xe466;" horiz-adv-x="778" 
d="M672 1044l-66 -491h-491l65 491h492z" />
    <glyph glyph-name="onethirdemdash" unicode="&#xe471;" horiz-adv-x="681" 
d="M90 676l6 41h477l-6 -41h-477z" />
    <glyph glyph-name="threequarteremdash" unicode="&#xe472;" horiz-adv-x="1536" 
d="M90 676l6 41h1331l-6 -41h-1331z" />
    <glyph glyph-name="periodcentered.cap" unicode="&#xe481;" horiz-adv-x="368" 
d="M236 840l-11 -82h-82l11 82h82z" />
    <glyph glyph-name="hyphen.cap" unicode="&#xe482;" horiz-adv-x="655" 
d="M104 778l7 41h450l-6 -41h-451z" />
    <glyph glyph-name="onethirdemdash.cap" unicode="&#xe483;" horiz-adv-x="681" 
d="M104 778l7 41h477l-6 -41h-478z" />
    <glyph glyph-name="endash.cap" unicode="&#xe484;" horiz-adv-x="1024" 
d="M104 778l7 41h819l-6 -41h-820z" />
    <glyph glyph-name="threequarteremdash.cap" unicode="&#xe485;" horiz-adv-x="1536" 
d="M104 778l7 41h1331l-6 -41h-1332z" />
    <glyph glyph-name="emdash.cap" unicode="&#xe486;" horiz-adv-x="2048" 
d="M104 778l7 41h1843l-6 -41h-1844z" />
    <glyph glyph-name="figuredash.cap" unicode="&#xe487;" horiz-adv-x="1228" 
d="M104 778l7 41h1024l-7 -41h-1024z" />
    <glyph glyph-name="uni2015.cap" unicode="&#xe488;" horiz-adv-x="2457" 
d="M104 778l7 41h2252l-6 -41h-2253z" />
    <glyph glyph-name="parenleft.cap" unicode="&#xe491;" 
d="M156 774l6 49q49 395 354 774h47q-311 -392 -360 -774l-6 -49q-49 -388 157 -774h-45q-203 366 -153 774z" />
    <glyph glyph-name="parenright.cap" unicode="&#xe492;" 
d="M467 823l-6 -49q-48 -393 -355 -774h-47q313 393 361 774l6 49q49 386 -158 774h45q204 -368 154 -774z" />
    <glyph glyph-name="bracketleft.cap" unicode="&#xe493;" 
d="M272 1597h349l-7 -41h-305l-198 -1515h307l-6 -41h-349z" />
    <glyph glyph-name="bracketright.cap" unicode="&#xe494;" 
d="M350 0h-348l6 41h305l199 1515h-307l6 41h348z" />
    <glyph glyph-name="braceleft.cap" unicode="&#xe495;" 
d="M621 1597l-7 -41q-53 0 -88.5 -7.5t-69.5 -30t-54.5 -69t-30.5 -118.5l-43 -321q-13 -98 -50 -145t-100 -66q56 -21 81.5 -68.5t12.5 -142.5l-41 -322q-9 -70 0 -116t36.5 -69t62.5 -31.5t88 -8.5l-6 -41h-9q-54 0 -94 11t-72.5 38t-44.5 80t-2 131l43 330q8 59 0.5 97.5
t-32 57.5t-54.5 26t-75 7l6 41q93 0 145 39.5t66 153.5l43 329q8 64 27.5 111t44.5 74.5t60.5 44t69.5 21.5t78 5h9z" />
    <glyph glyph-name="braceright.cap" unicode="&#xe496;" 
d="M2 0l6 41q53 0 88.5 7.5t70 30t55 69t30.5 118.5l43 322q13 98 50 145t99 66q-56 21 -81.5 68.5t-12.5 142.5l41 321q9 70 0.5 116t-36.5 69t-62.5 31.5t-87.5 8.5l6 41h8q54 0 94 -11t72.5 -38t44.5 -80t2 -131l-43 -329q-8 -59 0 -97.5t32.5 -58t54.5 -26.5t75 -7
l-6 -41q-93 0 -145 -39t-66 -153l-43 -330q-8 -64 -28 -111t-45 -74.5t-60.5 -44t-69.5 -21.5t-78 -5h-8z" />
    <glyph glyph-name="anglebracketleft.cap" unicode="&#xe497;" 
d="M344 0h-41l-166 799l375 798h45l-377 -802z" />
    <glyph glyph-name="anglebracketright.cap" unicode="&#xe498;" 
d="M274 1597h41l166 -798l-375 -799h-45l377 803z" />
    <glyph glyph-name="lowline" unicode="&#xe511;" horiz-adv-x="655" 
d="M2 0l6 41h451l-6 -41h-451z" />
    <glyph glyph-name="underscoremonospace" unicode="&#xe512;" horiz-adv-x="1228" 
d="M-29 -225l6 41h1024l-6 -41h-1024z" />
    <glyph glyph-name="underscoremonospace" unicode="&#xff3f;" horiz-adv-x="1228" 
d="M-29 -225l6 41h1024l-6 -41h-1024z" />
    <glyph glyph-name="at.cap" unicode="&#xe513;" horiz-adv-x="1904" 
d="M883 -176h12q196 0 356.5 44.5t333.5 158.5l21 -33q-176 -119 -347.5 -165t-369.5 -46q-202 0 -367 72t-273.5 200t-156 314t-20.5 405l6 49q38 306 180.5 532t357.5 343t476 117q142 0 267.5 -34.5t226 -104t169.5 -167.5t97.5 -232t9.5 -290l-7 -49q-18 -144 -59 -252
t-96.5 -175.5t-132.5 -109t-158 -57.5t-182 -16h-10l8 172q-43 -71 -138 -128t-213 -57q-88 0 -159.5 27t-124 82t-75 147t-7.5 213l6 50q15 120 59 212.5t108.5 147t139 82t156.5 27.5q122 0 206.5 -54t123.5 -129l36 170h31l-43 -250l-61 -467l-19 -204q88 1 159 15
t141 52.5t120.5 100.5t88.5 163.5t55 237.5l6 49q19 152 -9 281.5t-94 221.5t-162.5 157t-212.5 96t-245 31h-13q-252 0 -457.5 -115t-338.5 -331.5t-170 -504.5l-6 -49q-27 -215 18.5 -394t149 -300.5t258.5 -188.5t344 -67zM1294 1071q-18 35 -44 66t-64 60.5t-92 47
t-117 17.5q-73 0 -140.5 -25t-126 -75t-100 -134t-55.5 -194l-6 -50q-14 -110 6 -194t67 -134t110.5 -75t141.5 -25q208 0 351 199z" />
    <glyph glyph-name="zero.inf" unicode="&#xe571;" 
d="M467 170l-47 -360q-29 -230 -262 -230q-122 0 -174.5 61.5t-38.5 168.5l47 360q29 229 262 229q122 0 174.5 -61t38.5 -168zM379 -176l43 330q26 206 -162 206h-12q-102 0 -151.5 -50t-63.5 -154l-43 -330q-26 -207 162 -207h12q101 0 151 50t64 155z" />
    <glyph glyph-name="one.inf" unicode="&#xe572;" 
d="M401 -410h-481l6 41h221l93 701l-238 -146l-20 37l276 170h31l-101 -762h220z" />
    <glyph glyph-name="two.inf" unicode="&#xe573;" 
d="M59 -369h336l-6 -41h-481l4 31l407 371q59 54 84 92t29 80l2 20q8 80 -36.5 128t-137.5 48h-12q-105 0 -160 -54.5t-70 -182.5h-41l5 31q32 245 272 245q116 0 174 -56t49 -157l-2 -20q-6 -53 -34 -96t-87 -97l-379 -344z" />
    <glyph glyph-name="three.inf" unicode="&#xe574;" 
d="M158 -381h12q86 0 147 42.5t70 125.5l2 20q9 84 -37.5 126t-130.5 42h-121l6 41h115q83 0 143.5 41t67.5 117l2 21q8 77 -39 121t-137 44h-12q-104 0 -160 -56t-68 -181h-41l3 20q12 123 79.5 189.5t192.5 66.5q114 0 174 -53t51 -149l-2 -21q-7 -70 -52 -118t-114 -62
q61 -12 95.5 -63t27.5 -126l-2 -20q-10 -98 -85 -152.5t-181 -54.5q-127 0 -185 65t-47 181l2 20h41q-37 -227 183 -227z" />
    <glyph glyph-name="four.inf" unicode="&#xe575;" 
d="M276 -410h-40l28 226h-354l4 30l428 543h39l-70 -532h148l-6 -41h-148zM330 311l-361 -456l107 2h194z" />
    <glyph glyph-name="five.inf" unicode="&#xe576;" 
d="M-12 -72l-35 9l80 452h465l-6 -41h-426l-60 -338q73 82 201 82q108 0 174 -62.5t55 -181.5l-2 -20q-12 -118 -88 -183t-182 -65q-127 0 -185 65t-47 181l2 20h41q-37 -227 183 -227h12q86 0 148.5 52.5t72.5 154.5l2 20q10 103 -42 155t-138 52h-12q-66 0 -124 -32
t-89 -93z" />
    <glyph glyph-name="six.inf" unicode="&#xe577;" 
d="M479 399l-6 -41q-211 0 -338 -143q-84 -94 -125 -219q34 41 90 68.5t115 27.5q114 0 176 -60.5t51 -183.5l-2 -20q-12 -123 -84.5 -185.5t-183.5 -62.5q-119 0 -180 74.5t-49 202.5l2 20q22 213 159 365q144 157 375 157zM221 53h-12q-66 0 -125.5 -37.5t-89.5 -93.5
q-12 -58 -12 -100q0 -97 49.5 -150t134.5 -53h12q93 0 151.5 54.5t67.5 152.5l2 20q10 99 -40.5 153t-137.5 54z" />
    <glyph glyph-name="seven.inf" unicode="&#xe578;" 
d="M-20 102l36 287h492l-4 -31l-414 -768h-45l410 758h-404l-33 -246h-38z" />
    <glyph glyph-name="eight.inf" unicode="&#xe579;" 
d="M164 -420q-114 0 -180 51.5t-56 155.5l2 20q7 79 55 127t119 64q-60 16 -92.5 61.5t-25.5 114.5l2 21q9 95 79.5 149.5t184.5 54.5t174 -53t51 -149l-2 -21q-7 -74 -51 -120t-115 -60q61 -12 95.5 -63t27.5 -126l-2 -20q-10 -98 -85 -152.5t-181 -54.5zM221 -25h-35
q-84 0 -144 -42.5t-69 -125.5l-2 -20q-16 -168 187 -168h12q86 0 147 42.5t70 125.5l2 20q9 84 -37.5 126t-130.5 42zM258 360h-12q-91 0 -149 -46t-66 -121l-2 -21q-7 -77 39 -116.5t129 -39.5h24q85 0 144 39t67 119l2 21q8 77 -39 121t-137 44z" />
    <glyph glyph-name="nine.inf" unicode="&#xe57a;" 
d="M-74 -420l6 41q215 0 342 143q83 93 125 220q-34 -42 -89.5 -69.5t-114.5 -27.5q-114 0 -176.5 60.5t-51.5 183.5l2 21q12 123 85 185t184 62q119 0 180 -74t49 -202l-2 -21q-22 -211 -160 -364q-145 -158 -379 -158zM188 -74h13q66 0 125.5 37.5t89.5 93.5q12 58 12 101
q0 97 -49.5 149.5t-134.5 52.5h-13q-93 0 -151.5 -54.5t-67.5 -151.5l-2 -21q-10 -99 40.5 -153t137.5 -54z" />
    <glyph glyph-name="plus.inf" unicode="&#xe57b;" 
d="M219 246h41l-31 -236h236l-6 -41h-236l-30 -235h-41l30 235h-235l6 41h235z" />
    <glyph glyph-name="minus.inf" unicode="&#xe57c;" 
d="M-53 -31l6 41h512l-6 -41h-512z" />
    <glyph glyph-name="equal.inf" unicode="&#xe57d;" 
d="M-39 72l6 41h512l-6 -41h-512zM-68 -133l7 41h512l-7 -41h-512z" />
    <glyph glyph-name="parenleft.inf" unicode="&#xe57e;" horiz-adv-x="307" 
d="M-37 -14l2 16q28 220 176 387h47q-155 -167 -182 -387l-2 -16q-13 -107 8.5 -211t71.5 -185h-45q-101 184 -76 396z" />
    <glyph glyph-name="parenright.inf" unicode="&#xe57f;" horiz-adv-x="307" 
d="M139 -6l-2 -17q-28 -220 -176 -387h-47q155 167 182 387l2 17q13 107 -8.5 210.5t-71.5 184.5h45q101 -184 76 -395z" />
    <glyph glyph-name="Anocross" unicode="&#xe731;" horiz-adv-x="1208" 
d="M696 1618h41l299 -1618h-41l-284 1556l-695 -1556h-45z" />
    <glyph glyph-name="idotaccent" unicode="&#xe785;" horiz-adv-x="368" 
d="M63 0l142 1085h41l-142 -1085h-41zM317 1475l-10 -82h-82l11 82h81z" />
    <glyph glyph-name="interrobangdown" unicode="&#xe935;" horiz-adv-x="901" 
d="M289 -422q-87 0 -152.5 26t-104 72.5t-57 105t-18.5 128.5q0 79 23 145t61 115t84.5 94t95.5 91t91 96.5t74.5 121.5t43.5 154h29l-140 -1106q164 10 264.5 142t123.5 360h41l-7 -49q-28 -232 -144 -364t-308 -132zM0 -92q0 -125 67 -205.5t212 -83.5l124 924
q-32 -71 -87 -137t-107 -114t-100.5 -102t-78.5 -124.5t-30 -157.5zM440 1004l11 81h81l-10 -81h-82z" />
    <glyph glyph-name="interrobangdown.cap" unicode="&#xe99b;" horiz-adv-x="901" 
d="M356 -12q-169 0 -250 98.5t-81 253.5q0 81 23 152.5t61 128t84.5 109.5t95.5 107.5t91 111.5t74.5 132t43.5 158h28l-151 -1210q167 7 265 148t128 396h41l-6 -49q-15 -120 -50 -217t-89.5 -169t-133 -111t-174.5 -39zM68 338q0 -61 14 -113t44 -95.5t83 -70t125 -30.5
l139 1030q-32 -77 -87 -152t-107.5 -133t-101.5 -121.5t-79 -143t-30 -171.5zM508 1516l10 81h82l-10 -81h-82z" />
    <glyph glyph-name="registered.cap" unicode="&#xe99c;" horiz-adv-x="1843" 
d="M111 799q0 221 108.5 407.5t295 295t407.5 108.5t407.5 -108.5t295 -295t108.5 -407.5t-108.5 -407.5t-295 -295t-407.5 -108.5t-407.5 108.5t-295 295t-108.5 407.5zM152 799q0 -157 61 -299.5t164 -245.5t245.5 -164t299.5 -61t299.5 61t245.5 164t164 245.5t61 299.5
t-61 299.5t-164 245.5t-245.5 164t-299.5 61t-299.5 -61t-245.5 -164t-164 -245.5t-61 -299.5zM670 727v-410h-41v963h319q53 0 98.5 -12.5t87.5 -40.5t66.5 -81.5t24.5 -127.5v-29q0 -103 -45.5 -163.5t-120.5 -84.5l166 -424h-45l-162 414q-25 -4 -70 -4h-278zM670 768
h282q31 0 60.5 5.5t61.5 20.5t55.5 39t39 65.5t15.5 94.5v21q0 53 -15.5 94.5t-39 65.5t-55.5 39t-61.5 20.5t-60.5 5.5h-282v-471z" />
    <glyph glyph-name="period.T" unicode="&#xf182;" 
d="M258 82l-10 -82h-82l10 82h82z" />
    <glyph glyph-name="comma.T" unicode="&#xf183;" 
d="M258 82l-8 -66q-15 -114 -69.5 -172.5t-135.5 -58.5l4 41q132 0 158 174h-41l10 82h82z" />
    <glyph glyph-name="colon.T" unicode="&#xf184;" 
d="M258 82l-10 -82h-82l10 82h82zM356 840l-10 -82h-82l10 82h82z" />
    <glyph glyph-name="semicolon.T" unicode="&#xf185;" 
d="M356 840l-10 -82h-82l10 82h82zM258 82l-8 -66q-15 -114 -69.5 -172.5t-135.5 -58.5l4 41q132 0 158 174h-41l10 82h82z" />
    <glyph glyph-name="onesixteenth" unicode="&#xf215;" horiz-adv-x="2252" 
d="M559 799h-481l6 41h221l92 700l-237 -145l-21 37l277 170h30l-100 -762h219zM158 0h-54l1385 1597h53zM1479 0h-482l7 41h221l92 700l-238 -145l-20 37l276 170h31l-100 -762h219zM2171 809l-6 -41q-211 0 -338 -143q-84 -94 -125 -219q34 41 90 68.5t115 27.5
q114 0 176 -60.5t51 -183.5l-2 -20q-12 -123 -84.5 -185.5t-183.5 -62.5q-120 0 -181 74t-49 202l2 21q22 211 160 364q145 158 375 158zM1913 463h-12q-66 0 -125.5 -37.5t-89.5 -93.5q-13 -63 -13 -101q0 -97 50 -149.5t135 -52.5h12q93 0 151.5 54.5t67.5 152.5l2 20
q10 99 -40.5 153t-137.5 54z" />
    <glyph glyph-name="threesixteenths" unicode="&#xf216;" horiz-adv-x="2252" 
d="M315 827h13q86 0 147 42.5t70 125.5l2 21q9 84 -37.5 126t-130.5 42h-121l6 41h115q83 0 143.5 40.5t67.5 116.5l2 21q8 77 -39 121.5t-137 44.5h-13q-103 0 -159 -56.5t-68 -181.5h-41l2 21q12 122 80 189t193 67q113 0 173.5 -53.5t51.5 -149.5l-2 -21q-7 -70 -52 -118
t-114 -62q62 -12 96 -62.5t27 -125.5l-2 -21q-10 -98 -85 -152.5t-181 -54.5q-127 0 -185 65t-47 181l2 21h41q-37 -228 182 -228zM158 0h-54l1385 1597h53zM1479 0h-482l7 41h221l92 700l-238 -145l-20 37l276 170h31l-100 -762h219zM2171 809l-6 -41q-211 0 -338 -143
q-84 -94 -125 -219q34 41 90 68.5t115 27.5q114 0 176 -60.5t51 -183.5l-2 -20q-12 -123 -84.5 -185.5t-183.5 -62.5q-120 0 -181 74t-49 202l2 21q22 211 160 364q145 158 375 158zM1913 463h-12q-66 0 -125.5 -37.5t-89.5 -93.5q-13 -63 -13 -101q0 -97 50 -149.5
t135 -52.5h12q93 0 151.5 54.5t67.5 152.5l2 20q10 99 -40.5 153t-137.5 54z" />
    <glyph glyph-name="fivesixteenths" unicode="&#xf217;" horiz-adv-x="2252" 
d="M145 1137l-34 8l79 452h465l-6 -41h-426l-59 -337q72 81 201 81q108 0 174 -62t55 -181l-2 -21q-12 -118 -88 -183t-182 -65q-127 0 -185 65t-47 181l2 21h41q-37 -228 182 -228h13q86 0 148.5 52.5t72.5 154.5l2 21q10 103 -42 155t-138 52h-13q-66 0 -124 -32t-89 -93z
M158 0h-54l1385 1597h53zM1479 0h-482l7 41h221l92 700l-238 -145l-20 37l276 170h31l-100 -762h219zM2171 809l-6 -41q-211 0 -338 -143q-84 -94 -125 -219q34 41 90 68.5t115 27.5q114 0 176 -60.5t51 -183.5l-2 -20q-12 -123 -84.5 -185.5t-183.5 -62.5q-120 0 -181 74
t-49 202l2 21q22 211 160 364q145 158 375 158zM1913 463h-12q-66 0 -125.5 -37.5t-89.5 -93.5q-13 -63 -13 -101q0 -97 50 -149.5t135 -52.5h12q93 0 151.5 54.5t67.5 152.5l2 20q10 99 -40.5 153t-137.5 54z" />
    <glyph glyph-name="sevensixteenths" unicode="&#xf218;" horiz-adv-x="2252" 
d="M137 1311l37 286h492l-4 -30l-414 -768h-45l409 757h-403l-33 -245h-39zM158 0h-54l1385 1597h53zM1479 0h-482l7 41h221l92 700l-238 -145l-20 37l276 170h31l-100 -762h219zM2171 809l-6 -41q-211 0 -338 -143q-84 -94 -125 -219q34 41 90 68.5t115 27.5
q114 0 176 -60.5t51 -183.5l-2 -20q-12 -123 -84.5 -185.5t-183.5 -62.5q-120 0 -181 74t-49 202l2 21q22 211 160 364q145 158 375 158zM1913 463h-12q-66 0 -125.5 -37.5t-89.5 -93.5q-13 -63 -13 -101q0 -97 50 -149.5t135 -52.5h12q93 0 151.5 54.5t67.5 152.5l2 20
q10 99 -40.5 153t-137.5 54z" />
    <glyph glyph-name="ninesixteenths" unicode="&#xf219;" horiz-adv-x="2252" 
d="M84 788l6 41q214 0 342 144q84 94 125 219q-34 -41 -90 -68.5t-115 -27.5q-114 0 -176 60t-51 183l2 21q12 123 84.5 185.5t183.5 62.5q119 0 180.5 -74.5t49.5 -202.5l-2 -20q-22 -212 -160 -365q-145 -158 -379 -158zM346 1135h12q66 0 125.5 37.5t89.5 93.5
q13 63 13 100q0 97 -50 150t-135 53h-12q-93 0 -151.5 -54.5t-67.5 -152.5l-2 -21q-10 -99 40.5 -152.5t137.5 -53.5zM158 0h-54l1385 1597h53zM1479 0h-482l7 41h221l92 700l-238 -145l-20 37l276 170h31l-100 -762h219zM2171 809l-6 -41q-211 0 -338 -143
q-84 -94 -125 -219q34 41 90 68.5t115 27.5q114 0 176 -60.5t51 -183.5l-2 -20q-12 -123 -84.5 -185.5t-183.5 -62.5q-120 0 -181 74t-49 202l2 21q22 211 160 364q145 158 375 158zM1913 463h-12q-66 0 -125.5 -37.5t-89.5 -93.5q-13 -63 -13 -101q0 -97 50 -149.5
t135 -52.5h12q93 0 151.5 54.5t67.5 152.5l2 20q10 99 -40.5 153t-137.5 54z" />
    <glyph glyph-name="elevensixteenths" unicode="&#xf220;" horiz-adv-x="2867" 
d="M559 799h-481l6 41h221l92 700l-237 -145l-21 37l277 170h30l-100 -762h219zM1174 799h-482l6 41h222l92 700l-238 -145l-20 37l276 170h31l-100 -762h219zM772 0h-53l1384 1597h54zM2093 0h-481l6 41h221l92 700l-237 -145l-21 37l277 170h30l-100 -762h219zM2785 809
l-6 -41q-211 0 -338 -143q-84 -94 -125 -219q34 41 90 68.5t115 27.5q114 0 176 -60.5t51 -183.5l-2 -20q-12 -123 -84.5 -185.5t-183.5 -62.5q-119 0 -180 74t-49 202l2 21q22 212 159 364q145 158 375 158zM2527 463h-12q-66 0 -125.5 -37.5t-89.5 -93.5q-12 -58 -12 -101
q0 -97 49.5 -149.5t134.5 -52.5h12q93 0 151.5 54.5t67.5 152.5l2 20q10 99 -40.5 153t-137.5 54z" />
    <glyph glyph-name="thirteensixteenths" unicode="&#xf221;" horiz-adv-x="2867" 
d="M559 799h-481l6 41h221l92 700l-237 -145l-21 37l277 170h30l-100 -762h219zM930 827h12q86 0 147 42.5t70 125.5l2 21q9 84 -37.5 126t-130.5 42h-121l7 41h114q83 0 143.5 40.5t67.5 116.5l2 21q8 77 -39 121.5t-137 44.5h-12q-103 0 -159 -56.5t-68 -181.5h-41l2 21
q12 123 79.5 189.5t192.5 66.5q113 0 173.5 -53.5t51.5 -149.5l-2 -21q-7 -70 -52 -118t-114 -62q62 -12 96 -62.5t27 -125.5l-2 -21q-10 -98 -85 -152.5t-181 -54.5q-127 0 -184.5 65t-46.5 181l2 21h41q-37 -228 182 -228zM772 0h-53l1384 1597h54zM2093 0h-481l6 41h221
l92 700l-237 -145l-21 37l277 170h30l-100 -762h219zM2785 809l-6 -41q-211 0 -338 -143q-84 -94 -125 -219q34 41 90 68.5t115 27.5q114 0 176 -60.5t51 -183.5l-2 -20q-12 -123 -84.5 -185.5t-183.5 -62.5q-119 0 -180 74t-49 202l2 21q22 212 159 364q145 158 375 158z
M2527 463h-12q-66 0 -125.5 -37.5t-89.5 -93.5q-12 -58 -12 -101q0 -97 49.5 -149.5t134.5 -52.5h12q93 0 151.5 54.5t67.5 152.5l2 20q10 99 -40.5 153t-137.5 54z" />
    <glyph glyph-name="fifteensixteenths" unicode="&#xf222;" horiz-adv-x="2867" 
d="M559 799h-481l6 41h221l92 700l-237 -145l-21 37l277 170h30l-100 -762h219zM760 1137l-35 8l80 452h465l-6 -41h-426l-60 -337q72 81 201 81q108 0 174 -62t55 -181l-2 -21q-12 -118 -88 -183t-182 -65q-127 0 -184.5 65t-46.5 181l2 21h41q-37 -228 182 -228h12
q86 0 148.5 52.5t72.5 154.5l2 21q10 103 -42 155t-138 52h-12q-66 0 -124 -32t-89 -93zM772 0h-53l1384 1597h54zM2093 0h-481l6 41h221l92 700l-237 -145l-21 37l277 170h30l-100 -762h219zM2785 809l-6 -41q-211 0 -338 -143q-84 -94 -125 -219q34 41 90 68.5t115 27.5
q114 0 176 -60.5t51 -183.5l-2 -20q-12 -123 -84.5 -185.5t-183.5 -62.5q-119 0 -180 74t-49 202l2 21q22 212 159 364q145 158 375 158zM2527 463h-12q-66 0 -125.5 -37.5t-89.5 -93.5q-12 -58 -12 -101q0 -97 49.5 -149.5t134.5 -52.5h12q93 0 151.5 54.5t67.5 152.5l2 20
q10 99 -40.5 153t-137.5 54z" />
    </font>
</defs>
</svg>
