<?xml version="1.0" standalone="no"?>
<!DOCTYPE svg PUBLIC "-//W3C//DTD SVG 1.1//EN" "http://www.w3.org/Graphics/SVG/1.1/DTD/svg11.dtd" >
<svg xmlns="http://www.w3.org/2000/svg" xmlns:xlink="http://www.w3.org/1999/xlink" version="1.1">
<metadata>
Created by FontForge 20170731 at Mon Sep 27 10:42:08 2021
 By Aleksey,,,
Copyright 2020 The Open Sans Project Authors (https://github.com/googlefonts/opensans)
</metadata>
<defs>
<font id="OpenSans-ExtraBoldItalic" horiz-adv-x="1243" >
  <font-face 
    font-family="Open Sans ExtraBold"
    font-weight="800"
    font-style="italic"
    font-stretch="normal"
    units-per-em="2048"
    panose-1="0 0 0 0 0 0 0 0 0 0"
    ascent="1638"
    descent="-410"
    x-height="1133"
    cap-height="1462"
    bbox="-1092 -651 2738 2302"
    underline-thickness="50"
    underline-position="-175"
    slope="-12"
    unicode-range="U+000D-FFFD"
  />
<missing-glyph horiz-adv-x="1229" 
 />
    <glyph glyph-name="f_f" unicode="ff" horiz-adv-x="1556" 
d="M-2 -492q-54 0 -113 8.5t-94 18.5v303q28 -7 58.5 -12.5t58.5 -5.5q74 0 112 30.5t52 94.5l190 897h-166l43 190l189 96l16 74q21 96 57.5 165t89 113.5t121 65.5t154.5 21q80 0 155.5 -16t127.5 -42l-99 -264q-29 14 -63 22.5t-66 8.5q-35 0 -59.5 -18.5t-32.5 -53.5
l-16 -71h331l17 69q21 96 57.5 165t88.5 113.5t121 65.5t155 21q80 0 155 -16t127 -42l-98 -264q-29 14 -63 22.5t-66 8.5q-35 0 -59.5 -18.5t-32.5 -53.5l-16 -71h210l-65 -291h-209l-205 -959q-23 -108 -75.5 -193t-142.5 -133.5t-228 -48.5q-54 0 -113 8.5t-94 18.5v303
q28 -7 58.5 -12.5t58.5 -5.5q74 0 112 30.5t51 94.5l191 897h-330l-205 -959q-23 -108 -75.5 -193t-142.5 -133.5t-228 -48.5z" />
    <glyph glyph-name="fi" unicode="fi" horiz-adv-x="1505" 
d="M-2 -492q-54 0 -113 8.5t-94 18.5v303q28 -7 58.5 -12.5t58.5 -5.5q74 0 112 30.5t52 94.5l190 897h-166l43 190l189 96l16 74q21 96 57.5 165t89 113.5t121 65.5t154.5 21q80 0 155.5 -16t127.5 -42l-99 -264q-29 14 -63 22.5t-66 8.5q-35 0 -59.5 -18.5t-32.5 -53.5
l-16 -71h211l-66 -291h-209l-205 -959q-23 -108 -75.5 -193t-142.5 -133.5t-228 -48.5zM863 0l239 1133h389l-241 -1133h-387zM1340 1241q-82 0 -136.5 31.5t-54.5 109.5q0 68 27 114.5t77.5 70.5t121.5 24q77 0 133.5 -31.5t56.5 -109.5q0 -94 -55 -151.5t-170 -57.5z" />
    <glyph glyph-name="fl" unicode="fl" horiz-adv-x="1505" 
d="M-2 -492q-54 0 -113 8.5t-94 18.5v303q28 -7 58.5 -12.5t58.5 -5.5q74 0 112 30.5t52 94.5l190 897h-166l43 190l189 96l16 74q21 96 57.5 165t89 113.5t121 65.5t154.5 21q80 0 155.5 -16t127.5 -42l-99 -264q-29 14 -63 22.5t-66 8.5q-35 0 -59.5 -18.5t-32.5 -53.5
l-16 -71h211l-66 -291h-209l-205 -959q-23 -108 -75.5 -193t-142.5 -133.5t-228 -48.5zM863 0l329 1556h387l-329 -1556h-387z" />
    <glyph glyph-name="f_f_i" unicode="ffi" horiz-adv-x="2163" 
d="M-2 -492q-54 0 -113 8.5t-94 18.5v303q28 -7 58.5 -12.5t58.5 -5.5q74 0 112 30.5t52 94.5l190 897h-166l43 190l189 96l16 74q21 96 57.5 165t89 113.5t121 65.5t154.5 21q80 0 155.5 -16t127.5 -42l-99 -264q-29 14 -63 22.5t-66 8.5q-35 0 -59.5 -18.5t-32.5 -53.5
l-16 -71h331l17 69q21 96 57.5 165t88.5 113.5t121 65.5t155 21q80 0 155 -16t127 -42l-98 -264q-29 14 -63 22.5t-66 8.5q-35 0 -59.5 -18.5t-32.5 -53.5l-16 -71h210l-65 -291h-209l-205 -959q-23 -108 -75.5 -193t-142.5 -133.5t-228 -48.5q-54 0 -113 8.5t-94 18.5v303
q28 -7 58.5 -12.5t58.5 -5.5q74 0 112 30.5t51 94.5l191 897h-330l-205 -959q-23 -108 -75.5 -193t-142.5 -133.5t-228 -48.5zM1520 0l239 1133h389l-241 -1133h-387zM1997 1241q-82 0 -136.5 31.5t-54.5 109.5q0 68 27 114.5t77.5 70.5t121.5 24q77 0 133.5 -31.5
t56.5 -109.5q0 -94 -55 -151.5t-170 -57.5z" />
    <glyph glyph-name="f_f_l" unicode="ffl" horiz-adv-x="2159" 
d="M-2 -492q-54 0 -113 8.5t-94 18.5v303q28 -7 58.5 -12.5t58.5 -5.5q74 0 112 30.5t52 94.5l190 897h-166l43 190l189 96l16 74q21 96 57.5 165t89 113.5t121 65.5t154.5 21q80 0 155.5 -16t127.5 -42l-99 -264q-29 14 -63 22.5t-66 8.5q-35 0 -59.5 -18.5t-32.5 -53.5
l-16 -71h331l17 69q21 96 57.5 165t88.5 113.5t121 65.5t155 21q80 0 155 -16t127 -42l-98 -264q-29 14 -63 22.5t-66 8.5q-35 0 -59.5 -18.5t-32.5 -53.5l-16 -71h210l-65 -291h-209l-205 -959q-23 -108 -75.5 -193t-142.5 -133.5t-228 -48.5q-54 0 -113 8.5t-94 18.5v303
q28 -7 58.5 -12.5t58.5 -5.5q74 0 112 30.5t51 94.5l191 897h-330l-205 -959q-23 -108 -75.5 -193t-142.5 -133.5t-228 -48.5zM1516 0l329 1556h387l-329 -1556h-387z" />
    <glyph glyph-name=".notdef" horiz-adv-x="1229" 
 />
    <glyph glyph-name=".null" horiz-adv-x="0" 
 />
    <glyph glyph-name="nonmarkingreturn" horiz-adv-x="682" 
 />
    <glyph glyph-name="NULL" horiz-adv-x="0" 
 />
    <glyph glyph-name="NULL" horiz-adv-x="0" 
 />
    <glyph glyph-name="CR" unicode="&#xd;" horiz-adv-x="532" 
 />
    <glyph glyph-name="space" unicode=" " horiz-adv-x="532" 
 />
    <glyph glyph-name="exclam" unicode="!" horiz-adv-x="623" 
d="M125 516l156 946h426l-254 -946h-328zM199 -25q-106 0 -146.5 47t-40.5 105q0 98 60.5 165.5t183.5 67.5q86 0 133 -40.5t47 -114.5q0 -115 -66.5 -172.5t-170.5 -57.5z" />
    <glyph glyph-name="quotedbl" unicode="&#x22;" horiz-adv-x="930" 
d="M623 934l73 528h342l-157 -528h-258zM182 934l72 528h342l-158 -528h-256z" />
    <glyph glyph-name="numbersign" unicode="#" horiz-adv-x="1323" 
d="M121 0l112 393h-219l21 238h266l57 200h-235l20 242h285l111 389h270l-111 -389h168l111 389h270l-110 -389h221l-21 -242h-270l-57 -200h243l-20 -238h-293l-111 -393h-270l113 393h-168l-113 -393h-270zM571 631h168l58 200h-168z" />
    <glyph glyph-name="dollar" unicode="$" horiz-adv-x="1188" 
d="M367 -121l41 191q-124 9 -209 34.5t-138 57.5l-6 305q107 -49 214.5 -78t199.5 -37l59 279q-104 40 -180.5 91.5t-118 121.5t-41.5 164q0 127 62 216.5t176.5 139.5t269.5 59l29 133h168l-31 -137q83 -7 160.5 -29t153.5 -59l-101 -268q-55 29 -129 48.5t-143 27.5
l-60 -277q119 -53 192 -106.5t106.5 -117t33.5 -146.5q0 -128 -65.5 -220.5t-179 -145t-257.5 -60.5l-38 -187h-168zM635 358q41 10 66 25.5t36 36.5t11 45q0 25 -8.5 43.5t-23.5 33.5t-36 27zM592 932l45 203q-39 -8 -60 -25t-29.5 -39t-8.5 -49q0 -22 6 -38.5t18 -29
t29 -22.5z" />
    <glyph glyph-name="percent" unicode="%" horiz-adv-x="1905" 
d="M293 0l1089 1462h289l-1081 -1462h-297zM438 565q-157 0 -240 87t-83 257q0 72 14.5 151t46.5 154.5t83.5 136t124.5 96.5t171 36q160 0 239.5 -90t79.5 -254q0 -71 -13.5 -150t-44 -154t-81 -136t-124 -97.5t-173.5 -36.5zM457 807q24 0 44.5 23t37 61.5t28 85
t17.5 93.5t6 87q0 43 -12 63.5t-41 20.5q-22 0 -42 -22t-37 -59t-29 -83t-19 -94t-7 -92q0 -41 13 -62.5t41 -21.5zM1421 -20q-157 0 -240 86.5t-83 257.5q0 72 14.5 151t46.5 154t83.5 135.5t124.5 96.5t171 36q160 0 240 -90t80 -254q0 -71 -13.5 -149.5t-44 -154
t-81 -136t-124.5 -97t-174 -36.5zM1440 221q24 0 44.5 23t37 61.5t28 85t17.5 93.5t6 87q0 44 -12 64t-41 20q-22 0 -42 -22t-37 -59t-29 -83t-19 -94t-7 -92q0 -41 13 -62.5t41 -21.5z" />
    <glyph glyph-name="ampersand" unicode="&#x26;" horiz-adv-x="1501" 
d="M528 -20q-238 0 -379 104.5t-141 300.5q0 112 42 194.5t122 140.5t195 95q-42 53 -63 127.5t-21 122.5q0 133 57.5 227t165.5 143.5t258 49.5q118 0 212 -37t149 -109t55 -178q0 -96 -40.5 -172.5t-117 -139t-184.5 -118.5l129 -186q41 43 79 122t60 154h383
q-33 -115 -83 -218t-110 -189t-125 -152l191 -262h-442l-43 61q-67 -35 -156 -58t-193 -23zM571 287q28 0 53 3.5t46.5 9.5t38.5 13l-193 279q-45 -19 -70.5 -46t-36 -58t-10.5 -64q0 -34 18 -65.5t56 -51.5t98 -20zM686 948q29 12 54 29t45 40.5t31 52.5t11 65
q0 35 -22 60.5t-60 25.5q-32 0 -57 -16t-39 -44.5t-14 -68.5q0 -22 10 -63t41 -81z" />
    <glyph glyph-name="quotesingle" unicode="'" horiz-adv-x="487" 
d="M182 934l72 528h342l-158 -528h-256z" />
    <glyph glyph-name="parenleft" unicode="(" horiz-adv-x="766" 
d="M219 -324q-48 85 -81.5 196t-51.5 229.5t-18 224.5q0 174 33 332t98.5 302.5t161 279.5t219.5 263h323q-109 -118 -201.5 -249.5t-161.5 -279t-107 -313t-38 -352.5q0 -95 14 -206t40 -221.5t63 -205.5h-293z" />
    <glyph glyph-name="parenright" unicode=")" horiz-adv-x="766" 
d="M-133 -324q109 119 200.5 250.5t158.5 279t104 313t37 351.5q0 96 -14.5 207t-41 221.5t-63.5 204.5h295q52 -91 85.5 -201.5t49.5 -225.5t16 -222q0 -174 -31.5 -332t-94.5 -303t-157 -280t-218 -263h-326z" />
    <glyph glyph-name="asterisk" unicode="*" horiz-adv-x="1110" 
d="M692 551l-80 303l-166 -244l-249 185l254 229l-299 84l100 278l319 -165l31 350l307 -62l-116 -331l368 30l-22 -301l-310 41l148 -311z" />
    <glyph glyph-name="plus" unicode="+" horiz-adv-x="1200" 
d="M733 856h373v-268h-373v-361h-268v361h-373v268h373v367h268v-367z" />
    <glyph glyph-name="comma" unicode="," horiz-adv-x="627" 
d="M-104 -264q36 81 69 170t63.5 175t55.5 157h348l8 -23q-31 -72 -72.5 -155t-88 -166t-95.5 -158h-288z" />
    <glyph glyph-name="hyphen" unicode="-" horiz-adv-x="674" 
d="M23 393l63 312h553l-64 -312h-552z" />
    <glyph glyph-name="period" unicode="." horiz-adv-x="627" 
d="M174 -25q-78 0 -126 37t-48 115q0 122 73 177.5t171 55.5q80 0 130 -37.5t50 -117.5q0 -132 -68 -181t-182 -49z" />
    <glyph glyph-name="slash" unicode="/" horiz-adv-x="956" 
d="M-90 -20l838 1503h344l-838 -1503h-344z" />
    <glyph glyph-name="zero" unicode="0" horiz-adv-x="1188" 
d="M489 -20q-201 0 -313.5 121t-112.5 364q0 124 17 247.5t52 237.5t89 211t128 170t169.5 113.5t212.5 40.5t198.5 -42.5t131.5 -114.5t73 -161.5t23 -183.5q0 -132 -18 -257.5t-55 -237.5t-92 -205t-129.5 -161t-167.5 -105t-206 -37zM528 295q35 0 66 31.5t57.5 86
t48 124.5t37 148t23.5 156.5t8 149.5q0 85 -19 131.5t-63 46.5q-30 0 -59 -32t-55 -87t-48 -126.5t-37.5 -151t-24.5 -160.5t-9 -155q0 -83 15.5 -122.5t59.5 -39.5z" />
    <glyph glyph-name="one" unicode="1" horiz-adv-x="1188" 
d="M385 0l174 799q8 38 20.5 84.5t27.5 92t28 79.5q-29 -26 -67.5 -56.5t-63.5 -46.5l-203 -125l-151 252l620 383h311l-307 -1462h-389z" />
    <glyph glyph-name="two" unicode="2" horiz-adv-x="1188" 
d="M-57 0l53 256l483 436q73 65 121 119.5t76 98.5t39.5 79.5t11.5 63.5q0 49 -26 73.5t-66 24.5q-43 0 -88 -16.5t-92.5 -49.5t-100.5 -81l-186 258q107 101 241 161t300 60q121 0 212.5 -44.5t143 -127t51.5 -197.5q0 -95 -34 -183.5t-117.5 -188t-233.5 -228.5l-205 -176
v-12h490l-68 -326h-1005z" />
    <glyph glyph-name="three" unicode="3" horiz-adv-x="1188" 
d="M399 -20q-109 0 -214 20.5t-171 58.5v332q89 -54 184.5 -77t192.5 -23q59 0 109.5 10t87.5 31t57.5 55.5t20.5 83.5q0 43 -21 72.5t-81 45t-177 15.5h-84l53 291h78q72 0 129 11.5t98 34t62.5 54.5t21.5 74q0 35 -29.5 68.5t-105.5 33.5q-67 0 -134 -23t-136 -61
l-158 248q107 68 220 108t282 40q131 0 230.5 -41.5t155.5 -118.5t56 -186q0 -107 -44 -183.5t-121 -123.5t-177 -68v-8q136 -26 205.5 -115t69.5 -209q0 -119 -52 -204t-143.5 -139.5t-210.5 -80.5t-254 -26z" />
    <glyph glyph-name="four" unicode="4" horiz-adv-x="1188" 
d="M479 0l60 283h-549l51 256l762 923h360l-186 -884h149l-61 -295h-150l-59 -283h-377zM391 578h209l49 194q10 35 22 79t23 81.5t15 50.5h-9q-18 -34 -50.5 -85.5t-63.5 -86.5z" />
    <glyph glyph-name="five" unicode="5" horiz-adv-x="1188" 
d="M434 -20q-74 0 -155.5 9t-150.5 27.5t-108 46.5v324q74 -43 176.5 -69.5t188.5 -26.5q66 0 117.5 11t87 34.5t54 59.5t18.5 87q0 69 -46.5 119.5t-140.5 50.5q-52 0 -108.5 -9t-94.5 -23l-122 92l215 749h813l-68 -323h-471l-59 -185q26 3 44.5 3.5t30.5 0.5
q113 0 205 -50t146.5 -146.5t54.5 -237.5q0 -138 -44 -240.5t-126.5 -169.5t-198 -100.5t-258.5 -33.5z" />
    <glyph glyph-name="six" unicode="6" horiz-adv-x="1188" 
d="M557 -20q-167 0 -272.5 67t-155 186.5t-49.5 276.5q0 105 18.5 215.5t54 215.5t88 194t119.5 151q89 82 177.5 124.5t193 57.5t240.5 15q57 0 116 -8.5t117 -22.5l-63 -303q-38 11 -90 18t-93 7q-157 0 -251 -39t-149 -120.5t-95 -207.5h8q27 43 66.5 82t98 63.5
t142.5 24.5q151 0 239.5 -98t88.5 -304q0 -127 -36.5 -235.5t-107 -189t-172.5 -125.5t-233 -45zM561 287q38 0 66.5 22t47.5 59t28.5 83t9.5 94q0 60 -22.5 94.5t-69.5 34.5q-32 0 -59 -16.5t-48 -47t-35 -71.5q-5 -17 -8.5 -36.5t-5.5 -40t-2 -42.5q0 -33 7 -58t20 -41.5
t31 -25t40 -8.5z" />
    <glyph glyph-name="seven" unicode="7" horiz-adv-x="1188" 
d="M35 0l717 1135h-574l70 327h1030l-51 -231l-744 -1231h-448z" />
    <glyph glyph-name="eight" unicode="8" horiz-adv-x="1188" 
d="M537 -20q-160 0 -268.5 48.5t-164 129.5t-55.5 180q0 102 38 182t112.5 139t181.5 97q-41 33 -76.5 74.5t-57.5 98.5t-22 136q0 113 56.5 208.5t167.5 153.5t276 58q140 0 236 -44t146 -119.5t50 -170.5q0 -78 -32 -151t-94.5 -130.5t-153.5 -87.5q61 -47 103 -101.5
t63.5 -118.5t21.5 -142q0 -138 -64 -236.5t-182 -151t-282 -52.5zM547 262q43 0 78 18t56 52t21 82q0 40 -14.5 75t-40.5 65t-63 54q-48 -25 -86.5 -58.5t-61 -74.5t-22.5 -90q0 -61 42 -92t91 -31zM674 930q43 17 71 45.5t42 62.5t14 66q0 49 -28.5 73.5t-65.5 24.5
q-32 0 -59 -18t-43.5 -49t-16.5 -70q0 -40 24 -78.5t62 -56.5z" />
    <glyph glyph-name="nine" unicode="9" horiz-adv-x="1188" 
d="M317 -20q-63 0 -114.5 8.5t-96.5 21.5v314q50 -20 98 -30t105 -7q95 5 167.5 28.5t125.5 68.5t88 112.5t55 158.5h-8q-26 -43 -64.5 -83t-95.5 -65.5t-141 -25.5q-102 0 -175.5 50.5t-112.5 141.5t-39 214q0 95 21 183t63.5 163t108.5 131t155.5 87.5t204.5 31.5
q167 0 271.5 -68t154 -188t49.5 -275q0 -105 -15.5 -212t-49 -208.5t-87 -192.5t-129.5 -163q-48 -45 -105 -81.5t-124 -62t-144 -39t-166 -13.5zM594 788q31 0 57.5 16t47.5 44.5t34 64.5q9 26 15 55.5t6 61.5q0 41 -11.5 74t-33.5 52.5t-54 19.5q-33 0 -61 -19.5
t-48.5 -53.5t-32 -78t-11.5 -93q0 -72 23 -108t69 -36z" />
    <glyph glyph-name="colon" unicode=":" horiz-adv-x="627" 
d="M369 762q-79 0 -126.5 37.5t-47.5 115.5q0 81 33 132.5t88 75.5t120 24q82 0 132 -37.5t50 -116.5q0 -133 -68 -182t-181 -49zM174 -25q-78 0 -126 37t-48 115q0 122 73 177.5t171 55.5q80 0 130 -37.5t50 -117.5q0 -132 -68 -181t-182 -49z" />
    <glyph glyph-name="semicolon" unicode=";" horiz-adv-x="627" 
d="M-117 -264q36 81 69.5 170t63.5 175t56 157h348l8 -23q-31 -72 -72.5 -155t-88.5 -166t-95 -158h-289zM369 762q-79 0 -126.5 37.5t-47.5 115.5q0 81 33 132.5t88 75.5t120 24q82 0 132 -37.5t50 -116.5q0 -133 -68 -182t-181 -49z" />
    <glyph glyph-name="less" unicode="&#x3c;" horiz-adv-x="1200" 
d="M1104 178l-1012 449v172l1012 506v-297l-621 -283l621 -252v-295z" />
    <glyph glyph-name="equal" unicode="=" horiz-adv-x="1200" 
d="M92 815v268h1016v-268h-1016zM92 358v271h1016v-271h-1016z" />
    <glyph glyph-name="greater" unicode="&#x3e;" horiz-adv-x="1200" 
d="M92 473l621 252l-621 283v297l1012 -506v-172l-1012 -449v295z" />
    <glyph glyph-name="question" unicode="?" horiz-adv-x="999" 
d="M250 516q21 112 51 181.5t82 122.5t139 112q67 44 101.5 73.5t47.5 52.5t13 46q0 31 -18.5 50.5t-71.5 19.5q-55 0 -136.5 -26.5t-176.5 -82.5l-119 283q95 56 213.5 95.5t247.5 39.5q203 0 320.5 -90.5t117.5 -247.5q0 -112 -39.5 -185.5t-103 -123.5t-134.5 -93
q-77 -47 -115 -78t-56 -63.5t-35 -85.5h-328zM334 -25q-106 0 -146.5 47t-40.5 105q0 98 60.5 165.5t183.5 67.5q86 0 133 -40.5t47 -114.5q0 -115 -66.5 -172.5t-170.5 -57.5z" />
    <glyph glyph-name="at" unicode="@" horiz-adv-x="1837" 
d="M780 -186q-155 0 -283 46.5t-221 135t-143.5 216t-50.5 288.5q0 192 49 347.5t137.5 274.5t206.5 199t257 121t288 41q234 0 403 -77.5t260 -224t91 -354.5q0 -104 -25.5 -197t-73 -170.5t-113 -134t-145.5 -87.5t-170 -31q-79 0 -136 31t-83 98h-10
q-48 -64 -111.5 -96.5t-156.5 -32.5q-117 0 -191 83.5t-74 221.5q0 77 21 158.5t64 156.5t108.5 134t153.5 94t200 35q83 0 170 -19.5t166 -50.5l-100 -414q-11 -44 -17 -76t-6 -61q0 -19 9.5 -30t29.5 -11q33 0 66 15t62 45.5t51 77.5t35 110.5t13 144.5q0 132 -55 229
t-169 150t-292 53q-112 0 -211 -33t-179.5 -95.5t-139 -151.5t-90 -202t-31.5 -247q0 -161 61 -268t160 -160t211 -53q98 0 229 23.5t250 70.5v-225q-84 -40 -213.5 -69t-261.5 -29zM842 428q59 0 99 50.5t75 189.5l47 190q-10 5 -23 7.5t-28 2.5q-64 0 -111 -33.5
t-77.5 -86t-45 -110t-14.5 -106.5q0 -55 20.5 -79.5t57.5 -24.5z" />
    <glyph glyph-name="A" unicode="A" horiz-adv-x="1384" 
d="M-121 0l744 1462h503l123 -1462h-381l-10 274h-448l-125 -274h-406zM553 586h293l-15 420q-1 49 -2 97t0 91h-6q-15 -46 -32.5 -90t-38.5 -90z" />
    <glyph glyph-name="B" unicode="B" horiz-adv-x="1298" 
d="M33 0l309 1462h487q157 0 254 -41t142 -113t45 -165q0 -99 -34.5 -173.5t-101 -124.5t-161.5 -79v-8q88 -29 140 -102t52 -177q0 -171 -78.5 -276.5t-211 -154t-295.5 -48.5h-547zM489 305h82q60 0 105 23t70.5 61.5t25.5 85.5q0 69 -33 103t-116 34h-68zM614 901h72
q69 0 107.5 20.5t54.5 56.5t16 83q0 49 -31 75.5t-96 26.5h-63z" />
    <glyph glyph-name="C" unicode="C" horiz-adv-x="1290" 
d="M645 -20q-183 0 -303 71.5t-179 199.5t-59 298q0 131 28 264t87 253.5t151 215t219 149t292 54.5q146 0 262 -34.5t219 -96.5l-148 -305q-93 55 -171 82.5t-162 27.5q-71 0 -130.5 -32t-106 -89t-79 -131.5t-49 -161t-16.5 -176.5q0 -133 56.5 -199.5t160.5 -66.5
q89 0 174 22t194 68v-323q-107 -48 -216.5 -69t-223.5 -21z" />
    <glyph glyph-name="D" unicode="D" horiz-adv-x="1401" 
d="M33 0l309 1462h416q269 0 424 -141t155 -412q0 -170 -36.5 -312t-106.5 -253t-171.5 -187.5t-231.5 -116.5t-287 -40h-471zM494 324h69q67 0 125.5 26t105 75.5t80 119t51 156.5t17.5 188q0 125 -54 189.5t-151 64.5h-71z" />
    <glyph glyph-name="E" unicode="E" horiz-adv-x="1151" 
d="M33 0l309 1462h868l-65 -317h-477l-47 -230h444l-72 -317h-444l-57 -276h477l-68 -322h-868z" />
    <glyph glyph-name="F" unicode="F" horiz-adv-x="1165" 
d="M33 0l309 1462h862l-67 -317h-471l-58 -279h436l-69 -319h-438l-113 -547h-391z" />
    <glyph glyph-name="G" unicode="G" horiz-adv-x="1430" 
d="M653 -20q-248 0 -398.5 146.5t-150.5 436.5q0 141 33.5 275.5t101 251.5t169.5 206t240 139t313 50q127 0 243 -27t205 -80l-147 -309q-63 37 -140.5 63.5t-165.5 26.5q-128 0 -215.5 -59t-140.5 -150.5t-76.5 -193t-23.5 -187.5q0 -92 24 -150.5t70.5 -86t114.5 -27.5
q40 0 66.5 3.5t66.5 10.5l51 232h-229l67 305h610l-167 -795q-105 -34 -231 -57.5t-290 -23.5z" />
    <glyph glyph-name="H" unicode="H" horiz-adv-x="1462" 
d="M33 0l309 1462h391l-112 -542h348l112 542h392l-310 -1462h-391l125 596h-346l-127 -596h-391z" />
    <glyph glyph-name="I" unicode="I" horiz-adv-x="723" 
d="M33 0l309 1462h391l-309 -1462h-391z" />
    <glyph glyph-name="J" unicode="J" horiz-adv-x="764" 
d="M-115 -461q-52 0 -108.5 8t-104.5 21v319q37 -9 79 -16.5t95 -7.5q63 0 110 21t81 76.5t55 156.5l289 1345h391l-299 -1394q-41 -192 -111 -308.5t-185 -168.5t-292 -52z" />
    <glyph glyph-name="K" unicode="K" horiz-adv-x="1370" 
d="M33 0l309 1462h391l-135 -624l145 204l320 420h459l-551 -674l270 -788h-438l-174 578l-97 -56l-108 -522h-391z" />
    <glyph glyph-name="L" unicode="L" horiz-adv-x="1079" 
d="M33 0l309 1462h391l-241 -1143h477l-68 -319h-868z" />
    <glyph glyph-name="M" unicode="M" horiz-adv-x="1862" 
d="M33 0l309 1462h518v-1038h8l478 1038h526l-313 -1462h-351l117 549q33 153 58 251t41.5 156.5t23.5 92.5h-8l-482 -1049h-370v1049h-8q-16 -103 -31 -195.5t-28.5 -171.5t-26.5 -145l-113 -537h-348z" />
    <glyph glyph-name="N" unicode="N" horiz-adv-x="1618" 
d="M33 0l309 1462h455l286 -983h9q5 44 14.5 112t21 138t21.5 121l131 612h348l-309 -1462h-455l-289 1028h-8q-1 -20 -6 -68.5t-13 -110.5t-17.5 -125.5t-20.5 -113.5l-129 -610h-348z" />
    <glyph glyph-name="O" unicode="O" horiz-adv-x="1509" 
d="M666 -20q-187 0 -311.5 70t-187.5 196.5t-63 296.5q0 114 21 227t64 218.5t108 195.5t153 157.5t199.5 105.5t247.5 38q270 0 409.5 -154t139.5 -409q0 -114 -20.5 -227.5t-62 -219t-105.5 -195.5t-150.5 -157.5t-196.5 -105t-245 -37.5zM700 303q49 0 94 22t84.5 62.5
t71 97t54.5 125t35 146.5t12 162q0 113 -48 178t-139 65q-55 0 -103 -25t-88.5 -69t-72.5 -103t-54.5 -128t-34 -143t-11.5 -148q0 -79 22.5 -133t67 -81.5t110.5 -27.5z" />
    <glyph glyph-name="P" unicode="P" horiz-adv-x="1276" 
d="M33 0l309 1462h373q194 0 311.5 -58t171 -157.5t53.5 -222.5q0 -131 -46.5 -231.5t-132 -169t-203 -103.5t-259.5 -35h-86l-100 -485h-391zM594 805h63q62 0 107.5 27t70.5 74t25 106q0 50 -31.5 90.5t-103.5 40.5h-59z" />
    <glyph glyph-name="Q" unicode="Q" horiz-adv-x="1509" 
d="M821 -348l-162 328h-11h-11q-172 0 -291 70t-180.5 196.5t-61.5 296.5q0 114 21 227t64 218.5t108.5 195.5t154.5 157.5t201.5 105.5t249.5 38q266 0 404.5 -154t138.5 -409q0 -100 -16.5 -200.5t-49.5 -195t-83.5 -179.5t-119 -154.5t-155.5 -118.5l238 -422h-439z
M682 309q54 0 102 22t89 63t74 97t56 124t35.5 145.5t12.5 159.5q0 118 -47.5 177.5t-133.5 59.5q-54 0 -102 -22.5t-89.5 -63.5t-74.5 -97.5t-56 -125.5t-35.5 -147t-12.5 -162q0 -76 21.5 -127t62.5 -77t98 -26z" />
    <glyph glyph-name="R" unicode="R" horiz-adv-x="1331" 
d="M33 0l309 1462h387q252 0 386 -100t134 -301q0 -134 -44 -223.5t-109 -143.5t-129 -82l264 -612h-426l-195 532h-73l-113 -532h-391zM600 829h51q39 0 76 11.5t66.5 36t47 64t17.5 95.5q0 53 -30 90t-105 37h-53z" />
    <glyph glyph-name="S" unicode="S" horiz-adv-x="1122" 
d="M420 -20q-109 0 -207.5 25t-169.5 71v350q80 -49 188.5 -87t200.5 -38q37 0 65 8t47 23t28.5 37.5t9.5 50.5q0 37 -22 69t-59.5 63.5t-82.5 68.5q-67 55 -117.5 115t-78 131.5t-27.5 160.5q0 99 37 182t105.5 144.5t164 95t211.5 33.5q118 0 228.5 -28t201.5 -79
l-135 -297q-70 35 -146.5 61.5t-144.5 26.5q-42 0 -68 -10.5t-40 -27t-19.5 -35.5t-5.5 -37q0 -31 13.5 -59.5t48.5 -63t99 -82.5q81 -60 132.5 -122t75.5 -130.5t24 -150.5q0 -109 -37 -196t-108 -148t-174.5 -93t-237.5 -32z" />
    <glyph glyph-name="T" unicode="T" horiz-adv-x="1130" 
d="M236 0l237 1139h-317l69 323h1028l-71 -323h-318l-237 -1139h-391z" />
    <glyph glyph-name="U" unicode="U" horiz-adv-x="1436" 
d="M610 -20q-152 0 -261 54.5t-166.5 150.5t-57.5 218q0 31 3 67.5t9 68.5l199 923h391l-195 -913q-6 -29 -10 -59t-4 -56q0 -60 33 -93.5t96 -33.5q59 0 100.5 26t71 83.5t49.5 152.5l191 893h391l-199 -932q-37 -178 -113 -300.5t-204 -186t-324 -63.5z" />
    <glyph glyph-name="V" unicode="V" horiz-adv-x="1264" 
d="M254 0l-104 1462h382l25 -737q2 -53 1.5 -124.5t-4.5 -138.5t-11 -108h8q12 54 30 112.5t37 109.5t33 81l350 805h414l-725 -1462h-436z" />
    <glyph glyph-name="W" unicode="W" horiz-adv-x="1915" 
d="M201 0l-49 1462h370l-10 -733q-1 -88 -5.5 -182t-12.5 -162h8q21 68 54 150t65 155l335 772h336v-792q0 -51 -2 -140t-8 -161h8q16 53 39 123t48.5 141.5t47.5 128.5l277 700h387l-635 -1462h-461v561q0 53 1.5 109t4.5 113t7 112h-9q-31 -95 -65 -185.5t-72 -179.5
l-225 -530h-434z" />
    <glyph glyph-name="X" unicode="X" horiz-adv-x="1358" 
d="M-125 0l563 776l-223 686h416l123 -469l309 469h448l-538 -725l262 -737h-432l-146 498l-338 -498h-444z" />
    <glyph glyph-name="Y" unicode="Y" horiz-adv-x="1237" 
d="M281 0l120 567l-237 895h403l90 -542l312 542h436l-612 -895l-121 -567h-391z" />
    <glyph glyph-name="Z" unicode="Z" horiz-adv-x="1104" 
d="M-92 0l47 242l690 901h-479l67 319h986l-52 -245l-700 -898h543l-68 -319h-1034z" />
    <glyph glyph-name="bracketleft" unicode="[" horiz-adv-x="737" 
d="M-53 -344l393 1847h530l-55 -254h-215l-285 -1339h215l-53 -254h-530z" />
    <glyph glyph-name="backslash" unicode="\" horiz-adv-x="956" 
d="M459 -20l-238 1503h309l248 -1503h-319z" />
    <glyph glyph-name="bracketright" unicode="]" horiz-adv-x="737" 
d="M-133 -344l53 254h213l285 1339h-215l55 254h528l-393 -1847h-526z" />
    <glyph glyph-name="asciicircum" unicode="^" horiz-adv-x="1096" 
d="M-6 502l631 960h172l284 -960h-274l-156 569l-360 -569h-297z" />
    <glyph glyph-name="underscore" unicode="_" horiz-adv-x="922" 
d="M-184 -379l57 246h930l-58 -246h-929z" />
    <glyph glyph-name="grave" unicode="`" horiz-adv-x="723" 
d="M549 1241q-45 42 -94.5 94.5t-92 107.5t-67.5 105v21h395q9 -44 21.5 -94.5t31 -103.5t41.5 -105v-25h-235z" />
    <glyph glyph-name="a" unicode="a" 
d="M406 -20q-87 0 -160.5 41t-117.5 135.5t-44 255.5q0 83 19.5 182t59 197.5t99.5 180.5t141.5 131.5t184.5 49.5q65 0 113.5 -20t85 -55.5t63.5 -84.5h8l53 140h310l-240 -1133h-309l10 123h-8q-30 -42 -67 -74t-85.5 -50.5t-115.5 -18.5zM565 291q44 0 81 40.5
t63.5 104.5t38.5 137q6 31 9 62.5t3 62.5q0 65 -20.5 104.5t-61.5 39.5q-32 0 -61.5 -23.5t-54.5 -64t-43.5 -93t-29 -110.5t-10.5 -117q0 -69 21.5 -106t64.5 -37z" />
    <glyph glyph-name="b" unicode="b" 
d="M657 -20q-57 0 -103 14.5t-86.5 46.5t-80.5 84h-8l-49 -125h-307l329 1556h387l-49 -231q-12 -62 -28.5 -120.5t-32.5 -105t-29 -75.5h8q27 33 56 62.5t70 48t104 18.5q87 0 160 -41t117 -135.5t44 -255.5q0 -83 -19 -182.5t-58.5 -198t-99.5 -180t-141 -131t-184 -49.5z
M563 291q32 0 62 23.5t55 64t44 92.5t29.5 110.5t10.5 116.5q0 70 -21.5 107t-64.5 37q-30 0 -56 -18.5t-47.5 -50t-38 -72.5t-28 -86.5t-17.5 -92t-6 -88.5q0 -64 19 -103.5t59 -39.5z" />
    <glyph glyph-name="c" unicode="c" horiz-adv-x="1032" 
d="M506 -20q-115 0 -211 47t-153.5 149t-57.5 266q0 120 27.5 227t79.5 196t126.5 153.5t168.5 99.5t204 35q106 0 193.5 -20t173.5 -60l-123 -287q-51 23 -110.5 41.5t-114.5 18.5q-60 0 -104.5 -37.5t-73.5 -96.5t-43.5 -124.5t-14.5 -120.5q0 -66 15 -104.5t43 -55
t67 -16.5q72 0 139.5 23t143.5 63v-307q-80 -43 -168 -66.5t-207 -23.5z" />
    <glyph glyph-name="d" unicode="d" horiz-adv-x="1237" 
d="M406 -20q-87 0 -160.5 41t-117.5 135.5t-44 255.5q0 83 19 182t58.5 197.5t99.5 180.5t141 131.5t184 49.5q62 0 103 -18.5t72.5 -52.5t61.5 -81h8q0 13 2.5 55.5t8.5 97t16 101.5l62 301h391l-330 -1556h-309l10 123h-8q-28 -39 -63 -71.5t-84 -52t-121 -19.5zM565 291
q30 0 56 18.5t47.5 50t38.5 72.5t29 87t18 92t6 87q0 65 -19.5 104.5t-60.5 39.5q-32 0 -62 -23.5t-55 -64t-44 -93t-29.5 -110.5t-10.5 -117q0 -69 21.5 -106t64.5 -37z" />
    <glyph glyph-name="e" unicode="e" horiz-adv-x="1186" 
d="M532 -20q-143 0 -243 54t-152.5 154.5t-52.5 239.5t39.5 269t120 233t202.5 163t287 60q191 0 299.5 -86t108.5 -229q0 -94 -36 -170.5t-110.5 -131.5t-189.5 -84.5t-273 -29.5h-59v-7.5v-8.5q0 -76 41 -112t123 -36q86 0 163 26t165 72v-274q-91 -46 -188 -74t-245 -28z
M512 664h29q87 0 138 23t73 58t22 70q0 32 -20 54t-64 22q-45 0 -83 -35t-63 -87.5t-32 -104.5z" />
    <glyph glyph-name="f" unicode="f" horiz-adv-x="840" 
d="M-2 -492q-54 0 -113 8.5t-94 18.5v303q28 -7 58.5 -12.5t58.5 -5.5q74 0 112 30.5t52 94.5l190 897h-166l43 190l189 96l16 74q21 96 57.5 165t89 113.5t121 65.5t154.5 21q80 0 155.5 -16t127.5 -42l-99 -264q-29 14 -63 22.5t-66 8.5q-35 0 -59.5 -18.5t-32.5 -53.5
l-16 -71h211l-66 -291h-209l-205 -959q-23 -108 -75.5 -193t-142.5 -133.5t-228 -48.5z" />
    <glyph glyph-name="g" unicode="g" horiz-adv-x="1170" 
d="M347 -492q-212 0 -337.5 75.5t-125.5 209.5q0 98 68 169t212 118q-37 23 -60.5 60t-23.5 79q0 71 51 126t152 101q-65 52 -98 122t-33 159t29 162t84 128q66 65 165 100.5t226 35.5q51 0 107.5 -6t89.5 -14h399l-41 -207l-160 -52q5 -20 7.5 -43.5t2.5 -50.5
q0 -93 -32 -169.5t-91 -132.5q-61 -59 -149.5 -91.5t-196.5 -32.5q-38 0 -69 3t-55 10q-20 -11 -34 -22t-14 -30q0 -14 12 -26q11 -10 36.5 -19t62.5 -14l137 -18q116 -15 188 -50t105 -92t33 -139q0 -110 -45.5 -195.5t-132.5 -142.5q-82 -55 -200 -83t-269 -28zM384 -238
q57 0 111 7.5t91 26.5q25 13 39.5 32t14.5 45q0 14 -4.5 24.5t-12.5 18.5q-19 19 -54 27t-77 12l-115 12q-52 -7 -88.5 -23t-55.5 -40t-19 -56q0 -43 42.5 -64.5t127.5 -21.5zM584 598q35 0 61.5 31.5t42 83.5t15.5 112q0 23 -3.5 41t-11.5 30q-7 12 -18.5 18t-27.5 6
q-32 0 -55.5 -22t-39 -57t-23 -74.5t-7.5 -74.5q0 -22 3.5 -38.5t10.5 -28.5q17 -27 53 -27z" />
    <glyph glyph-name="h" unicode="h" horiz-adv-x="1274" 
d="M23 0l329 1556h387l-53 -249q-10 -48 -25 -100.5t-31.5 -100t-31.5 -82.5h8q35 45 77 73.5t91 42t105 13.5q106 0 171.5 -44t96.5 -117t31 -161q0 -56 -7 -115.5t-18 -113.5l-127 -602h-387l129 618q6 26 12 66.5t6 75.5q0 43 -22 64.5t-53 21.5q-38 0 -72 -29.5
t-62.5 -94t-50.5 -169.5l-116 -553h-387z" />
    <glyph glyph-name="i" unicode="i" horiz-adv-x="666" 
d="M23 0l239 1133h389l-241 -1133h-387zM500 1241q-82 0 -136.5 31.5t-54.5 109.5q0 68 27 114.5t77.5 70.5t121.5 24q77 0 133.5 -31.5t56.5 -109.5q0 -94 -55 -151.5t-170 -57.5z" />
    <glyph glyph-name="j" unicode="j" horiz-adv-x="666" 
d="M-57 -492q-54 0 -113 8.5t-94 18.5v303q37 -12 62 -15t50 -3q41 0 76.5 14.5t61.5 47t37 85.5l247 1166h387l-260 -1227q-21 -102 -73.5 -193t-145 -148t-235.5 -57zM508 1241q-82 0 -136.5 31.5t-54.5 109.5q0 68 27 114.5t77.5 70.5t121.5 24q77 0 133.5 -31.5
t56.5 -109.5q0 -94 -54.5 -151.5t-170.5 -57.5z" />
    <glyph glyph-name="k" unicode="k" horiz-adv-x="1264" 
d="M23 0l325 1556h387l-139 -663q-8 -37 -20 -81t-23.5 -82.5t-20.5 -61.5h9l391 465h442l-491 -512l274 -621h-438l-139 391l-101 -53l-69 -338h-387z" />
    <glyph glyph-name="l" unicode="l" horiz-adv-x="666" 
d="M23 0l329 1556h387l-329 -1556h-387z" />
    <glyph glyph-name="m" unicode="m" horiz-adv-x="1896" 
d="M23 0l239 1133h309l-16 -187h8q40 75 86 120.5t105 66t137 20.5q117 0 180.5 -53.5t89.5 -153.5h8q43 71 95 116.5t114 68t135 22.5q140 0 213.5 -85t73.5 -249q0 -46 -5.5 -98.5t-16.5 -106.5l-125 -614h-387l129 631q5 20 9.5 55t4.5 78q0 40 -19 61t-51 21
q-37 0 -66.5 -19t-53 -57.5t-42.5 -95t-34 -131.5l-111 -543h-387l131 631q5 23 10 59.5t5 61.5q0 50 -20.5 72t-51.5 22q-28 0 -54.5 -13.5t-50 -46.5t-45 -90.5t-41.5 -144.5l-118 -551h-387z" />
    <glyph glyph-name="n" unicode="n" horiz-adv-x="1274" 
d="M23 0l239 1133h309l-12 -158h8q37 64 82 103t101.5 57t128.5 18q106 0 171.5 -44t96.5 -117t31 -161q0 -56 -7 -115.5t-18 -113.5l-127 -602h-387l129 618q6 26 12 66.5t6 75.5q0 43 -22 64.5t-53 21.5q-38 0 -72.5 -31.5t-63 -96t-49.5 -165.5l-116 -553h-387z" />
    <glyph glyph-name="o" unicode="o" 
d="M520 -20q-139 0 -236.5 51t-148.5 148.5t-51 236.5q0 116 26 224.5t78 201.5t129 163t178.5 109t227.5 39q139 0 236.5 -51t148.5 -148.5t51 -236.5q0 -116 -26 -224.5t-78 -201.5t-129 -163t-178.5 -109t-227.5 -39zM563 270q34 0 64.5 26t55.5 71.5t43 104t28 124.5
t10 133q0 44 -10.5 73.5t-29.5 44.5t-46 15q-34 0 -64.5 -26t-55 -71t-42.5 -103.5t-27.5 -125t-9.5 -133.5q0 -66 22 -99.5t62 -33.5z" />
    <glyph glyph-name="p" unicode="p" 
d="M-82 -492l344 1625h309l-12 -127h8q31 48 69 81t85 49.5t104 16.5q102 0 177 -49t116 -142.5t41 -226.5q0 -112 -23 -221.5t-66 -206t-105.5 -170t-141 -115.5t-172.5 -42q-51 0 -93.5 18t-76.5 50.5t-61 76.5h-8q-7 -80 -17.5 -159.5t-38.5 -211.5l-51 -246h-387z
M573 291q32 0 61 23.5t52.5 64t41 92.5t27 110.5t9.5 116.5q0 70 -21.5 107t-64.5 37q-30 0 -55.5 -18t-47 -49t-38.5 -71.5t-28.5 -86.5t-17.5 -92.5t-6 -90.5q0 -64 23.5 -103.5t64.5 -39.5z" />
    <glyph glyph-name="q" unicode="q" 
d="M485 -492l68 293q15 63 31.5 122.5t32 108.5t26.5 79h-8q-26 -36 -59 -65.5t-78.5 -47.5t-110.5 -18q-74 0 -144 42.5t-114.5 136.5t-44.5 249q0 84 19 184t58.5 199t99.5 181t141 131.5t184 49.5q65 0 110 -16.5t81 -51.5t73 -92h8l53 140h310l-344 -1625h-392zM565 291
q30 0 56 18.5t47.5 50t38.5 72.5t29 87t18 92t6 87q0 65 -19.5 104.5t-60.5 39.5q-32 0 -62 -23.5t-55 -64t-44 -93t-29.5 -110.5t-10.5 -117q0 -69 21.5 -106t64.5 -37z" />
    <glyph glyph-name="r" unicode="r" horiz-adv-x="895" 
d="M23 0l239 1133h309l-18 -189h8q47 80 96 125.5t108.5 64.5t135.5 19q22 0 46.5 -2.5t33.5 -5.5l-84 -383q-22 9 -54 15.5t-69 6.5q-45 0 -84.5 -14.5t-72 -47t-58 -88t-43.5 -136.5l-106 -498h-387z" />
    <glyph glyph-name="s" unicode="s" horiz-adv-x="1028" 
d="M387 -20q-113 0 -201.5 16t-154.5 47v311q92 -50 171 -70t160 -20q24 0 56 4.5t56 19.5t24 46q0 23 -10.5 41.5t-43.5 42t-102 61.5q-70 39 -115 85t-66.5 102.5t-21.5 128.5q0 107 50 187.5t153.5 125.5t261.5 45q111 0 204 -26.5t179 -79.5l-121 -252
q-56 37 -127.5 65.5t-130.5 28.5q-35 0 -55.5 -17t-20.5 -51q0 -19 13.5 -35t43.5 -32.5t77 -40.5q77 -38 126.5 -86t74 -106t24.5 -128q0 -140 -62 -231.5t-175 -136.5t-267 -45z" />
    <glyph glyph-name="t" unicode="t" horiz-adv-x="936" 
d="M410 -20q-148 0 -224.5 63.5t-76.5 208.5q0 41 7.5 94t16.5 94l84 402h-154l41 190l218 88l137 240h258l-49 -227h288l-63 -291h-289l-84 -383q-6 -29 -11 -58.5t-5 -46.5q0 -34 17.5 -48.5t45.5 -14.5q38 0 86 13.5t97 33.5v-291q-63 -31 -146.5 -49t-193.5 -18z" />
    <glyph glyph-name="u" unicode="u" horiz-adv-x="1274" 
d="M395 -20q-105 0 -171 44t-97 117t-31 160q0 57 7 116.5t18 112.5l127 603h387l-129 -617q-6 -26 -12.5 -66t-6.5 -75q0 -43 22.5 -64.5t53.5 -21.5q34 0 68.5 31t65 96t51.5 166l116 551h387l-239 -1133h-310l13 158h-8q-37 -63 -82 -102.5t-101.5 -57.5t-128.5 -18z" />
    <glyph glyph-name="v" unicode="v" horiz-adv-x="1114" 
d="M233 0l-145 1133h385l21 -570q1 -26 1.5 -53t-0.5 -51.5t-3 -46.5h8q5 20 14 44.5t19 49t18 41.5l268 586h414l-612 -1133h-388z" />
    <glyph glyph-name="w" unicode="w" horiz-adv-x="1686" 
d="M168 0l-66 1133h365v-553q0 -55 -3.5 -112.5t-8.5 -105.5h8q8 33 18 66.5t20.5 66t20.5 60.5l217 578h408l-29 -558q-1 -30 -3.5 -87.5t-10.5 -125.5h8q13 41 24.5 77t24 70.5t27.5 72.5l227 551h385l-538 -1133h-422l14 449q2 52 5.5 117.5t8.5 132t11 120.5h-9
q-14 -56 -33.5 -117.5t-39 -118.5t-35.5 -98l-187 -485h-407z" />
    <glyph glyph-name="x" unicode="x" horiz-adv-x="1159" 
d="M-119 0l473 578l-207 555h422l76 -314l186 314h459l-465 -576l228 -557h-428l-80 328l-211 -328h-453z" />
    <glyph glyph-name="y" unicode="y" horiz-adv-x="1114" 
d="M25 -492q-58 0 -95 5.5t-59 11.5v307q19 -4 47 -8t62 -4q89 0 143.5 37.5t97.5 113.5l23 41l-162 1121h389l39 -521q3 -34 3.5 -66.5t0 -63t-1.5 -60.5h8q10 31 22 66.5t25 69.5t23 58l223 517h416l-670 -1276q-61 -118 -136 -195.5t-172 -115.5t-226 -38z" />
    <glyph glyph-name="z" unicode="z" horiz-adv-x="993" 
d="M-41 0l43 221l502 613h-348l67 299h811l-53 -242l-496 -592h383l-65 -299h-844z" />
    <glyph glyph-name="braceleft" unicode="{" horiz-adv-x="735" 
d="M463 -324q-196 0 -278.5 74t-82.5 203q0 32 3.5 62.5t11.5 64.5l37 174q3 12 4.5 23t1.5 20q0 66 -36.5 101.5t-139.5 35.5l53 287q123 0 177.5 40t74.5 132l55 246q23 100 66.5 172.5t125.5 111.5t218 39h129l-62 -280q-73 -1 -116 -26.5t-60 -102.5l-53 -258
q-25 -115 -100 -163t-179 -59v-8q89 -29 129.5 -87t40.5 -146q0 -19 -3.5 -38t-6.5 -36l-35 -164q-3 -15 -4.5 -26.5t-1.5 -22.5q0 -47 29.5 -67.5t83.5 -20.5v-281h-82z" />
    <glyph glyph-name="bar" unicode="|" horiz-adv-x="1159" 
d="M442 -465v2013h271v-2013h-271z" />
    <glyph glyph-name="braceright" unicode="}" horiz-adv-x="735" 
d="M-123 -324v281q73 3 111 14t55 38t27 77l53 258q25 116 99.5 163.5t178.5 57.5v8q-88 29 -129 87.5t-41 146.5q0 18 4 37.5t7 36.5l34 163q4 16 5.5 27.5t1.5 22.5q0 43 -32.5 65.5t-103.5 22.5l54 280h61q130 0 206.5 -37.5t110 -99.5t33.5 -137q0 -32 -3 -63.5
t-11 -65.5l-37 -174q-3 -13 -4.5 -23.5t-1.5 -19.5q0 -66 45 -100.5t148 -34.5l-58 -287q-82 0 -135.5 -18t-84 -56t-44.5 -100l-55 -246q-21 -100 -68 -173t-131.5 -112t-220.5 -39h-74z" />
    <glyph glyph-name="asciitilde" unicode="~" horiz-adv-x="1200" 
d="M561 592q-75 32 -131.5 43.5t-103.5 11.5q-60 0 -120.5 -35t-113.5 -86v281q53 54 117.5 81t146.5 27q60 0 120.5 -11.5t160.5 -51.5q75 -32 133 -43.5t104 -11.5q57 0 118.5 35t113.5 86v-281q-52 -54 -117.5 -81.5t-146.5 -27.5q-60 0 -120.5 12t-160.5 52z" />
    <glyph glyph-name="uni00A0" unicode="&#xa0;" horiz-adv-x="532" 
 />
    <glyph glyph-name="exclamdown" unicode="&#xa1;" horiz-adv-x="623" 
d="M-109 -338l254 946h328l-156 -946h-426zM342 768q-86 0 -133 41t-47 115q0 115 66.5 172t170.5 57q107 0 147 -46.5t40 -105.5q0 -65 -27 -118t-81 -84t-136 -31z" />
    <glyph glyph-name="cent" unicode="&#xa2;" horiz-adv-x="1188" 
d="M373 -20l51 208q-115 32 -192.5 124.5t-77.5 273.5q0 122 23 229t67 195.5t107 156t142 110.5t173 58l32 148h230l-33 -150q69 -10 123.5 -29t107.5 -47l-122 -286q-64 31 -115 45t-111 14t-103.5 -38t-72 -98.5t-42 -131t-13.5 -135.5q0 -79 31.5 -113.5t89.5 -34.5
q72 0 140.5 25t141.5 65v-311q-69 -37 -142 -59.5t-165 -30.5l-41 -188h-229z" />
    <glyph glyph-name="sterling" unicode="&#xa3;" horiz-adv-x="1188" 
d="M-18 0l63 313q78 22 123.5 51t69.5 75t38 116l21 96h-188l57 279h188l23 129q30 171 97 263t163 126.5t213 34.5q116 0 203.5 -25.5t169.5 -60.5l-144 -299q-66 31 -114 47t-99 16q-35 0 -56.5 -24.5t-35.5 -92.5l-24 -114h251l-57 -279h-252l-20 -94
q-20 -92 -81.5 -146.5t-121.5 -80.5h604l-72 -330h-1019z" />
    <glyph glyph-name="currency" unicode="&#xa4;" horiz-adv-x="1188" 
d="M909 231l-125 123q-40 -16 -87 -28.5t-97 -12.5q-52 0 -98.5 9t-87.5 30l-123 -119l-182 183l127 123q-23 44 -34.5 89.5t-11.5 94.5q0 51 13 97.5t33 86.5l-130 125l185 185l127 -125q40 18 89.5 30.5t92.5 12.5q50 0 94 -11.5t90 -36.5l125 130l189 -179l-129 -129
q20 -38 31.5 -87.5t11.5 -98.5q0 -52 -11 -97t-32 -89l123 -123zM600 571q43 0 78.5 20.5t56.5 55t21 76.5q0 43 -21 77t-56.5 54t-78.5 20q-42 0 -75.5 -20t-53.5 -54t-20 -77q0 -42 20 -76.5t53.5 -55t75.5 -20.5z" />
    <glyph glyph-name="yen" unicode="&#xa5;" horiz-adv-x="1188" 
d="M262 0l41 190h-227l43 205h227l25 129h-226l45 205h179l-187 733h385l72 -487l293 487h393l-489 -733h184l-45 -205h-223l-27 -129h223l-43 -205h-223l-41 -190h-379z" />
    <glyph glyph-name="brokenbar" unicode="&#xa6;" horiz-adv-x="1159" 
d="M444 705v841h271v-841h-271zM444 -444v839h271v-839h-271z" />
    <glyph glyph-name="section" unicode="&#xa7;" horiz-adv-x="1036" 
d="M377 -25q-109 0 -196.5 26t-143.5 69v249q85 -52 173 -86t185 -34q86 0 118 35t32 69q0 26 -13.5 48.5t-43 45.5t-78.5 49q-76 42 -132.5 90.5t-88 107.5t-31.5 132q0 48 17.5 98t57 97t103.5 86q-38 38 -59 90t-21 102q0 115 56.5 187.5t159 106.5t239.5 34
q103 0 190.5 -27.5t169.5 -74.5l-100 -224q-55 37 -128 69t-165 32q-40 0 -64.5 -10.5t-35.5 -27t-11 -36.5q0 -35 25 -67t125 -78q92 -43 145.5 -92t76 -104t22.5 -116q0 -84 -23 -140t-61 -92.5t-84 -62.5q32 -38 50.5 -91t18.5 -109q0 -110 -55 -188.5t-163 -120.5
t-267 -42zM604 643q29 20 51.5 51.5t22.5 75.5q0 36 -16 66t-50 56t-88 48q-24 -12 -42.5 -32.5t-29 -44t-10.5 -46.5q0 -36 22.5 -66.5t59.5 -56.5t80 -51z" />
    <glyph glyph-name="dieresis" unicode="&#xa8;" horiz-adv-x="1135" 
d="M993 1257q-73 0 -121.5 26t-48.5 101q0 99 53 143t148 44q62 0 115 -23.5t53 -101.5q0 -85 -43 -137t-156 -52zM506 1257q-73 0 -121.5 26t-48.5 101q0 99 53 143t148 44q41 0 80 -9.5t64.5 -36.5t25.5 -79q0 -85 -44.5 -137t-156.5 -52z" />
    <glyph glyph-name="copyright" unicode="&#xa9;" horiz-adv-x="1688" 
d="M844 -20q-163 0 -300.5 55.5t-239 156.5t-157 238.5t-55.5 300.5q0 164 55.5 301t157 238.5t239 157t300.5 55.5q164 0 301 -55.5t238 -157t156.5 -238.5t55.5 -301q0 -163 -55.5 -300.5t-156.5 -238.5t-238 -156.5t-301 -55.5zM846 262q-221 0 -333 129.5t-112 343.5
q0 140 48.5 244t145.5 161.5t241 57.5q92 0 170 -20.5t151 -57.5l-92 -205q-52 28 -102 42t-109 14q-79 0 -125.5 -61.5t-46.5 -178.5q0 -127 43.5 -184.5t134.5 -57.5q65 0 131 16.5t127 51.5v-231q-63 -32 -127.5 -48t-144.5 -16zM844 143q125 0 229 43t179.5 121.5
t117 186t41.5 237.5t-41.5 237.5t-117 186t-179.5 121.5t-229 43q-127 0 -232 -43t-181 -121.5t-117.5 -186t-41.5 -237.5t41.5 -237.5t117.5 -186t181 -121.5t232 -43z" />
    <glyph glyph-name="ordfeminine" unicode="&#xaa;" horiz-adv-x="827" 
d="M352 729q-44 0 -93.5 24.5t-84.5 83.5t-35 164q0 80 22.5 163t66 153.5t107.5 114t148 43.5q80 0 126.5 -27t86.5 -72h9l36 86h199l-170 -721h-195l9 86h-9q-38 -41 -92.5 -69.5t-130.5 -28.5zM481 911q34 0 59 19t42 50t27.5 67t15 70.5t4.5 60.5q0 44 -17 79t-55 35
q-34 0 -60.5 -27t-45.5 -69.5t-29 -91t-10 -92.5q0 -48 19 -74.5t50 -26.5z" />
    <glyph glyph-name="guillemotleft" unicode="&#xab;" horiz-adv-x="1276" 
d="M244 76l-183 477v10l408 518l264 -204l-266 -334l111 -330zM803 76l-195 506v10l424 495l260 -210l-278 -306l123 -358z" />
    <glyph glyph-name="logicalnot" unicode="&#xac;" horiz-adv-x="1200" 
d="M1106 856v-618h-270v350h-744v268h1014z" />
    <glyph glyph-name="uni00AD" unicode="&#xad;" horiz-adv-x="674" 
d="M23 393l63 312h553l-64 -312h-552z" />
    <glyph glyph-name="registered" unicode="&#xae;" horiz-adv-x="1688" 
d="M518 313v875h279q213 0 304 -70.5t91 -199.5q0 -105 -41 -159.5t-100 -82.5l194 -363h-278l-146 320h-35v-320h-268zM786 809h11q58 0 91.5 21.5t33.5 76.5q0 54 -33.5 70t-89.5 16h-13v-184zM844 -20q-163 0 -300.5 55.5t-239 156.5t-157 238.5t-55.5 300.5
q0 164 55.5 301t157 238.5t239 157t300.5 55.5q164 0 301 -55.5t238 -157t156.5 -238.5t55.5 -301q0 -163 -55.5 -300.5t-156.5 -238.5t-238 -156.5t-301 -55.5zM844 143q125 0 229 43t179.5 121.5t117 186t41.5 237.5t-41.5 237.5t-117 186t-179.5 121.5t-229 43
q-127 0 -232 -43t-181 -121.5t-117.5 -186t-41.5 -237.5t41.5 -237.5t117.5 -186t181 -121.5t232 -43z" />
    <glyph glyph-name="overscore" unicode="&#xaf;" horiz-adv-x="922" 
d="M207 1554l57 246h930l-57 -246h-930z" />
    <glyph glyph-name="degree" unicode="&#xb0;" horiz-adv-x="864" 
d="M432 750q-107 0 -190.5 46t-131 128t-47.5 190q0 107 47.5 190t131 131t190.5 48q108 0 191 -48t130.5 -131t47.5 -190q0 -108 -47.5 -190t-130.5 -128t-191 -46zM432 987q60 0 95.5 35t35.5 92q0 60 -35.5 96.5t-95.5 36.5t-95.5 -36.5t-35.5 -96.5q0 -57 35.5 -92
t95.5 -35z" />
    <glyph glyph-name="plusminus" unicode="&#xb1;" horiz-adv-x="1200" 
d="M92 0v268h1014v-268h-1014zM733 944h373v-268h-373v-361h-268v361h-373v268h373v367h268v-367z" />
    <glyph glyph-name="uni00B2" unicode="&#xb2;" horiz-adv-x="848" 
d="M125 850l43 205l276 211q68 51 107.5 86.5t56.5 62t17 49.5q0 28 -19 40t-45 12q-35 0 -85 -18.5t-103 -61.5l-119 190q81 62 168.5 92.5t220.5 30.5q128 0 215.5 -58.5t87.5 -158.5q0 -74 -33.5 -134.5t-101.5 -118t-172 -124.5l-78 -49h320l-52 -256h-704z" />
    <glyph glyph-name="uni00B3" unicode="&#xb3;" horiz-adv-x="848" 
d="M483 838q-107 0 -178 16t-133 53v226q63 -43 132 -62.5t124 -19.5q75 0 113.5 19.5t38.5 59.5q0 25 -22.5 46.5t-90.5 21.5h-121l43 195h96q48 0 83.5 9.5t55 29t19.5 49.5q0 28 -22 42.5t-54 14.5q-38 0 -78.5 -12.5t-105.5 -52.5l-100 182q80 49 157 71.5t185 22.5
q83 0 152 -23.5t110 -69.5t41 -116q0 -104 -65.5 -154.5t-166.5 -74.5v-8q92 -23 129 -70t37 -113q0 -76 -43.5 -140.5t-128 -103t-207.5 -38.5z" />
    <glyph glyph-name="acute" unicode="&#xb4;" horiz-adv-x="821" 
d="M229 1241v23q48 39 98.5 91t98.5 108.5t86 105.5h438v-15q-22 -27 -74.5 -69.5t-118 -89t-130.5 -87.5t-113 -67h-285z" />
    <glyph glyph-name="uni00B5" unicode="&#xb5;" horiz-adv-x="1288" 
d="M-82 -492l344 1625h387l-129 -617q-6 -26 -12 -66t-6 -75q0 -43 22.5 -64.5t53.5 -21.5q49 0 81 26t56 89.5t47 177.5l117 551h387l-240 -1133h-289l6 123h-8q-22 -48 -51 -79.5t-64 -47.5t-75 -16q-51 0 -83.5 18.5t-47.5 58.5h-8q-4 -53 -11 -102t-16 -98t-21 -103
l-53 -246h-387z" />
    <glyph glyph-name="paragraph" unicode="&#xb6;" horiz-adv-x="1317" 
d="M647 -260v819q-31 -9 -56 -13.5t-69 -4.5q-95 0 -172.5 26t-133 84.5t-85 154.5t-29.5 236q0 147 32.5 246t92.5 158t143 84.5t183 25.5h633v-1816h-191v1587h-157v-1587h-191z" />
    <glyph glyph-name="periodcentered" unicode="&#xb7;" horiz-adv-x="627" 
d="M289 532q-78 0 -126 37t-48 115q0 122 73 177.5t171 55.5q80 0 130 -37.5t50 -117.5q0 -132 -68 -181t-182 -49z" />
    <glyph glyph-name="cedilla" unicode="&#xb8;" horiz-adv-x="383" 
d="M-29 -492q-61 0 -108 8t-84 21v205q34 -10 83.5 -18.5t67.5 -8.5q22 0 37 5t23 15.5t8 28.5q0 28 -26.5 55t-118.5 46l75 135h205l-24 -41q78 -16 128 -61t50 -134q0 -80 -37 -137.5t-107.5 -88t-171.5 -30.5z" />
    <glyph glyph-name="uni00B9" unicode="&#xb9;" horiz-adv-x="848" 
d="M365 850l81 364q16 73 31 126t25 81q-20 -16 -44 -36t-30 -23l-119 -78l-119 184l426 261h252l-186 -879h-317z" />
    <glyph glyph-name="ordmasculine" unicode="&#xba;" horiz-adv-x="817" 
d="M465 727q-145 0 -227 78t-82 219q0 89 26 171t79 146t133.5 101t189.5 37q138 0 222.5 -79t84.5 -231q0 -85 -25 -164t-76.5 -142t-132.5 -99.5t-192 -36.5zM489 932q33 0 58 22.5t41.5 59t24.5 79.5t8 83q0 44 -15 71t-47 27q-34 0 -58.5 -25.5t-40.5 -64.5t-24 -81
t-8 -75q0 -52 16.5 -74t44.5 -22z" />
    <glyph glyph-name="guillemotright" unicode="&#xbb;" horiz-adv-x="1276" 
d="M807 43l-264 205l266 334l-111 329l334 138l182 -478v-10zM244 35l-258 213l276 305l-121 358l332 138l195 -506v-11z" />
    <glyph glyph-name="onequarter" unicode="&#xbc;" horiz-adv-x="1909" 
d="M307 0l1089 1462h291l-1083 -1462h-297zM347 584l81 364q16 73 31 126t25 81q-20 -16 -44 -36t-30 -23l-119 -78l-119 184l426 261h252l-186 -879h-317zM1362 0l27 123h-397l30 178l490 578h325l-118 -557h112l-41 -199h-112l-27 -123h-289zM1268 322h162l41 157
q11 41 25.5 91t21.5 69q-17 -26 -51 -69.5t-56 -69.5z" />
    <glyph glyph-name="onehalf" unicode="&#xbd;" horiz-adv-x="2001" 
d="M293 0l1089 1462h291l-1083 -1462h-297zM347 586l81 364q16 73 31 126t25 81q-20 -16 -44 -36t-30 -23l-119 -78l-119 184l426 261h252l-186 -879h-317zM1098 0l43 205l276 211q68 51 107.5 86.5t56.5 62t17 49.5q0 28 -19 40t-45 12q-35 0 -85 -18.5t-103 -61.5
l-119 190q81 62 168.5 92.5t220.5 30.5q128 0 215.5 -58.5t87.5 -158.5q0 -74 -33.5 -134.5t-101.5 -118t-172 -124.5l-78 -49h320l-52 -256h-704z" />
    <glyph glyph-name="threequarters" unicode="&#xbe;" horiz-adv-x="1954" 
d="M432 572q-107 0 -178 16t-133 53v226q63 -43 132 -62.5t124 -19.5q75 0 113.5 19.5t38.5 59.5q0 25 -22.5 46.5t-90.5 21.5h-121l43 195h96q48 0 83.5 9.5t55 29t19.5 49.5q0 28 -22 42.5t-54 14.5q-38 0 -78.5 -12.5t-105.5 -52.5l-100 182q80 49 157 71.5t185 22.5
q83 0 152 -23.5t110 -69.5t41 -116q0 -104 -65.5 -154.5t-166.5 -74.5v-8q92 -23 129 -70t37 -113q0 -76 -43.5 -140.5t-128 -103t-207.5 -38.5zM361 0l1089 1462h291l-1083 -1462h-297zM1407 0l27 123h-397l30 178l490 578h325l-118 -557h112l-41 -199h-112l-27 -123h-289z
M1313 322h162l41 157q11 41 25.5 91t21.5 69q-17 -26 -51 -69.5t-56 -69.5z" />
    <glyph glyph-name="questiondown" unicode="&#xbf;" horiz-adv-x="999" 
d="M743 617q-20 -112 -50.5 -181.5t-82.5 -122t-139 -112.5q-66 -44 -101 -73.5t-48 -52t-13 -46.5q0 -31 19 -50.5t71 -19.5q56 0 137 27t176 82l119 -283q-95 -56 -213.5 -95.5t-247.5 -39.5q-202 0 -320 90.5t-118 247.5q0 113 39.5 186t103 123t134.5 93q78 47 115.5 78
t55.5 64t35 85h328zM659 1158q106 0 146.5 -46.5t40.5 -105.5q0 -98 -60.5 -165.5t-183.5 -67.5q-86 0 -133 41t-47 114q0 116 66.5 173t170.5 57z" />
    <glyph glyph-name="Agrave" unicode="&#xc0;" horiz-adv-x="1384" 
d="M-121 0l744 1462h503l123 -1462h-381l-10 274h-448l-125 -274h-406zM553 586h293l-15 420q-1 49 -2 97t0 91h-6q-15 -46 -32.5 -90t-38.5 -90zM854 1571q-45 42 -94.5 94.5t-92 107.5t-67.5 105v21h395q9 -44 21.5 -94.5t31 -103.5t41.5 -105v-25h-235z" />
    <glyph glyph-name="Aacute" unicode="&#xc1;" horiz-adv-x="1384" 
d="M-121 0l744 1462h503l123 -1462h-381l-10 274h-448l-125 -274h-406zM553 586h293l-15 420q-1 49 -2 97t0 91h-6q-15 -46 -32.5 -90t-38.5 -90zM702 1571v23q48 39 98.5 91t98.5 108.5t86 105.5h438v-15q-22 -27 -74.5 -69.5t-118 -89t-130.5 -87.5t-113 -67h-285z" />
    <glyph glyph-name="Acircumflex" unicode="&#xc2;" horiz-adv-x="1384" 
d="M-121 0l744 1462h503l123 -1462h-381l-10 274h-448l-125 -274h-406zM553 586h293l-15 420q-1 49 -2 97t0 91h-6q-15 -46 -32.5 -90t-38.5 -90zM419 1571v23q48 43 104.5 97.5t111 109t94.5 98.5h446q21 -45 51.5 -101t64.5 -110t64 -94v-23h-266q-22 20 -51.5 52.5
t-57.5 66t-47 55.5q-56 -44 -116 -89t-123 -85h-275z" />
    <glyph glyph-name="Atilde" unicode="&#xc3;" horiz-adv-x="1384" 
d="M-121 0l744 1462h503l123 -1462h-381l-10 274h-448l-125 -274h-406zM553 586h293l-15 420q-1 49 -2 97t0 91h-6q-15 -46 -32.5 -90t-38.5 -90zM489 1567q23 124 67 199t106.5 109t140.5 34q44 0 81 -15t71 -34t67 -34t67 -15q35 0 65.5 24.5t49.5 75.5h190
q-25 -126 -70 -201t-108 -108t-143 -33q-48 0 -88.5 15t-75.5 34t-68 34t-67 15q-31 0 -60.5 -27t-35.5 -73h-189z" />
    <glyph glyph-name="Adieresis" unicode="&#xc4;" horiz-adv-x="1384" 
d="M-121 0l744 1462h503l123 -1462h-381l-10 274h-448l-125 -274h-406zM553 586h293l-15 420q-1 49 -2 97t0 91h-6q-15 -46 -32.5 -90t-38.5 -90zM1159 1587q-73 0 -121.5 26t-48.5 101q0 99 53 143t148 44q62 0 115 -23.5t53 -101.5q0 -85 -43 -137t-156 -52zM672 1587
q-73 0 -121.5 26t-48.5 101q0 99 53 143t148 44q41 0 80 -9.5t64.5 -36.5t25.5 -79q0 -85 -44.5 -137t-156.5 -52z" />
    <glyph glyph-name="Aring" unicode="&#xc5;" horiz-adv-x="1384" 
d="M-121 0l744 1462h503l123 -1462h-381l-10 274h-448l-125 -274h-406zM553 586h293l-15 420q-1 49 -2 97t0 91h-6q-15 -46 -32.5 -90t-38.5 -90zM920 1567q-118 0 -193 67.5t-75 184.5q0 119 75 186.5t193 67.5q112 0 190 -67.5t78 -184.5q0 -118 -77 -186t-191 -68z
M920 1735q35 0 61.5 23.5t26.5 60.5q0 38 -26.5 62t-61.5 24t-61.5 -24t-26.5 -62q0 -37 23.5 -60.5t64.5 -23.5z" />
    <glyph glyph-name="AE" unicode="&#xc6;" horiz-adv-x="1937" 
d="M-125 0l909 1462h1213l-66 -317h-477l-47 -230h444l-71 -317h-445l-57 -276h477l-67 -322h-869l58 274h-418l-170 -274h-414zM662 602h286l113 543h-68z" />
    <glyph glyph-name="Ccedilla" unicode="&#xc7;" horiz-adv-x="1290" 
d="M645 -20q-183 0 -303 71.5t-179 199.5t-59 298q0 131 28 264t87 253.5t151 215t219 149t292 54.5q146 0 262 -34.5t219 -96.5l-148 -305q-93 55 -171 82.5t-162 27.5q-71 0 -130.5 -32t-106 -89t-79 -131.5t-49 -161t-16.5 -176.5q0 -133 56.5 -199.5t160.5 -66.5
q89 0 174 22t194 68v-323q-107 -48 -216.5 -69t-223.5 -21zM585 -492q-61 0 -108 8t-84 21v205q34 -10 83.5 -18.5t67.5 -8.5q22 0 37 5t23 15.5t8 28.5q0 28 -26.5 55t-118.5 46l75 135h205l-24 -41q78 -16 128 -61t50 -134q0 -80 -37 -137.5t-107.5 -88t-171.5 -30.5z" />
    <glyph glyph-name="Egrave" unicode="&#xc8;" horiz-adv-x="1151" 
d="M33 0l309 1462h868l-65 -317h-477l-47 -230h444l-72 -317h-444l-57 -276h477l-68 -322h-868zM758 1571q-45 42 -94.5 94.5t-92 107.5t-67.5 105v21h395q9 -44 21.5 -94.5t31 -103.5t41.5 -105v-25h-235z" />
    <glyph glyph-name="Eacute" unicode="&#xc9;" horiz-adv-x="1151" 
d="M33 0l309 1462h868l-65 -317h-477l-47 -230h444l-72 -317h-444l-57 -276h477l-68 -322h-868zM606 1571v23q48 39 98.5 91t98.5 108.5t86 105.5h438v-15q-22 -27 -74.5 -69.5t-118 -89t-130.5 -87.5t-113 -67h-285z" />
    <glyph glyph-name="Ecircumflex" unicode="&#xca;" horiz-adv-x="1151" 
d="M33 0l309 1462h868l-65 -317h-477l-47 -230h444l-72 -317h-444l-57 -276h477l-68 -322h-868zM323 1571v23q48 43 104.5 97.5t111 109t94.5 98.5h446q21 -45 51.5 -101t64.5 -110t64 -94v-23h-266q-22 20 -51.5 52.5t-57.5 66t-47 55.5q-56 -44 -116 -89t-123 -85h-275z
" />
    <glyph glyph-name="Edieresis" unicode="&#xcb;" horiz-adv-x="1151" 
d="M33 0l309 1462h868l-65 -317h-477l-47 -230h444l-72 -317h-444l-57 -276h477l-68 -322h-868zM1063 1587q-73 0 -121.5 26t-48.5 101q0 99 53 143t148 44q62 0 115 -23.5t53 -101.5q0 -85 -43 -137t-156 -52zM576 1587q-73 0 -121.5 26t-48.5 101q0 99 53 143t148 44
q41 0 80 -9.5t64.5 -36.5t25.5 -79q0 -85 -44.5 -137t-156.5 -52z" />
    <glyph glyph-name="Igrave" unicode="&#xcc;" horiz-adv-x="723" 
d="M33 0l309 1462h391l-309 -1462h-391zM524 1571q-45 42 -94.5 94.5t-92 107.5t-67.5 105v21h395q9 -44 21.5 -94.5t31 -103.5t41.5 -105v-25h-235z" />
    <glyph glyph-name="Iacute" unicode="&#xcd;" horiz-adv-x="723" 
d="M33 0l309 1462h391l-309 -1462h-391zM378 1571v23q48 39 98.5 91t98.5 108.5t86 105.5h438v-15q-22 -27 -74.5 -69.5t-118 -89t-130.5 -87.5t-113 -67h-285z" />
    <glyph glyph-name="Icircumflex" unicode="&#xce;" horiz-adv-x="723" 
d="M33 0l309 1462h391l-309 -1462h-391zM88 1571v23q48 43 104.5 97.5t111 109t94.5 98.5h446q21 -45 51.5 -101t64.5 -110t64 -94v-23h-266q-22 20 -51.5 52.5t-57.5 66t-47 55.5q-56 -44 -116 -89t-123 -85h-275z" />
    <glyph glyph-name="Idieresis" unicode="&#xcf;" horiz-adv-x="723" 
d="M33 0l309 1462h391l-309 -1462h-391zM827 1587q-73 0 -121.5 26t-48.5 101q0 99 53 143t148 44q62 0 115 -23.5t53 -101.5q0 -85 -43 -137t-156 -52zM340 1587q-73 0 -121.5 26t-48.5 101q0 99 53 143t148 44q41 0 80 -9.5t64.5 -36.5t25.5 -79q0 -85 -44.5 -137
t-156.5 -52z" />
    <glyph glyph-name="Eth" unicode="&#xd0;" horiz-adv-x="1401" 
d="M33 0l119 563h-142l70 320h139l123 579h430q271 0 418 -143.5t147 -409.5q0 -170 -34 -312t-101 -253t-165 -187.5t-226 -116.5t-285 -40h-493zM494 324h69q67 0 125.5 26.5t105 76t80 120t51 160t17.5 194.5q0 116 -54 179t-151 63h-71l-56 -260h178l-69 -320h-176z" />
    <glyph glyph-name="Ntilde" unicode="&#xd1;" horiz-adv-x="1618" 
d="M33 0l309 1462h455l286 -983h9q5 44 14.5 112t21 138t21.5 121l131 612h348l-309 -1462h-455l-289 1028h-8q-1 -20 -6 -68.5t-13 -110.5t-17.5 -125.5t-20.5 -113.5l-129 -610h-348zM616 1567q23 124 67 199t106.5 109t140.5 34q44 0 81 -15t71 -34t67 -34t67 -15
q35 0 65.5 24.5t49.5 75.5h190q-25 -126 -70 -201t-108 -108t-143 -33q-48 0 -88.5 15t-75.5 34t-68 34t-67 15q-31 0 -60.5 -27t-35.5 -73h-189z" />
    <glyph glyph-name="Ograve" unicode="&#xd2;" horiz-adv-x="1509" 
d="M666 -20q-187 0 -311.5 70t-187.5 196.5t-63 296.5q0 114 21 227t64 218.5t108 195.5t153 157.5t199.5 105.5t247.5 38q270 0 409.5 -154t139.5 -409q0 -114 -20.5 -227.5t-62 -219t-105.5 -195.5t-150.5 -157.5t-196.5 -105t-245 -37.5zM700 303q49 0 94 22t84.5 62.5
t71 97t54.5 125t35 146.5t12 162q0 113 -48 178t-139 65q-55 0 -103 -25t-88.5 -69t-72.5 -103t-54.5 -128t-34 -143t-11.5 -148q0 -79 22.5 -133t67 -81.5t110.5 -27.5zM903 1571q-45 42 -94.5 94.5t-92 107.5t-67.5 105v21h395q9 -44 21.5 -94.5t31 -103.5t41.5 -105v-25
h-235z" />
    <glyph glyph-name="Oacute" unicode="&#xd3;" horiz-adv-x="1509" 
d="M666 -20q-187 0 -311.5 70t-187.5 196.5t-63 296.5q0 114 21 227t64 218.5t108 195.5t153 157.5t199.5 105.5t247.5 38q270 0 409.5 -154t139.5 -409q0 -114 -20.5 -227.5t-62 -219t-105.5 -195.5t-150.5 -157.5t-196.5 -105t-245 -37.5zM700 303q49 0 94 22t84.5 62.5
t71 97t54.5 125t35 146.5t12 162q0 113 -48 178t-139 65q-55 0 -103 -25t-88.5 -69t-72.5 -103t-54.5 -128t-34 -143t-11.5 -148q0 -79 22.5 -133t67 -81.5t110.5 -27.5zM751 1571v23q48 39 98.5 91t98.5 108.5t86 105.5h438v-15q-22 -27 -74.5 -69.5t-118 -89t-130.5 -87.5
t-113 -67h-285z" />
    <glyph glyph-name="Ocircumflex" unicode="&#xd4;" horiz-adv-x="1509" 
d="M666 -20q-187 0 -311.5 70t-187.5 196.5t-63 296.5q0 114 21 227t64 218.5t108 195.5t153 157.5t199.5 105.5t247.5 38q270 0 409.5 -154t139.5 -409q0 -114 -20.5 -227.5t-62 -219t-105.5 -195.5t-150.5 -157.5t-196.5 -105t-245 -37.5zM700 303q49 0 94 22t84.5 62.5
t71 97t54.5 125t35 146.5t12 162q0 113 -48 178t-139 65q-55 0 -103 -25t-88.5 -69t-72.5 -103t-54.5 -128t-34 -143t-11.5 -148q0 -79 22.5 -133t67 -81.5t110.5 -27.5zM469 1571v23q48 43 104.5 97.5t111 109t94.5 98.5h446q21 -45 51.5 -101t64.5 -110t64 -94v-23h-266
q-22 20 -51.5 52.5t-57.5 66t-47 55.5q-56 -44 -116 -89t-123 -85h-275z" />
    <glyph glyph-name="Otilde" unicode="&#xd5;" horiz-adv-x="1509" 
d="M666 -20q-187 0 -311.5 70t-187.5 196.5t-63 296.5q0 114 21 227t64 218.5t108 195.5t153 157.5t199.5 105.5t247.5 38q270 0 409.5 -154t139.5 -409q0 -114 -20.5 -227.5t-62 -219t-105.5 -195.5t-150.5 -157.5t-196.5 -105t-245 -37.5zM700 303q49 0 94 22t84.5 62.5
t71 97t54.5 125t35 146.5t12 162q0 113 -48 178t-139 65q-55 0 -103 -25t-88.5 -69t-72.5 -103t-54.5 -128t-34 -143t-11.5 -148q0 -79 22.5 -133t67 -81.5t110.5 -27.5zM538 1567q23 124 67 199t106.5 109t140.5 34q44 0 81 -15t71 -34t67 -34t67 -15q35 0 65.5 24.5
t49.5 75.5h190q-25 -126 -70 -201t-108 -108t-143 -33q-48 0 -88.5 15t-75.5 34t-68 34t-67 15q-31 0 -60.5 -27t-35.5 -73h-189z" />
    <glyph glyph-name="Odieresis" unicode="&#xd6;" horiz-adv-x="1509" 
d="M666 -20q-187 0 -311.5 70t-187.5 196.5t-63 296.5q0 114 21 227t64 218.5t108 195.5t153 157.5t199.5 105.5t247.5 38q270 0 409.5 -154t139.5 -409q0 -114 -20.5 -227.5t-62 -219t-105.5 -195.5t-150.5 -157.5t-196.5 -105t-245 -37.5zM700 303q49 0 94 22t84.5 62.5
t71 97t54.5 125t35 146.5t12 162q0 113 -48 178t-139 65q-55 0 -103 -25t-88.5 -69t-72.5 -103t-54.5 -128t-34 -143t-11.5 -148q0 -79 22.5 -133t67 -81.5t110.5 -27.5zM1208 1587q-73 0 -121.5 26t-48.5 101q0 99 53 143t148 44q62 0 115 -23.5t53 -101.5q0 -85 -43 -137
t-156 -52zM721 1587q-73 0 -121.5 26t-48.5 101q0 99 53 143t148 44q41 0 80 -9.5t64.5 -36.5t25.5 -79q0 -85 -44.5 -137t-156.5 -52z" />
    <glyph glyph-name="multiply" unicode="&#xd7;" horiz-adv-x="1200" 
d="M868 1180l189 -183l-275 -274l271 -272l-185 -185l-274 271l-270 -269l-181 187l265 268l-267 268l183 189l270 -267z" />
    <glyph glyph-name="Oslash" unicode="&#xd8;" horiz-adv-x="1509" 
d="M254 -86l-160 117l117 145q-54 71 -80.5 163.5t-26.5 203.5q0 114 21 227t63.5 218.5t106.5 195.5t150 157.5t194.5 105.5t239.5 38q95 0 173.5 -19t141.5 -53l92 115l156 -119l-99 -125q51 -70 77 -162.5t26 -199.5q0 -114 -21 -227.5t-63 -218.5t-105 -195t-148 -157.5
t-191 -105t-234 -38.5q-98 0 -178.5 17.5t-145.5 51.5zM700 303q51 0 96.5 20t84.5 57.5t70 89t53 114.5t33.5 135.5t11.5 150.5v24v21l-463 -583q23 -14 51 -21.5t63 -7.5zM502 539l465 589q-22 16 -51 24.5t-64 8.5q-51 0 -96.5 -21t-84.5 -60t-70 -92t-53.5 -117
t-34 -135.5t-11.5 -147.5v-24v-25z" />
    <glyph glyph-name="Ugrave" unicode="&#xd9;" horiz-adv-x="1436" 
d="M610 -20q-152 0 -261 54.5t-166.5 150.5t-57.5 218q0 31 3 67.5t9 68.5l199 923h391l-195 -913q-6 -29 -10 -59t-4 -56q0 -60 33 -93.5t96 -33.5q59 0 100.5 26t71 83.5t49.5 152.5l191 893h391l-199 -932q-37 -178 -113 -300.5t-204 -186t-324 -63.5zM856 1571
q-45 42 -94.5 94.5t-92 107.5t-67.5 105v21h395q9 -44 21.5 -94.5t31 -103.5t41.5 -105v-25h-235z" />
    <glyph glyph-name="Uacute" unicode="&#xda;" horiz-adv-x="1436" 
d="M610 -20q-152 0 -261 54.5t-166.5 150.5t-57.5 218q0 31 3 67.5t9 68.5l199 923h391l-195 -913q-6 -29 -10 -59t-4 -56q0 -60 33 -93.5t96 -33.5q59 0 100.5 26t71 83.5t49.5 152.5l191 893h391l-199 -932q-37 -178 -113 -300.5t-204 -186t-324 -63.5zM704 1571v23
q48 39 98.5 91t98.5 108.5t86 105.5h438v-15q-22 -27 -74.5 -69.5t-118 -89t-130.5 -87.5t-113 -67h-285z" />
    <glyph glyph-name="Ucircumflex" unicode="&#xdb;" horiz-adv-x="1436" 
d="M610 -20q-152 0 -261 54.5t-166.5 150.5t-57.5 218q0 31 3 67.5t9 68.5l199 923h391l-195 -913q-6 -29 -10 -59t-4 -56q0 -60 33 -93.5t96 -33.5q59 0 100.5 26t71 83.5t49.5 152.5l191 893h391l-199 -932q-37 -178 -113 -300.5t-204 -186t-324 -63.5zM422 1571v23
q48 43 104.5 97.5t111 109t94.5 98.5h446q21 -45 51.5 -101t64.5 -110t64 -94v-23h-266q-22 20 -51.5 52.5t-57.5 66t-47 55.5q-56 -44 -116 -89t-123 -85h-275z" />
    <glyph glyph-name="Udieresis" unicode="&#xdc;" horiz-adv-x="1436" 
d="M610 -20q-152 0 -261 54.5t-166.5 150.5t-57.5 218q0 31 3 67.5t9 68.5l199 923h391l-195 -913q-6 -29 -10 -59t-4 -56q0 -60 33 -93.5t96 -33.5q59 0 100.5 26t71 83.5t49.5 152.5l191 893h391l-199 -932q-37 -178 -113 -300.5t-204 -186t-324 -63.5zM1161 1587
q-73 0 -121.5 26t-48.5 101q0 99 53 143t148 44q62 0 115 -23.5t53 -101.5q0 -85 -43 -137t-156 -52zM674 1587q-73 0 -121.5 26t-48.5 101q0 99 53 143t148 44q41 0 80 -9.5t64.5 -36.5t25.5 -79q0 -85 -44.5 -137t-156.5 -52z" />
    <glyph glyph-name="Yacute" unicode="&#xdd;" horiz-adv-x="1237" 
d="M281 0l120 567l-237 895h403l90 -542l312 542h436l-612 -895l-121 -567h-391zM579 1571v23q48 39 98.5 91t98.5 108.5t86 105.5h438v-15q-22 -27 -74.5 -69.5t-118 -89t-130.5 -87.5t-113 -67h-285z" />
    <glyph glyph-name="Thorn" unicode="&#xde;" horiz-adv-x="1276" 
d="M33 0l309 1462h391l-43 -213h25q180 0 288.5 -59t156.5 -158.5t48 -220.5q0 -131 -46.5 -231.5t-132 -168.5t-203 -102.5t-259.5 -34.5h-86l-57 -274h-391zM551 594h63q63 0 108.5 21.5t70 67t24.5 116.5q0 53 -38.5 93t-110.5 40h-45z" />
    <glyph glyph-name="germandbls" unicode="&#xdf;" horiz-adv-x="1460" 
d="M-53 -492q-54 0 -113 8.5t-94 18.5v303q28 -7 58.5 -12.5t58.5 -5.5q74 0 112 30.5t51 94.5l244 1151q32 151 102 256t195 160t322 55q261 0 388.5 -106t127.5 -267q0 -83 -24 -144.5t-71 -106.5t-118 -79q-83 -40 -100 -65t-17 -37q0 -35 24.5 -55.5t64 -40.5t83.5 -52
q59 -41 90 -99.5t31 -141.5q0 -97 -48.5 -187.5t-158 -148t-293.5 -57.5q-95 0 -159.5 12.5t-114.5 32.5v299q53 -26 131 -44t139 -18q59 0 87 22t28 50q0 22 -8.5 38.5t-37 38.5t-87.5 60q-103 66 -134.5 124t-31.5 118q0 71 22.5 117.5t68.5 83t116 75.5q47 27 75.5 51.5
t41 50t12.5 54.5q0 41 -31.5 80t-126.5 39q-52 0 -94 -22.5t-70.5 -66t-42.5 -108.5l-252 -1184q-23 -108 -75.5 -193t-142.5 -133.5t-228 -48.5z" />
    <glyph glyph-name="agrave" unicode="&#xe0;" 
d="M406 -20q-87 0 -160.5 41t-117.5 135.5t-44 255.5q0 83 19.5 182t59 197.5t99.5 180.5t141.5 131.5t184.5 49.5q65 0 113.5 -20t85 -55.5t63.5 -84.5h8l53 140h310l-240 -1133h-309l10 123h-8q-30 -42 -67 -74t-85.5 -50.5t-115.5 -18.5zM565 291q44 0 81 40.5
t63.5 104.5t38.5 137q6 31 9 62.5t3 62.5q0 65 -20.5 104.5t-61.5 39.5q-32 0 -61.5 -23.5t-54.5 -64t-43.5 -93t-29 -110.5t-10.5 -117q0 -69 21.5 -106t64.5 -37zM711 1241q-45 42 -94.5 94.5t-92 107.5t-67.5 105v21h395q9 -44 21.5 -94.5t31 -103.5t41.5 -105v-25h-235z
" />
    <glyph glyph-name="aacute" unicode="&#xe1;" 
d="M406 -20q-87 0 -160.5 41t-117.5 135.5t-44 255.5q0 83 19.5 182t59 197.5t99.5 180.5t141.5 131.5t184.5 49.5q65 0 113.5 -20t85 -55.5t63.5 -84.5h8l53 140h310l-240 -1133h-309l10 123h-8q-30 -42 -67 -74t-85.5 -50.5t-115.5 -18.5zM565 291q44 0 81 40.5
t63.5 104.5t38.5 137q6 31 9 62.5t3 62.5q0 65 -20.5 104.5t-61.5 39.5q-32 0 -61.5 -23.5t-54.5 -64t-43.5 -93t-29 -110.5t-10.5 -117q0 -69 21.5 -106t64.5 -37zM559 1241v23q48 39 98.5 91t98.5 108.5t86 105.5h438v-15q-22 -27 -74.5 -69.5t-118 -89t-130.5 -87.5
t-113 -67h-285z" />
    <glyph glyph-name="acircumflex" unicode="&#xe2;" 
d="M406 -20q-87 0 -160.5 41t-117.5 135.5t-44 255.5q0 83 19.5 182t59 197.5t99.5 180.5t141.5 131.5t184.5 49.5q65 0 113.5 -20t85 -55.5t63.5 -84.5h8l53 140h310l-240 -1133h-309l10 123h-8q-30 -42 -67 -74t-85.5 -50.5t-115.5 -18.5zM565 291q44 0 81 40.5
t63.5 104.5t38.5 137q6 31 9 62.5t3 62.5q0 65 -20.5 104.5t-61.5 39.5q-32 0 -61.5 -23.5t-54.5 -64t-43.5 -93t-29 -110.5t-10.5 -117q0 -69 21.5 -106t64.5 -37zM276 1241v23q48 43 104.5 97.5t111 109t94.5 98.5h446q21 -45 51.5 -101t64.5 -110t64 -94v-23h-266
q-22 20 -51.5 52.5t-57.5 66t-47 55.5q-56 -44 -116 -89t-123 -85h-275z" />
    <glyph glyph-name="atilde" unicode="&#xe3;" 
d="M406 -20q-87 0 -160.5 41t-117.5 135.5t-44 255.5q0 83 19.5 182t59 197.5t99.5 180.5t141.5 131.5t184.5 49.5q65 0 113.5 -20t85 -55.5t63.5 -84.5h8l53 140h310l-240 -1133h-309l10 123h-8q-30 -42 -67 -74t-85.5 -50.5t-115.5 -18.5zM565 291q44 0 81 40.5
t63.5 104.5t38.5 137q6 31 9 62.5t3 62.5q0 65 -20.5 104.5t-61.5 39.5q-32 0 -61.5 -23.5t-54.5 -64t-43.5 -93t-29 -110.5t-10.5 -117q0 -69 21.5 -106t64.5 -37zM346 1237q23 124 67 199t106.5 109t140.5 34q44 0 81 -15t71 -34t67 -34t67 -15q35 0 65.5 24.5t49.5 75.5
h190q-25 -126 -70 -201t-108 -108t-143 -33q-48 0 -88.5 15t-75.5 34t-68 34t-67 15q-31 0 -60.5 -27t-35.5 -73h-189z" />
    <glyph glyph-name="adieresis" unicode="&#xe4;" 
d="M406 -20q-87 0 -160.5 41t-117.5 135.5t-44 255.5q0 83 19.5 182t59 197.5t99.5 180.5t141.5 131.5t184.5 49.5q65 0 113.5 -20t85 -55.5t63.5 -84.5h8l53 140h310l-240 -1133h-309l10 123h-8q-30 -42 -67 -74t-85.5 -50.5t-115.5 -18.5zM565 291q44 0 81 40.5
t63.5 104.5t38.5 137q6 31 9 62.5t3 62.5q0 65 -20.5 104.5t-61.5 39.5q-32 0 -61.5 -23.5t-54.5 -64t-43.5 -93t-29 -110.5t-10.5 -117q0 -69 21.5 -106t64.5 -37zM1016 1257q-73 0 -121.5 26t-48.5 101q0 99 53 143t148 44q62 0 115 -23.5t53 -101.5q0 -85 -43 -137
t-156 -52zM529 1257q-73 0 -121.5 26t-48.5 101q0 99 53 143t148 44q41 0 80 -9.5t64.5 -36.5t25.5 -79q0 -85 -44.5 -137t-156.5 -52z" />
    <glyph glyph-name="aring" unicode="&#xe5;" 
d="M406 -20q-87 0 -160.5 41t-117.5 135.5t-44 255.5q0 83 19.5 182t59 197.5t99.5 180.5t141.5 131.5t184.5 49.5q65 0 113.5 -20t85 -55.5t63.5 -84.5h8l53 140h310l-240 -1133h-309l10 123h-8q-30 -42 -67 -74t-85.5 -50.5t-115.5 -18.5zM565 291q44 0 81 40.5
t63.5 104.5t38.5 137q6 31 9 62.5t3 62.5q0 65 -20.5 104.5t-61.5 39.5q-32 0 -61.5 -23.5t-54.5 -64t-43.5 -93t-29 -110.5t-10.5 -117q0 -69 21.5 -106t64.5 -37zM776 1237q-118 0 -193 67.5t-75 184.5q0 119 75 186.5t193 67.5q112 0 190 -67.5t78 -184.5
q0 -118 -77 -186t-191 -68zM776 1405q35 0 61.5 23.5t26.5 60.5q0 38 -26.5 62t-61.5 24t-61.5 -24t-26.5 -62q0 -37 23.5 -60.5t64.5 -23.5z" />
    <glyph glyph-name="ae" unicode="&#xe6;" horiz-adv-x="1788" 
d="M406 -20q-87 0 -160.5 41t-117.5 135.5t-44 255.5q0 83 19.5 182t59 197.5t99.5 180.5t141.5 131.5t184.5 49.5q65 0 112 -18t83 -53.5t67 -88.5h8l53 140h207v-95q48 47 121 81t158 34q157 0 251.5 -86t94.5 -229q0 -94 -36 -170.5t-110 -131.5t-189 -84.5t-273 -29.5
h-60v-7.5v-8.5q0 -76 41 -112t123 -36q86 0 163 26t165 72v-274q-79 -46 -162.5 -74t-212.5 -28q-91 0 -156 28.5t-106 83.5l-31 -92h-227l10 123h-8q-30 -42 -67 -74t-85.5 -50.5t-115.5 -18.5zM565 291q33 0 62 23.5t53 63.5t41.5 90.5t26.5 104.5q6 31 8 62.5t2 62.5
q0 65 -23.5 104.5t-64.5 39.5q-32 0 -61 -23.5t-52.5 -64t-41 -93t-27 -110.5t-9.5 -117q0 -69 21.5 -106t64.5 -37zM1114 664h29q87 0 138 23t73 58t22 70q0 32 -20 54t-64 22q-45 0 -83 -35t-63 -87.5t-32 -104.5z" />
    <glyph glyph-name="ccedilla" unicode="&#xe7;" horiz-adv-x="1032" 
d="M506 -20q-115 0 -211 47t-153.5 149t-57.5 266q0 120 27.5 227t79.5 196t126.5 153.5t168.5 99.5t204 35q106 0 193.5 -20t173.5 -60l-123 -287q-51 23 -110.5 41.5t-114.5 18.5q-60 0 -104.5 -37.5t-73.5 -96.5t-43.5 -124.5t-14.5 -120.5q0 -66 15 -104.5t43 -55
t67 -16.5q72 0 139.5 23t143.5 63v-307q-80 -43 -168 -66.5t-207 -23.5zM385 -492q-61 0 -108 8t-84 21v205q34 -10 83.5 -18.5t67.5 -8.5q22 0 37 5t23 15.5t8 28.5q0 28 -26.5 55t-118.5 46l75 135h205l-24 -41q78 -16 128 -61t50 -134q0 -80 -37 -137.5t-107.5 -88
t-171.5 -30.5z" />
    <glyph glyph-name="egrave" unicode="&#xe8;" horiz-adv-x="1186" 
d="M532 -20q-143 0 -243 54t-152.5 154.5t-52.5 239.5t39.5 269t120 233t202.5 163t287 60q191 0 299.5 -86t108.5 -229q0 -94 -36 -170.5t-110.5 -131.5t-189.5 -84.5t-273 -29.5h-59v-7.5v-8.5q0 -76 41 -112t123 -36q86 0 163 26t165 72v-274q-91 -46 -188 -74t-245 -28z
M512 664h29q87 0 138 23t73 58t22 70q0 32 -20 54t-64 22q-45 0 -83 -35t-63 -87.5t-32 -104.5zM692 1241q-45 42 -94.5 94.5t-92 107.5t-67.5 105v21h395q9 -44 21.5 -94.5t31 -103.5t41.5 -105v-25h-235z" />
    <glyph glyph-name="eacute" unicode="&#xe9;" horiz-adv-x="1186" 
d="M532 -20q-143 0 -243 54t-152.5 154.5t-52.5 239.5t39.5 269t120 233t202.5 163t287 60q191 0 299.5 -86t108.5 -229q0 -94 -36 -170.5t-110.5 -131.5t-189.5 -84.5t-273 -29.5h-59v-7.5v-8.5q0 -76 41 -112t123 -36q86 0 163 26t165 72v-274q-91 -46 -188 -74t-245 -28z
M512 664h29q87 0 138 23t73 58t22 70q0 32 -20 54t-64 22q-45 0 -83 -35t-63 -87.5t-32 -104.5zM540 1241v23q48 39 98.5 91t98.5 108.5t86 105.5h438v-15q-22 -27 -74.5 -69.5t-118 -89t-130.5 -87.5t-113 -67h-285z" />
    <glyph glyph-name="ecircumflex" unicode="&#xea;" horiz-adv-x="1186" 
d="M532 -20q-143 0 -243 54t-152.5 154.5t-52.5 239.5t39.5 269t120 233t202.5 163t287 60q191 0 299.5 -86t108.5 -229q0 -94 -36 -170.5t-110.5 -131.5t-189.5 -84.5t-273 -29.5h-59v-7.5v-8.5q0 -76 41 -112t123 -36q86 0 163 26t165 72v-274q-91 -46 -188 -74t-245 -28z
M512 664h29q87 0 138 23t73 58t22 70q0 32 -20 54t-64 22q-45 0 -83 -35t-63 -87.5t-32 -104.5zM258 1241v23q48 43 104.5 97.5t111 109t94.5 98.5h446q21 -45 51.5 -101t64.5 -110t64 -94v-23h-266q-22 20 -51.5 52.5t-57.5 66t-47 55.5q-56 -44 -116 -89t-123 -85h-275z
" />
    <glyph glyph-name="edieresis" unicode="&#xeb;" horiz-adv-x="1186" 
d="M532 -20q-143 0 -243 54t-152.5 154.5t-52.5 239.5t39.5 269t120 233t202.5 163t287 60q191 0 299.5 -86t108.5 -229q0 -94 -36 -170.5t-110.5 -131.5t-189.5 -84.5t-273 -29.5h-59v-7.5v-8.5q0 -76 41 -112t123 -36q86 0 163 26t165 72v-274q-91 -46 -188 -74t-245 -28z
M512 664h29q87 0 138 23t73 58t22 70q0 32 -20 54t-64 22q-45 0 -83 -35t-63 -87.5t-32 -104.5zM997 1257q-73 0 -121.5 26t-48.5 101q0 99 53 143t148 44q62 0 115 -23.5t53 -101.5q0 -85 -43 -137t-156 -52zM510 1257q-73 0 -121.5 26t-48.5 101q0 99 53 143t148 44
q41 0 80 -9.5t64.5 -36.5t25.5 -79q0 -85 -44.5 -137t-156.5 -52z" />
    <glyph glyph-name="igrave" unicode="&#xec;" horiz-adv-x="666" 
d="M23 0l239 1133h389l-241 -1133h-387zM426 1241q-45 42 -94.5 94.5t-92 107.5t-67.5 105v21h395q9 -44 21.5 -94.5t31 -103.5t41.5 -105v-25h-235z" />
    <glyph glyph-name="iacute" unicode="&#xed;" horiz-adv-x="666" 
d="M23 0l239 1133h389l-241 -1133h-387zM274 1241v23q48 39 98.5 91t98.5 108.5t86 105.5h438v-15q-22 -27 -74.5 -69.5t-118 -89t-130.5 -87.5t-113 -67h-285z" />
    <glyph glyph-name="icircumflex" unicode="&#xee;" horiz-adv-x="666" 
d="M23 0l239 1133h389l-241 -1133h-387zM-9 1241v23q48 43 104.5 97.5t111 109t94.5 98.5h446q21 -45 51.5 -101t64.5 -110t64 -94v-23h-266q-22 20 -51.5 52.5t-57.5 66t-47 55.5q-56 -44 -116 -89t-123 -85h-275z" />
    <glyph glyph-name="idieresis" unicode="&#xef;" horiz-adv-x="666" 
d="M23 0l239 1133h389l-241 -1133h-387zM731 1257q-73 0 -121.5 26t-48.5 101q0 99 53 143t148 44q62 0 115 -23.5t53 -101.5q0 -85 -43 -137t-156 -52zM244 1257q-73 0 -121.5 26t-48.5 101q0 99 53 143t148 44q41 0 80 -9.5t64.5 -36.5t25.5 -79q0 -85 -44.5 -137
t-156.5 -52z" />
    <glyph glyph-name="eth" unicode="&#xf0;" horiz-adv-x="1155" 
d="M520 -20q-133 0 -231 53.5t-151.5 153.5t-53.5 239q0 122 33.5 229t98.5 187.5t159.5 126t216.5 45.5q77 0 125.5 -26.5t77.5 -61.5l10 4q-7 60 -30 126t-60 120l-273 -127l-82 168l220 102q-23 20 -47.5 38.5t-47.5 35.5l115 180q63 -28 121 -62t110 -75l238 110
l82 -166l-184 -90q49 -61 84 -155.5t54 -203t19 -214.5q0 -124 -20.5 -235t-64 -203t-114.5 -159t-171 -103.5t-234 -36.5zM555 260q38 0 67.5 21t51 56t35 76.5t20 82.5t6.5 75q0 38 -4.5 68t-14.5 51t-26 32t-39 11q-49 0 -83.5 -34t-55.5 -86t-31 -107t-10 -98
q0 -74 21.5 -111t62.5 -37z" />
    <glyph glyph-name="ntilde" unicode="&#xf1;" horiz-adv-x="1274" 
d="M23 0l239 1133h309l-12 -158h8q37 64 82 103t101.5 57t128.5 18q106 0 171.5 -44t96.5 -117t31 -161q0 -56 -7 -115.5t-18 -113.5l-127 -602h-387l129 618q6 26 12 66.5t6 75.5q0 43 -22 64.5t-53 21.5q-38 0 -72.5 -31.5t-63 -96t-49.5 -165.5l-116 -553h-387zM377 1237
q23 124 67 199t106.5 109t140.5 34q44 0 81 -15t71 -34t67 -34t67 -15q35 0 65.5 24.5t49.5 75.5h190q-25 -126 -70 -201t-108 -108t-143 -33q-48 0 -88.5 15t-75.5 34t-68 34t-67 15q-31 0 -60.5 -27t-35.5 -73h-189z" />
    <glyph glyph-name="ograve" unicode="&#xf2;" 
d="M520 -20q-139 0 -236.5 51t-148.5 148.5t-51 236.5q0 116 26 224.5t78 201.5t129 163t178.5 109t227.5 39q139 0 236.5 -51t148.5 -148.5t51 -236.5q0 -116 -26 -224.5t-78 -201.5t-129 -163t-178.5 -109t-227.5 -39zM563 270q34 0 64.5 26t55.5 71.5t43 104t28 124.5
t10 133q0 44 -10.5 73.5t-29.5 44.5t-46 15q-34 0 -64.5 -26t-55 -71t-42.5 -103.5t-27.5 -125t-9.5 -133.5q0 -66 22 -99.5t62 -33.5zM705 1241q-45 42 -94.5 94.5t-92 107.5t-67.5 105v21h395q9 -44 21.5 -94.5t31 -103.5t41.5 -105v-25h-235z" />
    <glyph glyph-name="oacute" unicode="&#xf3;" 
d="M520 -20q-139 0 -236.5 51t-148.5 148.5t-51 236.5q0 116 26 224.5t78 201.5t129 163t178.5 109t227.5 39q139 0 236.5 -51t148.5 -148.5t51 -236.5q0 -116 -26 -224.5t-78 -201.5t-129 -163t-178.5 -109t-227.5 -39zM563 270q34 0 64.5 26t55.5 71.5t43 104t28 124.5
t10 133q0 44 -10.5 73.5t-29.5 44.5t-46 15q-34 0 -64.5 -26t-55 -71t-42.5 -103.5t-27.5 -125t-9.5 -133.5q0 -66 22 -99.5t62 -33.5zM553 1241v23q48 39 98.5 91t98.5 108.5t86 105.5h438v-15q-22 -27 -74.5 -69.5t-118 -89t-130.5 -87.5t-113 -67h-285z" />
    <glyph glyph-name="ocircumflex" unicode="&#xf4;" 
d="M520 -20q-139 0 -236.5 51t-148.5 148.5t-51 236.5q0 116 26 224.5t78 201.5t129 163t178.5 109t227.5 39q139 0 236.5 -51t148.5 -148.5t51 -236.5q0 -116 -26 -224.5t-78 -201.5t-129 -163t-178.5 -109t-227.5 -39zM563 270q34 0 64.5 26t55.5 71.5t43 104t28 124.5
t10 133q0 44 -10.5 73.5t-29.5 44.5t-46 15q-34 0 -64.5 -26t-55 -71t-42.5 -103.5t-27.5 -125t-9.5 -133.5q0 -66 22 -99.5t62 -33.5zM270 1241v23q48 43 104.5 97.5t111 109t94.5 98.5h446q21 -45 51.5 -101t64.5 -110t64 -94v-23h-266q-22 20 -51.5 52.5t-57.5 66
t-47 55.5q-56 -44 -116 -89t-123 -85h-275z" />
    <glyph glyph-name="otilde" unicode="&#xf5;" 
d="M520 -20q-139 0 -236.5 51t-148.5 148.5t-51 236.5q0 116 26 224.5t78 201.5t129 163t178.5 109t227.5 39q139 0 236.5 -51t148.5 -148.5t51 -236.5q0 -116 -26 -224.5t-78 -201.5t-129 -163t-178.5 -109t-227.5 -39zM563 270q34 0 64.5 26t55.5 71.5t43 104t28 124.5
t10 133q0 44 -10.5 73.5t-29.5 44.5t-46 15q-34 0 -64.5 -26t-55 -71t-42.5 -103.5t-27.5 -125t-9.5 -133.5q0 -66 22 -99.5t62 -33.5zM340 1237q23 124 67 199t106.5 109t140.5 34q44 0 81 -15t71 -34t67 -34t67 -15q35 0 65.5 24.5t49.5 75.5h190q-25 -126 -70 -201
t-108 -108t-143 -33q-48 0 -88.5 15t-75.5 34t-68 34t-67 15q-31 0 -60.5 -27t-35.5 -73h-189z" />
    <glyph glyph-name="odieresis" unicode="&#xf6;" 
d="M520 -20q-139 0 -236.5 51t-148.5 148.5t-51 236.5q0 116 26 224.5t78 201.5t129 163t178.5 109t227.5 39q139 0 236.5 -51t148.5 -148.5t51 -236.5q0 -116 -26 -224.5t-78 -201.5t-129 -163t-178.5 -109t-227.5 -39zM563 270q34 0 64.5 26t55.5 71.5t43 104t28 124.5
t10 133q0 44 -10.5 73.5t-29.5 44.5t-46 15q-34 0 -64.5 -26t-55 -71t-42.5 -103.5t-27.5 -125t-9.5 -133.5q0 -66 22 -99.5t62 -33.5zM1009 1257q-73 0 -121.5 26t-48.5 101q0 99 53 143t148 44q62 0 115 -23.5t53 -101.5q0 -85 -43 -137t-156 -52zM522 1257
q-73 0 -121.5 26t-48.5 101q0 99 53 143t148 44q41 0 80 -9.5t64.5 -36.5t25.5 -79q0 -85 -44.5 -137t-156.5 -52z" />
    <glyph glyph-name="divide" unicode="&#xf7;" horiz-adv-x="1200" 
d="M92 588v268h1014v-268h-1014zM598 162q-63 0 -109.5 40.5t-46.5 129.5q0 95 46.5 132.5t109.5 37.5q62 0 110 -37.5t48 -132.5q0 -89 -48 -129.5t-110 -40.5zM598 942q-63 0 -109.5 40.5t-46.5 129.5q0 95 46.5 132.5t109.5 37.5q62 0 110 -37.5t48 -132.5
q0 -89 -48 -129.5t-110 -40.5z" />
    <glyph glyph-name="oslash" unicode="&#xf8;" horiz-adv-x="1286" 
d="M193 -111l-127 109l112 131q-44 56 -69 126t-25 161q0 116 27 224.5t80.5 201.5t133 163t184 109t234.5 39q76 0 137 -15.5t113 -41.5l105 121l127 -109l-105 -123q38 -52 60 -118.5t22 -149.5q0 -116 -27 -224.5t-80 -201.5t-132 -163t-182.5 -109t-231.5 -39
q-70 0 -129 13.5t-109 35.5zM590 260q35 0 68 12.5t62 38.5t52 67t39 97.5t23 130.5q0 11 1 22t1 21l-318 -375q16 -7 33 -10.5t39 -3.5zM449 451l335 397q-16 14 -36.5 21.5t-45.5 7.5q-36 0 -70.5 -17t-65 -49.5t-55 -79.5t-40 -108t-20.5 -134q-1 -9 -1.5 -18t-0.5 -20z
" />
    <glyph glyph-name="ugrave" unicode="&#xf9;" horiz-adv-x="1274" 
d="M395 -20q-105 0 -171 44t-97 117t-31 160q0 57 7 116.5t18 112.5l127 603h387l-129 -617q-6 -26 -12.5 -66t-6.5 -75q0 -43 22.5 -64.5t53.5 -21.5q34 0 68.5 31t65 96t51.5 166l116 551h387l-239 -1133h-310l13 158h-8q-37 -63 -82 -102.5t-101.5 -57.5t-128.5 -18z
M715 1241q-45 42 -94.5 94.5t-92 107.5t-67.5 105v21h395q9 -44 21.5 -94.5t31 -103.5t41.5 -105v-25h-235z" />
    <glyph glyph-name="uacute" unicode="&#xfa;" horiz-adv-x="1274" 
d="M395 -20q-105 0 -171 44t-97 117t-31 160q0 57 7 116.5t18 112.5l127 603h387l-129 -617q-6 -26 -12.5 -66t-6.5 -75q0 -43 22.5 -64.5t53.5 -21.5q34 0 68.5 31t65 96t51.5 166l116 551h387l-239 -1133h-310l13 158h-8q-37 -63 -82 -102.5t-101.5 -57.5t-128.5 -18z
M563 1241v23q48 39 98.5 91t98.5 108.5t86 105.5h438v-15q-22 -27 -74.5 -69.5t-118 -89t-130.5 -87.5t-113 -67h-285z" />
    <glyph glyph-name="ucircumflex" unicode="&#xfb;" horiz-adv-x="1274" 
d="M395 -20q-105 0 -171 44t-97 117t-31 160q0 57 7 116.5t18 112.5l127 603h387l-129 -617q-6 -26 -12.5 -66t-6.5 -75q0 -43 22.5 -64.5t53.5 -21.5q34 0 68.5 31t65 96t51.5 166l116 551h387l-239 -1133h-310l13 158h-8q-37 -63 -82 -102.5t-101.5 -57.5t-128.5 -18z
M280 1241v23q48 43 104.5 97.5t111 109t94.5 98.5h446q21 -45 51.5 -101t64.5 -110t64 -94v-23h-266q-22 20 -51.5 52.5t-57.5 66t-47 55.5q-56 -44 -116 -89t-123 -85h-275z" />
    <glyph glyph-name="udieresis" unicode="&#xfc;" horiz-adv-x="1274" 
d="M395 -20q-105 0 -171 44t-97 117t-31 160q0 57 7 116.5t18 112.5l127 603h387l-129 -617q-6 -26 -12.5 -66t-6.5 -75q0 -43 22.5 -64.5t53.5 -21.5q34 0 68.5 31t65 96t51.5 166l116 551h387l-239 -1133h-310l13 158h-8q-37 -63 -82 -102.5t-101.5 -57.5t-128.5 -18z
M1020 1257q-73 0 -121.5 26t-48.5 101q0 99 53 143t148 44q62 0 115 -23.5t53 -101.5q0 -85 -43 -137t-156 -52zM533 1257q-73 0 -121.5 26t-48.5 101q0 99 53 143t148 44q41 0 80 -9.5t64.5 -36.5t25.5 -79q0 -85 -44.5 -137t-156.5 -52z" />
    <glyph glyph-name="yacute" unicode="&#xfd;" horiz-adv-x="1114" 
d="M25 -492q-58 0 -95 5.5t-59 11.5v307q19 -4 47 -8t62 -4q89 0 143.5 37.5t97.5 113.5l23 41l-162 1121h389l39 -521q3 -34 3.5 -66.5t0 -63t-1.5 -60.5h8q10 31 22 66.5t25 69.5t23 58l223 517h416l-670 -1276q-61 -118 -136 -195.5t-172 -115.5t-226 -38zM462 1241v23
q48 39 98.5 91t98.5 108.5t86 105.5h438v-15q-22 -27 -74.5 -69.5t-118 -89t-130.5 -87.5t-113 -67h-285z" />
    <glyph glyph-name="thorn" unicode="&#xfe;" 
d="M-82 -492l434 2048h387l-49 -231q-18 -94 -44.5 -176t-45.5 -125h8q29 39 61.5 68t73.5 45t93 16q147 0 235 -109t88 -309q0 -112 -23 -221.5t-66 -206t-105.5 -170t-141 -115.5t-172.5 -42q-51 0 -93.5 18t-76.5 50.5t-61 76.5h-8q-7 -80 -17.5 -159.5t-38.5 -211.5
l-51 -246h-387zM573 291q32 0 61 23.5t52.5 64t41 92.5t27 110.5t9.5 116.5q0 70 -21.5 107t-64.5 37q-44 0 -81 -40.5t-63 -105t-38 -137.5q-7 -31 -9 -62.5t-2 -62.5q0 -64 23.5 -103.5t64.5 -39.5z" />
    <glyph glyph-name="ydieresis" unicode="&#xff;" horiz-adv-x="1114" 
d="M25 -492q-58 0 -95 5.5t-59 11.5v307q19 -4 47 -8t62 -4q89 0 143.5 37.5t97.5 113.5l23 41l-162 1121h389l39 -521q3 -34 3.5 -66.5t0 -63t-1.5 -60.5h8q10 31 22 66.5t25 69.5t23 58l223 517h416l-670 -1276q-61 -118 -136 -195.5t-172 -115.5t-226 -38zM919 1257
q-73 0 -121.5 26t-48.5 101q0 99 53 143t148 44q62 0 115 -23.5t53 -101.5q0 -85 -43 -137t-156 -52zM432 1257q-73 0 -121.5 26t-48.5 101q0 99 53 143t148 44q41 0 80 -9.5t64.5 -36.5t25.5 -79q0 -85 -44.5 -137t-156.5 -52z" />
    <glyph glyph-name="Amacron" unicode="&#x100;" horiz-adv-x="1384" 
d="M-121 0l744 1462h503l123 -1462h-381l-10 274h-448l-125 -274h-406zM553 586h293l-15 420q-1 49 -2 97t0 91h-6q-15 -46 -32.5 -90t-38.5 -90zM557 1571l51 236h666l-49 -236h-668z" />
    <glyph glyph-name="amacron" unicode="&#x101;" 
d="M406 -20q-87 0 -160.5 41t-117.5 135.5t-44 255.5q0 83 19.5 182t59 197.5t99.5 180.5t141.5 131.5t184.5 49.5q65 0 113.5 -20t85 -55.5t63.5 -84.5h8l53 140h310l-240 -1133h-309l10 123h-8q-30 -42 -67 -74t-85.5 -50.5t-115.5 -18.5zM565 291q44 0 81 40.5
t63.5 104.5t38.5 137q6 31 9 62.5t3 62.5q0 65 -20.5 104.5t-61.5 39.5q-32 0 -61.5 -23.5t-54.5 -64t-43.5 -93t-29 -110.5t-10.5 -117q0 -69 21.5 -106t64.5 -37zM413 1241l51 236h666l-49 -236h-668z" />
    <glyph glyph-name="Abreve" unicode="&#x102;" horiz-adv-x="1384" 
d="M-121 0l744 1462h503l123 -1462h-381l-10 274h-448l-125 -274h-406zM553 586h293l-15 420q-1 49 -2 97t0 91h-6q-15 -46 -32.5 -90t-38.5 -90zM897 1571q-114 0 -193.5 39t-121 110t-41.5 166q0 19 2.5 34t5.5 22h217q0 -43 20.5 -71.5t57.5 -43t86 -14.5q65 0 120 24.5
t81 104.5h221q-31 -181 -139 -276t-316 -95z" />
    <glyph glyph-name="abreve" unicode="&#x103;" 
d="M406 -20q-87 0 -160.5 41t-117.5 135.5t-44 255.5q0 83 19.5 182t59 197.5t99.5 180.5t141.5 131.5t184.5 49.5q65 0 113.5 -20t85 -55.5t63.5 -84.5h8l53 140h310l-240 -1133h-309l10 123h-8q-30 -42 -67 -74t-85.5 -50.5t-115.5 -18.5zM565 291q44 0 81 40.5
t63.5 104.5t38.5 137q6 31 9 62.5t3 62.5q0 65 -20.5 104.5t-61.5 39.5q-32 0 -61.5 -23.5t-54.5 -64t-43.5 -93t-29 -110.5t-10.5 -117q0 -69 21.5 -106t64.5 -37zM753 1241q-114 0 -193.5 39t-121 110t-41.5 166q0 19 2.5 34t5.5 22h217q0 -43 20.5 -71.5t57.5 -43
t86 -14.5q65 0 120 24.5t81 104.5h221q-31 -181 -139 -276t-316 -95z" />
    <glyph glyph-name="Aogonek" unicode="&#x104;" horiz-adv-x="1384" 
d="M-121 0l744 1462h503l123 -1462h-381l-10 274h-448l-125 -274h-406zM553 586h293l-15 420q-1 49 -2 97t0 91h-6q-15 -46 -32.5 -90t-38.5 -90zM904 -524q-121 0 -185.5 63t-64.5 152q0 69 28 123t77 99.5t112 86.5h252q-53 -44 -96.5 -83t-69 -78.5t-25.5 -84.5
q0 -19 14 -35t39 -16q32 0 59 7t58 18v-222q-44 -13 -88.5 -21.5t-109.5 -8.5z" />
    <glyph glyph-name="aogonek" unicode="&#x105;" 
d="M406 -20q-87 0 -160.5 41t-117.5 135.5t-44 255.5q0 83 19.5 182t59 197.5t99.5 180.5t141.5 131.5t184.5 49.5q65 0 113.5 -20t85 -55.5t63.5 -84.5h8l53 140h310l-240 -1133h-309l10 123h-8q-30 -42 -67 -74t-85.5 -50.5t-115.5 -18.5zM565 291q44 0 81 40.5
t63.5 104.5t38.5 137q6 31 9 62.5t3 62.5q0 65 -20.5 104.5t-61.5 39.5q-32 0 -61.5 -23.5t-54.5 -64t-43.5 -93t-29 -110.5t-10.5 -117q0 -69 21.5 -106t64.5 -37zM705 -524q-121 0 -185.5 63t-64.5 152q0 69 28 123t77 99.5t112 86.5h252q-53 -44 -96.5 -83t-69 -78.5
t-25.5 -84.5q0 -19 14 -35t39 -16q32 0 59 7t58 18v-222q-44 -13 -88.5 -21.5t-109.5 -8.5z" />
    <glyph glyph-name="Cacute" unicode="&#x106;" horiz-adv-x="1290" 
d="M645 -20q-183 0 -303 71.5t-179 199.5t-59 298q0 131 28 264t87 253.5t151 215t219 149t292 54.5q146 0 262 -34.5t219 -96.5l-148 -305q-93 55 -171 82.5t-162 27.5q-71 0 -130.5 -32t-106 -89t-79 -131.5t-49 -161t-16.5 -176.5q0 -133 56.5 -199.5t160.5 -66.5
q89 0 174 22t194 68v-323q-107 -48 -216.5 -69t-223.5 -21zM700 1571v23q48 39 98.5 91t98.5 108.5t86 105.5h438v-15q-22 -27 -74.5 -69.5t-118 -89t-130.5 -87.5t-113 -67h-285z" />
    <glyph glyph-name="cacute" unicode="&#x107;" horiz-adv-x="1032" 
d="M506 -20q-115 0 -211 47t-153.5 149t-57.5 266q0 120 27.5 227t79.5 196t126.5 153.5t168.5 99.5t204 35q106 0 193.5 -20t173.5 -60l-123 -287q-51 23 -110.5 41.5t-114.5 18.5q-60 0 -104.5 -37.5t-73.5 -96.5t-43.5 -124.5t-14.5 -120.5q0 -66 15 -104.5t43 -55
t67 -16.5q72 0 139.5 23t143.5 63v-307q-80 -43 -168 -66.5t-207 -23.5zM479 1241v23q48 39 98.5 91t98.5 108.5t86 105.5h438v-15q-22 -27 -74.5 -69.5t-118 -89t-130.5 -87.5t-113 -67h-285z" />
    <glyph glyph-name="Ccircumflex" unicode="&#x108;" horiz-adv-x="1290" 
d="M645 -20q-183 0 -303 71.5t-179 199.5t-59 298q0 131 28 264t87 253.5t151 215t219 149t292 54.5q146 0 262 -34.5t219 -96.5l-148 -305q-93 55 -171 82.5t-162 27.5q-71 0 -130.5 -32t-106 -89t-79 -131.5t-49 -161t-16.5 -176.5q0 -133 56.5 -199.5t160.5 -66.5
q89 0 174 22t194 68v-323q-107 -48 -216.5 -69t-223.5 -21zM417 1571v23q48 43 104.5 97.5t111 109t94.5 98.5h446q21 -45 51.5 -101t64.5 -110t64 -94v-23h-266q-22 20 -51.5 52.5t-57.5 66t-47 55.5q-56 -44 -116 -89t-123 -85h-275z" />
    <glyph glyph-name="ccircumflex" unicode="&#x109;" horiz-adv-x="1032" 
d="M506 -20q-115 0 -211 47t-153.5 149t-57.5 266q0 120 27.5 227t79.5 196t126.5 153.5t168.5 99.5t204 35q106 0 193.5 -20t173.5 -60l-123 -287q-51 23 -110.5 41.5t-114.5 18.5q-60 0 -104.5 -37.5t-73.5 -96.5t-43.5 -124.5t-14.5 -120.5q0 -66 15 -104.5t43 -55
t67 -16.5q72 0 139.5 23t143.5 63v-307q-80 -43 -168 -66.5t-207 -23.5zM196 1241v23q48 43 104.5 97.5t111 109t94.5 98.5h446q21 -45 51.5 -101t64.5 -110t64 -94v-23h-266q-22 20 -51.5 52.5t-57.5 66t-47 55.5q-56 -44 -116 -89t-123 -85h-275z" />
    <glyph glyph-name="Cdot" unicode="&#x10a;" horiz-adv-x="1290" 
d="M645 -20q-183 0 -303 71.5t-179 199.5t-59 298q0 131 28 264t87 253.5t151 215t219 149t292 54.5q146 0 262 -34.5t219 -96.5l-148 -305q-93 55 -171 82.5t-162 27.5q-71 0 -130.5 -32t-106 -89t-79 -131.5t-49 -161t-16.5 -176.5q0 -133 56.5 -199.5t160.5 -66.5
q89 0 174 22t194 68v-323q-107 -48 -216.5 -69t-223.5 -21zM910 1571q-82 0 -136.5 29.5t-54.5 111.5q0 111 60 160t167 49q47 0 90.5 -11.5t72 -41.5t28.5 -88q0 -92 -49.5 -150.5t-177.5 -58.5z" />
    <glyph glyph-name="cdot" unicode="&#x10b;" horiz-adv-x="1032" 
d="M506 -20q-115 0 -211 47t-153.5 149t-57.5 266q0 120 27.5 227t79.5 196t126.5 153.5t168.5 99.5t204 35q106 0 193.5 -20t173.5 -60l-123 -287q-51 23 -110.5 41.5t-114.5 18.5q-60 0 -104.5 -37.5t-73.5 -96.5t-43.5 -124.5t-14.5 -120.5q0 -66 15 -104.5t43 -55
t67 -16.5q72 0 139.5 23t143.5 63v-307q-80 -43 -168 -66.5t-207 -23.5zM689 1241q-82 0 -136.5 29.5t-54.5 111.5q0 111 60 160t167 49q47 0 90.5 -11.5t72 -41.5t28.5 -88q0 -92 -49.5 -150.5t-177.5 -58.5z" />
    <glyph glyph-name="Ccaron" unicode="&#x10c;" horiz-adv-x="1290" 
d="M645 -20q-183 0 -303 71.5t-179 199.5t-59 298q0 131 28 264t87 253.5t151 215t219 149t292 54.5q146 0 262 -34.5t219 -96.5l-148 -305q-93 55 -171 82.5t-162 27.5q-71 0 -130.5 -32t-106 -89t-79 -131.5t-49 -161t-16.5 -176.5q0 -133 56.5 -199.5t160.5 -66.5
q89 0 174 22t194 68v-323q-107 -48 -216.5 -69t-223.5 -21zM676 1571q-20 45 -51 101t-64.5 110t-64.5 94v23h266q23 -19 52 -52t57.5 -66t46.5 -56q57 44 116.5 89t122.5 85h275v-23q-51 -43 -108 -97.5t-109 -109t-92 -98.5h-447z" />
    <glyph glyph-name="ccaron" unicode="&#x10d;" horiz-adv-x="1032" 
d="M506 -20q-115 0 -211 47t-153.5 149t-57.5 266q0 120 27.5 227t79.5 196t126.5 153.5t168.5 99.5t204 35q106 0 193.5 -20t173.5 -60l-123 -287q-51 23 -110.5 41.5t-114.5 18.5q-60 0 -104.5 -37.5t-73.5 -96.5t-43.5 -124.5t-14.5 -120.5q0 -66 15 -104.5t43 -55
t67 -16.5q72 0 139.5 23t143.5 63v-307q-80 -43 -168 -66.5t-207 -23.5zM455 1241q-20 45 -51 101t-64.5 110t-64.5 94v23h266q23 -19 52 -52t57.5 -66t46.5 -56q57 44 116.5 89t122.5 85h275v-23q-51 -43 -108 -97.5t-109 -109t-92 -98.5h-447z" />
    <glyph glyph-name="Dcaron" unicode="&#x10e;" horiz-adv-x="1401" 
d="M33 0l309 1462h416q269 0 424 -141t155 -412q0 -170 -36.5 -312t-106.5 -253t-171.5 -187.5t-231.5 -116.5t-287 -40h-471zM494 324h69q67 0 125.5 26t105 75.5t80 119t51 156.5t17.5 188q0 125 -54 189.5t-151 64.5h-71zM665 1571q-20 45 -51 101t-64.5 110t-64.5 94v23
h266q23 -19 52 -52t57.5 -66t46.5 -56q57 44 116.5 89t122.5 85h275v-23q-51 -43 -108 -97.5t-109 -109t-92 -98.5h-447z" />
    <glyph glyph-name="dcaron" unicode="&#x10f;" horiz-adv-x="1479" 
d="M405 -20q-87 0 -160.5 41t-117.5 135.5t-44 255.5q0 83 19 182t58.5 197.5t99.5 180.5t141 131.5t184 49.5q62 0 103 -18.5t72.5 -52.5t61.5 -81h8q0 13 2.5 55.5t8.5 97t16 101.5l62 301h391l-330 -1556h-309l10 123h-8q-28 -39 -63 -71.5t-84 -52t-121 -19.5zM564 291
q30 0 56 18.5t47.5 50t38.5 72.5t29 87t18 92t6 87q0 65 -19.5 104.5t-60.5 39.5q-32 0 -62 -23.5t-55 -64t-44 -93t-29.5 -110.5t-10.5 -117q0 -69 21.5 -106t64.5 -37zM1331 1229v26q18 44 38 97.5t39.5 106.5t33.5 97h362v-20q-33 -54 -70 -104t-78 -99.5t-87 -103.5
h-238z" />
    <glyph glyph-name="Dcroat" unicode="&#x110;" horiz-adv-x="1401" 
d="M33 0l119 563h-142l70 320h139l123 579h430q271 0 418 -143.5t147 -409.5q0 -170 -34 -312t-101 -253t-165 -187.5t-226 -116.5t-285 -40h-493zM494 324h69q67 0 125.5 26.5t105 76t80 120t51 160t17.5 194.5q0 116 -54 179t-151 63h-71l-56 -260h178l-69 -320h-176z" />
    <glyph glyph-name="dcroat" unicode="&#x111;" horiz-adv-x="1237" 
d="M406 -20q-87 0 -160.5 41t-117.5 135.5t-44 255.5q0 93 20.5 185t60.5 174t96.5 145t129 99t158.5 36q62 0 107 -19t80.5 -53t66.5 -80h8q0 13 2.5 55.5t8.5 97t16 101.5l2 14h-244l49 242h244l31 147h391l-33 -147h158l-52 -242h-157l-246 -1167h-309l10 123h-8
q-28 -39 -59.5 -71.5t-80 -52t-128.5 -19.5zM565 291q27 0 50 11t42 31.5t34 48.5t25 62t15.5 72.5t5.5 79.5q0 65 -23 104t-65 39q-33 0 -60 -19t-47.5 -51.5t-34.5 -72.5t-21 -82t-7 -80q0 -69 21.5 -106t64.5 -37z" />
    <glyph glyph-name="Emacron" unicode="&#x112;" horiz-adv-x="1151" 
d="M33 0l309 1462h868l-65 -317h-477l-47 -230h444l-72 -317h-444l-57 -276h477l-68 -322h-868zM461 1571l51 236h666l-49 -236h-668z" />
    <glyph glyph-name="emacron" unicode="&#x113;" horiz-adv-x="1186" 
d="M532 -20q-143 0 -243 54t-152.5 154.5t-52.5 239.5t39.5 269t120 233t202.5 163t287 60q191 0 299.5 -86t108.5 -229q0 -94 -36 -170.5t-110.5 -131.5t-189.5 -84.5t-273 -29.5h-59v-7.5v-8.5q0 -76 41 -112t123 -36q86 0 163 26t165 72v-274q-91 -46 -188 -74t-245 -28z
M512 664h29q87 0 138 23t73 58t22 70q0 32 -20 54t-64 22q-45 0 -83 -35t-63 -87.5t-32 -104.5zM395 1241l51 236h666l-49 -236h-668z" />
    <glyph glyph-name="Ebreve" unicode="&#x114;" horiz-adv-x="1151" 
d="M33 0l309 1462h868l-65 -317h-477l-47 -230h444l-72 -317h-444l-57 -276h477l-68 -322h-868zM800 1571q-114 0 -193.5 39t-121 110t-41.5 166q0 19 2.5 34t5.5 22h217q0 -43 20.5 -71.5t57.5 -43t86 -14.5q65 0 120 24.5t81 104.5h221q-31 -181 -139 -276t-316 -95z" />
    <glyph glyph-name="ebreve" unicode="&#x115;" horiz-adv-x="1186" 
d="M532 -20q-143 0 -243 54t-152.5 154.5t-52.5 239.5t39.5 269t120 233t202.5 163t287 60q191 0 299.5 -86t108.5 -229q0 -94 -36 -170.5t-110.5 -131.5t-189.5 -84.5t-273 -29.5h-59v-7.5v-8.5q0 -76 41 -112t123 -36q86 0 163 26t165 72v-274q-91 -46 -188 -74t-245 -28z
M512 664h29q87 0 138 23t73 58t22 70q0 32 -20 54t-64 22q-45 0 -83 -35t-63 -87.5t-32 -104.5zM735 1241q-114 0 -193.5 39t-121 110t-41.5 166q0 19 2.5 34t5.5 22h217q0 -43 20.5 -71.5t57.5 -43t86 -14.5q65 0 120 24.5t81 104.5h221q-31 -181 -139 -276t-316 -95z" />
    <glyph glyph-name="Edotaccent" unicode="&#x116;" horiz-adv-x="1151" 
d="M33 0l309 1462h868l-65 -317h-477l-47 -230h444l-72 -317h-444l-57 -276h477l-68 -322h-868zM815 1571q-82 0 -136.5 29.5t-54.5 111.5q0 111 60 160t167 49q47 0 90.5 -11.5t72 -41.5t28.5 -88q0 -92 -49.5 -150.5t-177.5 -58.5z" />
    <glyph glyph-name="edotaccent" unicode="&#x117;" horiz-adv-x="1186" 
d="M532 -20q-143 0 -243 54t-152.5 154.5t-52.5 239.5t39.5 269t120 233t202.5 163t287 60q191 0 299.5 -86t108.5 -229q0 -94 -36 -170.5t-110.5 -131.5t-189.5 -84.5t-273 -29.5h-59v-7.5v-8.5q0 -76 41 -112t123 -36q86 0 163 26t165 72v-274q-91 -46 -188 -74t-245 -28z
M512 664h29q87 0 138 23t73 58t22 70q0 32 -20 54t-64 22q-45 0 -83 -35t-63 -87.5t-32 -104.5zM750 1241q-82 0 -136.5 29.5t-54.5 111.5q0 111 60 160t167 49q47 0 90.5 -11.5t72 -41.5t28.5 -88q0 -92 -49.5 -150.5t-177.5 -58.5z" />
    <glyph glyph-name="Eogonek" unicode="&#x118;" horiz-adv-x="1151" 
d="M33 0l309 1462h868l-65 -317h-477l-47 -230h444l-72 -317h-444l-57 -276h477l-68 -322h-868zM627 -524q-121 0 -185.5 63t-64.5 152q0 69 28 123t77 99.5t112 86.5h252q-53 -44 -96.5 -83t-69 -78.5t-25.5 -84.5q0 -19 14 -35t39 -16q32 0 59 7t58 18v-222
q-44 -13 -88.5 -21.5t-109.5 -8.5z" />
    <glyph glyph-name="eogonek" unicode="&#x119;" horiz-adv-x="1186" 
d="M645 -524q-121 0 -185.5 63t-64.5 152q0 69 28 123t77 99.5t112 86.5l308 68q-74 -69 -129.5 -123t-86 -100t-30.5 -91q0 -19 13.5 -35t39.5 -16q32 0 59 7t58 18v-222q-45 -13 -89.5 -21.5t-109.5 -8.5zM532 -20q-143 0 -243 54t-152.5 154.5t-52.5 239.5t39.5 269
t120 233t202.5 163t287 60q191 0 299.5 -86t108.5 -229q0 -94 -36 -170.5t-110.5 -131.5t-189.5 -84.5t-273 -29.5h-59v-7.5v-8.5q0 -76 41 -112t123 -36q86 0 163 26t165 72v-274q-91 -46 -188 -74t-245 -28zM512 664h29q87 0 138 23t73 58t22 70q0 32 -20 54t-64 22
q-45 0 -83 -35t-63 -87.5t-32 -104.5z" />
    <glyph glyph-name="Ecaron" unicode="&#x11a;" horiz-adv-x="1151" 
d="M33 0l309 1462h868l-65 -317h-477l-47 -230h444l-72 -317h-444l-57 -276h477l-68 -322h-868zM581 1571q-20 45 -51 101t-64.5 110t-64.5 94v23h266q23 -19 52 -52t57.5 -66t46.5 -56q57 44 116.5 89t122.5 85h275v-23q-51 -43 -108 -97.5t-109 -109t-92 -98.5h-447z" />
    <glyph glyph-name="ecaron" unicode="&#x11b;" horiz-adv-x="1186" 
d="M532 -20q-143 0 -243 54t-152.5 154.5t-52.5 239.5t39.5 269t120 233t202.5 163t287 60q191 0 299.5 -86t108.5 -229q0 -94 -36 -170.5t-110.5 -131.5t-189.5 -84.5t-273 -29.5h-59v-7.5v-8.5q0 -76 41 -112t123 -36q86 0 163 26t165 72v-274q-91 -46 -188 -74t-245 -28z
M512 664h29q87 0 138 23t73 58t22 70q0 32 -20 54t-64 22q-45 0 -83 -35t-63 -87.5t-32 -104.5zM516 1241q-20 45 -51 101t-64.5 110t-64.5 94v23h266q23 -19 52 -52t57.5 -66t46.5 -56q57 44 116.5 89t122.5 85h275v-23q-51 -43 -108 -97.5t-109 -109t-92 -98.5h-447z" />
    <glyph glyph-name="Gcircumflex" unicode="&#x11c;" horiz-adv-x="1430" 
d="M653 -20q-248 0 -398.5 146.5t-150.5 436.5q0 141 33.5 275.5t101 251.5t169.5 206t240 139t313 50q127 0 243 -27t205 -80l-147 -309q-63 37 -140.5 63.5t-165.5 26.5q-128 0 -215.5 -59t-140.5 -150.5t-76.5 -193t-23.5 -187.5q0 -92 24 -150.5t70.5 -86t114.5 -27.5
q40 0 66.5 3.5t66.5 10.5l51 232h-229l67 305h610l-167 -795q-105 -34 -231 -57.5t-290 -23.5zM471 1571v23q48 43 104.5 97.5t111 109t94.5 98.5h446q21 -45 51.5 -101t64.5 -110t64 -94v-23h-266q-22 20 -51.5 52.5t-57.5 66t-47 55.5q-56 -44 -116 -89t-123 -85h-275z
" />
    <glyph glyph-name="gcircumflex" unicode="&#x11d;" horiz-adv-x="1170" 
d="M347 -492q-212 0 -337.5 75.5t-125.5 209.5q0 98 68 169t212 118q-37 23 -60.5 60t-23.5 79q0 71 51 126t152 101q-65 52 -98 122t-33 159t29 162t84 128q66 65 165 100.5t226 35.5q51 0 107.5 -6t89.5 -14h399l-41 -207l-160 -52q5 -20 7.5 -43.5t2.5 -50.5
q0 -93 -32 -169.5t-91 -132.5q-61 -59 -149.5 -91.5t-196.5 -32.5q-38 0 -69 3t-55 10q-20 -11 -34 -22t-14 -30q0 -14 12 -26q11 -10 36.5 -19t62.5 -14l137 -18q116 -15 188 -50t105 -92t33 -139q0 -110 -45.5 -195.5t-132.5 -142.5q-82 -55 -200 -83t-269 -28zM384 -238
q57 0 111 7.5t91 26.5q25 13 39.5 32t14.5 45q0 14 -4.5 24.5t-12.5 18.5q-19 19 -54 27t-77 12l-115 12q-52 -7 -88.5 -23t-55.5 -40t-19 -56q0 -43 42.5 -64.5t127.5 -21.5zM584 598q35 0 61.5 31.5t42 83.5t15.5 112q0 23 -3.5 41t-11.5 30q-7 12 -18.5 18t-27.5 6
q-32 0 -55.5 -22t-39 -57t-23 -74.5t-7.5 -74.5q0 -22 3.5 -38.5t10.5 -28.5q17 -27 53 -27zM271 1241v23q48 43 104.5 97.5t111 109t94.5 98.5h446q21 -45 51.5 -101t64.5 -110t64 -94v-23h-266q-22 20 -51.5 52.5t-57.5 66t-47 55.5q-56 -44 -116 -89t-123 -85h-275z" />
    <glyph glyph-name="Gbreve" unicode="&#x11e;" horiz-adv-x="1430" 
d="M653 -20q-248 0 -398.5 146.5t-150.5 436.5q0 141 33.5 275.5t101 251.5t169.5 206t240 139t313 50q127 0 243 -27t205 -80l-147 -309q-63 37 -140.5 63.5t-165.5 26.5q-128 0 -215.5 -59t-140.5 -150.5t-76.5 -193t-23.5 -187.5q0 -92 24 -150.5t70.5 -86t114.5 -27.5
q40 0 66.5 3.5t66.5 10.5l51 232h-229l67 305h610l-167 -795q-105 -34 -231 -57.5t-290 -23.5zM948 1571q-114 0 -193.5 39t-121 110t-41.5 166q0 19 2.5 34t5.5 22h217q0 -43 20.5 -71.5t57.5 -43t86 -14.5q65 0 120 24.5t81 104.5h221q-31 -181 -139 -276t-316 -95z" />
    <glyph glyph-name="gbreve" unicode="&#x11f;" horiz-adv-x="1170" 
d="M347 -492q-212 0 -337.5 75.5t-125.5 209.5q0 98 68 169t212 118q-37 23 -60.5 60t-23.5 79q0 71 51 126t152 101q-65 52 -98 122t-33 159t29 162t84 128q66 65 165 100.5t226 35.5q51 0 107.5 -6t89.5 -14h399l-41 -207l-160 -52q5 -20 7.5 -43.5t2.5 -50.5
q0 -93 -32 -169.5t-91 -132.5q-61 -59 -149.5 -91.5t-196.5 -32.5q-38 0 -69 3t-55 10q-20 -11 -34 -22t-14 -30q0 -14 12 -26q11 -10 36.5 -19t62.5 -14l137 -18q116 -15 188 -50t105 -92t33 -139q0 -110 -45.5 -195.5t-132.5 -142.5q-82 -55 -200 -83t-269 -28zM384 -238
q57 0 111 7.5t91 26.5q25 13 39.5 32t14.5 45q0 14 -4.5 24.5t-12.5 18.5q-19 19 -54 27t-77 12l-115 12q-52 -7 -88.5 -23t-55.5 -40t-19 -56q0 -43 42.5 -64.5t127.5 -21.5zM584 598q35 0 61.5 31.5t42 83.5t15.5 112q0 23 -3.5 41t-11.5 30q-7 12 -18.5 18t-27.5 6
q-32 0 -55.5 -22t-39 -57t-23 -74.5t-7.5 -74.5q0 -22 3.5 -38.5t10.5 -28.5q17 -27 53 -27zM695 1241q-114 0 -193.5 39t-121 110t-41.5 166q0 19 2.5 34t5.5 22h217q0 -43 20.5 -71.5t57.5 -43t86 -14.5q65 0 120 24.5t81 104.5h221q-31 -181 -139 -276t-316 -95z" />
    <glyph glyph-name="Gdot" unicode="&#x120;" horiz-adv-x="1430" 
d="M653 -20q-248 0 -398.5 146.5t-150.5 436.5q0 141 33.5 275.5t101 251.5t169.5 206t240 139t313 50q127 0 243 -27t205 -80l-147 -309q-63 37 -140.5 63.5t-165.5 26.5q-128 0 -215.5 -59t-140.5 -150.5t-76.5 -193t-23.5 -187.5q0 -92 24 -150.5t70.5 -86t114.5 -27.5
q40 0 66.5 3.5t66.5 10.5l51 232h-229l67 305h610l-167 -795q-105 -34 -231 -57.5t-290 -23.5zM963 1571q-82 0 -136.5 29.5t-54.5 111.5q0 111 60 160t167 49q47 0 90.5 -11.5t72 -41.5t28.5 -88q0 -92 -49.5 -150.5t-177.5 -58.5z" />
    <glyph glyph-name="gdot" unicode="&#x121;" horiz-adv-x="1170" 
d="M347 -492q-212 0 -337.5 75.5t-125.5 209.5q0 98 68 169t212 118q-37 23 -60.5 60t-23.5 79q0 71 51 126t152 101q-65 52 -98 122t-33 159t29 162t84 128q66 65 165 100.5t226 35.5q51 0 107.5 -6t89.5 -14h399l-41 -207l-160 -52q5 -20 7.5 -43.5t2.5 -50.5
q0 -93 -32 -169.5t-91 -132.5q-61 -59 -149.5 -91.5t-196.5 -32.5q-38 0 -69 3t-55 10q-20 -11 -34 -22t-14 -30q0 -14 12 -26q11 -10 36.5 -19t62.5 -14l137 -18q116 -15 188 -50t105 -92t33 -139q0 -110 -45.5 -195.5t-132.5 -142.5q-82 -55 -200 -83t-269 -28zM384 -238
q57 0 111 7.5t91 26.5q25 13 39.5 32t14.5 45q0 14 -4.5 24.5t-12.5 18.5q-19 19 -54 27t-77 12l-115 12q-52 -7 -88.5 -23t-55.5 -40t-19 -56q0 -43 42.5 -64.5t127.5 -21.5zM584 598q35 0 61.5 31.5t42 83.5t15.5 112q0 23 -3.5 41t-11.5 30q-7 12 -18.5 18t-27.5 6
q-32 0 -55.5 -22t-39 -57t-23 -74.5t-7.5 -74.5q0 -22 3.5 -38.5t10.5 -28.5q17 -27 53 -27zM722 1241q-82 0 -136.5 29.5t-54.5 111.5q0 111 60 160t167 49q47 0 90.5 -11.5t72 -41.5t28.5 -88q0 -92 -49.5 -150.5t-177.5 -58.5z" />
    <glyph glyph-name="uni0122" unicode="&#x122;" horiz-adv-x="1430" 
d="M653 -20q-248 0 -398.5 146.5t-150.5 436.5q0 141 33.5 275.5t101 251.5t169.5 206t240 139t313 50q127 0 243 -27t205 -80l-147 -309q-63 37 -140.5 63.5t-165.5 26.5q-128 0 -215.5 -59t-140.5 -150.5t-76.5 -193t-23.5 -187.5q0 -92 24 -150.5t70.5 -86t114.5 -27.5
q40 0 66.5 3.5t66.5 10.5l51 232h-229l67 305h610l-167 -795q-105 -34 -231 -57.5t-290 -23.5zM383 -453v27q18 44 38 97.5t39 106.5t32 97h362v-20q-32 -54 -69 -106t-78 -102t-86 -100h-238z" />
    <glyph glyph-name="uni0123" unicode="&#x123;" horiz-adv-x="1170" 
d="M518 1241v21q33 54 70 104.5t78.5 100.5t87.5 102h238v-27q-18 -44 -39 -97t-39.5 -106.5t-32.5 -97.5h-363zM347 -492q-212 0 -337.5 75.5t-125.5 209.5q0 98 68 169t212 118q-37 23 -60.5 60t-23.5 79q0 71 51 126t152 101q-65 52 -98 122t-33 159t29 162t84 128
q66 65 165 100.5t226 35.5q51 0 107.5 -6t89.5 -14h399l-41 -207l-160 -52q5 -20 7.5 -43.5t2.5 -50.5q0 -93 -32 -169.5t-91 -132.5q-61 -59 -149.5 -91.5t-196.5 -32.5q-38 0 -69 3t-55 10q-20 -11 -34 -22t-14 -30q0 -14 12 -26q11 -10 36.5 -19t62.5 -14l137 -18
q116 -15 188 -50t105 -92t33 -139q0 -110 -45.5 -195.5t-132.5 -142.5q-82 -55 -200 -83t-269 -28zM384 -238q57 0 111 7.5t91 26.5q25 13 39.5 32t14.5 45q0 14 -4.5 24.5t-12.5 18.5q-19 19 -54 27t-77 12l-115 12q-52 -7 -88.5 -23t-55.5 -40t-19 -56q0 -43 42.5 -64.5
t127.5 -21.5zM584 598q35 0 61.5 31.5t42 83.5t15.5 112q0 23 -3.5 41t-11.5 30q-7 12 -18.5 18t-27.5 6q-32 0 -55.5 -22t-39 -57t-23 -74.5t-7.5 -74.5q0 -22 3.5 -38.5t10.5 -28.5q17 -27 53 -27z" />
    <glyph glyph-name="Hcircumflex" unicode="&#x124;" horiz-adv-x="1462" 
d="M33 0l309 1462h391l-112 -542h348l112 542h392l-310 -1462h-391l125 596h-346l-127 -596h-391zM438 1571v23q48 43 104.5 97.5t111 109t94.5 98.5h446q21 -45 51.5 -101t64.5 -110t64 -94v-23h-266q-22 20 -51.5 52.5t-57.5 66t-47 55.5q-56 -44 -116 -89t-123 -85h-275z
" />
    <glyph glyph-name="hcircumflex" unicode="&#x125;" horiz-adv-x="1274" 
d="M23 0l329 1556h387l-53 -249q-10 -48 -25 -100.5t-31.5 -100t-31.5 -82.5h8q35 45 77 73.5t91 42t105 13.5q106 0 171.5 -44t96.5 -117t31 -161q0 -56 -7 -115.5t-18 -113.5l-127 -602h-387l129 618q6 26 12 66.5t6 75.5q0 43 -22 64.5t-53 21.5q-38 0 -72 -29.5
t-62.5 -94t-50.5 -169.5l-116 -553h-387zM79 1665v23q48 43 104.5 97.5t111 109t94.5 98.5h446q21 -45 51.5 -101t64.5 -110t64 -94v-23h-266q-22 20 -51.5 52.5t-57.5 66t-47 55.5q-56 -44 -116 -89t-123 -85h-275z" />
    <glyph glyph-name="Hbar" unicode="&#x126;" horiz-adv-x="1462" 
d="M33 0l225 1069h-170l47 236h172l35 157h391l-31 -157h347l32 157h392l-33 -157h172l-49 -236h-174l-226 -1069h-391l125 594h-346l-127 -594h-391zM621 920h348l28 149h-348z" />
    <glyph glyph-name="hbar" unicode="&#x127;" horiz-adv-x="1274" 
d="M23 0l245 1167h-168l52 242h167l33 147h387l-30 -147h268l-51 -242h-269q-11 -44 -25 -89.5t-28 -85.5t-26 -70h8q35 45 76.5 73.5t90.5 42t105 13.5q106 0 171.5 -44t96.5 -117.5t31 -160.5q0 -57 -6.5 -116.5t-17.5 -112.5l-107 -500h-387l109 516q6 26 12 66t6 75
q0 44 -22.5 65t-53.5 21q-45 0 -79 -34t-59.5 -99t-45.5 -159l-96 -451h-387z" />
    <glyph glyph-name="Itilde" unicode="&#x128;" horiz-adv-x="723" 
d="M33 0l309 1462h391l-309 -1462h-391zM145 1567q23 124 67 199t106.5 109t140.5 34q44 0 81 -15t71 -34t67 -34t67 -15q35 0 65.5 24.5t49.5 75.5h190q-25 -126 -70 -201t-108 -108t-143 -33q-48 0 -88.5 15t-75.5 34t-68 34t-67 15q-31 0 -60.5 -27t-35.5 -73h-189z" />
    <glyph glyph-name="itilde" unicode="&#x129;" horiz-adv-x="666" 
d="M23 0l239 1133h389l-241 -1133h-387zM61 1237q23 124 67 199t106.5 109t140.5 34q44 0 81 -15t71 -34t67 -34t67 -15q35 0 65.5 24.5t49.5 75.5h190q-25 -126 -70 -201t-108 -108t-143 -33q-48 0 -88.5 15t-75.5 34t-68 34t-67 15q-31 0 -60.5 -27t-35.5 -73h-189z" />
    <glyph glyph-name="Imacron" unicode="&#x12a;" horiz-adv-x="723" 
d="M33 0l309 1462h391l-309 -1462h-391zM227 1571l51 236h666l-49 -236h-668z" />
    <glyph glyph-name="imacron" unicode="&#x12b;" horiz-adv-x="666" 
d="M23 0l239 1133h389l-241 -1133h-387zM129 1241l51 236h666l-49 -236h-668z" />
    <glyph glyph-name="Ibreve" unicode="&#x12c;" horiz-adv-x="723" 
d="M33 0l309 1462h391l-309 -1462h-391zM553 1571q-114 0 -193.5 39t-121 110t-41.5 166q0 19 2.5 34t5.5 22h217q0 -43 20.5 -71.5t57.5 -43t86 -14.5q65 0 120 24.5t81 104.5h221q-31 -181 -139 -276t-316 -95z" />
    <glyph glyph-name="ibreve" unicode="&#x12d;" horiz-adv-x="666" 
d="M23 0l239 1133h389l-241 -1133h-387zM469 1241q-114 0 -193.5 39t-121 110t-41.5 166q0 19 2.5 34t5.5 22h217q0 -43 20.5 -71.5t57.5 -43t86 -14.5q65 0 120 24.5t81 104.5h221q-31 -181 -139 -276t-316 -95z" />
    <glyph glyph-name="Iogonek" unicode="&#x12e;" horiz-adv-x="723" 
d="M33 0l309 1462h391l-309 -1462h-391zM206 -524q-121 0 -185.5 63t-64.5 152q0 69 28 123t77 99.5t112 86.5h252q-53 -44 -96.5 -83t-69 -78.5t-25.5 -84.5q0 -19 14 -35t39 -16q32 0 59 7t58 18v-222q-44 -13 -88.5 -21.5t-109.5 -8.5z" />
    <glyph glyph-name="iogonek" unicode="&#x12f;" horiz-adv-x="666" 
d="M23 0l239 1133h389l-241 -1133h-387zM500 1241q-82 0 -136.5 31.5t-54.5 109.5q0 68 27 114.5t77.5 70.5t121.5 24q77 0 133.5 -31.5t56.5 -109.5q0 -94 -55 -151.5t-170 -57.5zM172 -524q-121 0 -185.5 63t-64.5 152q0 69 28 123t77 99.5t112 86.5h252
q-53 -44 -96.5 -83t-69 -78.5t-25.5 -84.5q0 -19 14 -35t39 -16q32 0 59 7t58 18v-222q-44 -13 -88.5 -21.5t-109.5 -8.5z" />
    <glyph glyph-name="Idotaccent" unicode="&#x130;" horiz-adv-x="723" 
d="M33 0l309 1462h391l-309 -1462h-391zM580 1571q-82 0 -136.5 29.5t-54.5 111.5q0 111 60 160t167 49q47 0 90.5 -11.5t72 -41.5t28.5 -88q0 -92 -49.5 -150.5t-177.5 -58.5z" />
    <glyph glyph-name="dotlessi" unicode="&#x131;" horiz-adv-x="666" 
d="M23 0l239 1133h389l-241 -1133h-387z" />
    <glyph glyph-name="IJ" unicode="&#x132;" horiz-adv-x="1487" 
d="M33 0l309 1462h391l-309 -1462h-391zM608 -461q-52 0 -108.5 8t-104.5 21v319q37 -9 79 -16.5t95 -7.5q63 0 110 21t81 76.5t55 156.5l289 1345h391l-299 -1394q-41 -192 -111 -308.5t-185 -168.5t-292 -52z" />
    <glyph glyph-name="ij" unicode="&#x133;" horiz-adv-x="1331" 
d="M23 0l239 1133h389l-241 -1133h-387zM500 1241q-82 0 -136.5 31.5t-54.5 109.5q0 68 27 114.5t77.5 70.5t121.5 24q77 0 133.5 -31.5t56.5 -109.5q0 -94 -55 -151.5t-170 -57.5zM609 -492q-54 0 -113 8.5t-94 18.5v303q37 -12 62 -15t50 -3q41 0 76.5 14.5t61.5 47
t37 85.5l247 1166h387l-260 -1227q-21 -102 -73.5 -193t-145 -148t-235.5 -57zM1174 1241q-82 0 -136.5 31.5t-54.5 109.5q0 68 27 114.5t77.5 70.5t121.5 24q77 0 133.5 -31.5t56.5 -109.5q0 -94 -54.5 -151.5t-170.5 -57.5z" />
    <glyph glyph-name="Jcircumflex" unicode="&#x134;" horiz-adv-x="764" 
d="M-115 -461q-52 0 -108.5 8t-104.5 21v319q37 -9 79 -16.5t95 -7.5q63 0 110 21t81 76.5t55 156.5l289 1345h391l-299 -1394q-41 -192 -111 -308.5t-185 -168.5t-292 -52zM110 1571v23q48 43 104.5 97.5t111 109t94.5 98.5h446q21 -45 51.5 -101t64.5 -110t64 -94v-23
h-266q-22 20 -51.5 52.5t-57.5 66t-47 55.5q-56 -44 -116 -89t-123 -85h-275z" />
    <glyph glyph-name="jcircumflex" unicode="&#x135;" horiz-adv-x="666" 
d="M-57 -492q-54 0 -113 8.5t-94 18.5v303q37 -12 62 -15t50 -3q41 0 76.5 14.5t61.5 47t37 85.5l247 1166h387l-260 -1227q-21 -102 -73.5 -193t-145 -148t-235.5 -57zM-11 1241v23q48 43 104.5 97.5t111 109t94.5 98.5h446q21 -45 51.5 -101t64.5 -110t64 -94v-23h-266
q-22 20 -51.5 52.5t-57.5 66t-47 55.5q-56 -44 -116 -89t-123 -85h-275z" />
    <glyph glyph-name="uni0136" unicode="&#x136;" horiz-adv-x="1370" 
d="M33 0l309 1462h391l-135 -624l145 204l320 420h459l-551 -674l270 -788h-438l-174 578l-97 -56l-108 -522h-391zM301 -453v27q18 44 38 97.5t39 106.5t32 97h362v-20q-32 -54 -69 -106t-78 -102t-86 -100h-238z" />
    <glyph glyph-name="uni0137" unicode="&#x137;" horiz-adv-x="1264" 
d="M23 0l325 1556h387l-139 -663q-8 -37 -20 -81t-23.5 -82.5t-20.5 -61.5h9l391 465h442l-491 -512l274 -621h-438l-139 391l-101 -53l-69 -338h-387zM239 -453v27q18 44 38 97.5t39 106.5t32 97h362v-20q-32 -54 -69 -106t-78 -102t-86 -100h-238z" />
    <glyph glyph-name="kgreenlandic" unicode="&#x138;" horiz-adv-x="1264" 
d="M23 0l237 1133h387l-51 -240q-12 -55 -30.5 -113.5t-35.5 -101.5h9l385 455h446l-487 -512l274 -621h-438l-139 391l-101 -53l-69 -338h-387z" />
    <glyph glyph-name="Lacute" unicode="&#x139;" horiz-adv-x="1079" 
d="M33 0l309 1462h391l-241 -1143h477l-68 -319h-868zM409 1571v23q48 39 98.5 91t98.5 108.5t86 105.5h438v-15q-22 -27 -74.5 -69.5t-118 -89t-130.5 -87.5t-113 -67h-285z" />
    <glyph glyph-name="lacute" unicode="&#x13a;" horiz-adv-x="666" 
d="M23 0l329 1556h387l-329 -1556h-387zM366 1665v23q48 39 98.5 91t98.5 108.5t86 105.5h438v-15q-22 -27 -74.5 -69.5t-118 -89t-130.5 -87.5t-113 -67h-285z" />
    <glyph glyph-name="uni013B" unicode="&#x13b;" horiz-adv-x="1079" 
d="M33 0l309 1462h391l-241 -1143h477l-68 -319h-868zM182 -453v27q18 44 38 97.5t39 106.5t32 97h362v-20q-32 -54 -69 -106t-78 -102t-86 -100h-238z" />
    <glyph glyph-name="uni013C" unicode="&#x13c;" horiz-adv-x="666" 
d="M23 0l329 1556h387l-329 -1556h-387zM-84 -453v27q18 44 38 97.5t39 106.5t32 97h362v-20q-32 -54 -69 -106t-78 -102t-86 -100h-238z" />
    <glyph glyph-name="Lcaron" unicode="&#x13d;" horiz-adv-x="1079" 
d="M33 0l309 1462h391l-241 -1143h477l-68 -319h-868zM788 1131v26q18 44 38 97.5t39.5 106.5t33.5 97h362v-20q-33 -54 -70 -104t-78 -99.5t-87 -103.5h-238z" />
    <glyph glyph-name="lcaron" unicode="&#x13e;" horiz-adv-x="895" 
d="M23 0l329 1556h387l-329 -1556h-387zM747 1229v26q18 44 38 97.5t39.5 106.5t33.5 97h362v-20q-33 -54 -70 -104t-78 -99.5t-87 -103.5h-238z" />
    <glyph glyph-name="Ldot" unicode="&#x13f;" horiz-adv-x="1079" 
d="M33 0l309 1462h391l-241 -1143h477l-68 -319h-868zM908 592q-82 0 -136.5 29.5t-54.5 111.5q0 111 60 160t167 49q47 0 90.5 -11.5t72 -41.5t28.5 -88q0 -92 -49.5 -150.5t-177.5 -58.5z" />
    <glyph glyph-name="ldot" unicode="&#x140;" horiz-adv-x="1092" 
d="M23 0l329 1556h387l-329 -1556h-387zM893 528q-82 0 -136.5 29.5t-54.5 111.5q0 111 60 160t167 49q47 0 90.5 -11.5t72 -41.5t28.5 -88q0 -92 -49.5 -150.5t-177.5 -58.5z" />
    <glyph glyph-name="Lslash" unicode="&#x141;" horiz-adv-x="1100" 
d="M53 0l103 485l-78 -39l-125 242l274 146l135 628h392l-90 -420l172 91l131 -244l-377 -197l-78 -373h477l-67 -319h-869z" />
    <glyph glyph-name="lslash" unicode="&#x142;" horiz-adv-x="727" 
d="M53 0l90 420l-86 -43l-106 223l258 133l174 823h387l-133 -626l86 43l117 -223l-271 -136l-129 -614h-387z" />
    <glyph glyph-name="Nacute" unicode="&#x143;" horiz-adv-x="1618" 
d="M33 0l309 1462h455l286 -983h9q5 44 14.5 112t21 138t21.5 121l131 612h348l-309 -1462h-455l-289 1028h-8q-1 -20 -6 -68.5t-13 -110.5t-17.5 -125.5t-20.5 -113.5l-129 -610h-348zM829 1571v23q48 39 98.5 91t98.5 108.5t86 105.5h438v-15q-22 -27 -74.5 -69.5
t-118 -89t-130.5 -87.5t-113 -67h-285z" />
    <glyph glyph-name="nacute" unicode="&#x144;" horiz-adv-x="1274" 
d="M23 0l239 1133h309l-12 -158h8q37 64 82 103t101.5 57t128.5 18q106 0 171.5 -44t96.5 -117t31 -161q0 -56 -7 -115.5t-18 -113.5l-127 -602h-387l129 618q6 26 12 66.5t6 75.5q0 43 -22 64.5t-53 21.5q-38 0 -72.5 -31.5t-63 -96t-49.5 -165.5l-116 -553h-387zM589 1241
v23q48 39 98.5 91t98.5 108.5t86 105.5h438v-15q-22 -27 -74.5 -69.5t-118 -89t-130.5 -87.5t-113 -67h-285z" />
    <glyph glyph-name="uni0145" unicode="&#x145;" horiz-adv-x="1618" 
d="M33 0l309 1462h455l286 -983h9q5 44 14.5 112t21 138t21.5 121l131 612h348l-309 -1462h-455l-289 1028h-8q-1 -20 -6 -68.5t-13 -110.5t-17.5 -125.5t-20.5 -113.5l-129 -610h-348zM378 -453v27q18 44 38 97.5t39 106.5t32 97h362v-20q-32 -54 -69 -106t-78 -102
t-86 -100h-238z" />
    <glyph glyph-name="uni0146" unicode="&#x146;" horiz-adv-x="1274" 
d="M23 0l239 1133h309l-12 -158h8q37 64 82 103t101.5 57t128.5 18q106 0 171.5 -44t96.5 -117t31 -161q0 -56 -7 -115.5t-18 -113.5l-127 -602h-387l129 618q6 26 12 66.5t6 75.5q0 43 -22 64.5t-53 21.5q-38 0 -72.5 -31.5t-63 -96t-49.5 -165.5l-116 -553h-387zM227 -453
v27q18 44 38 97.5t39 106.5t32 97h362v-20q-32 -54 -69 -106t-78 -102t-86 -100h-238z" />
    <glyph glyph-name="Ncaron" unicode="&#x147;" horiz-adv-x="1618" 
d="M33 0l309 1462h455l286 -983h9q5 44 14.5 112t21 138t21.5 121l131 612h348l-309 -1462h-455l-289 1028h-8q-1 -20 -6 -68.5t-13 -110.5t-17.5 -125.5t-20.5 -113.5l-129 -610h-348zM805 1571q-20 45 -51 101t-64.5 110t-64.5 94v23h266q23 -19 52 -52t57.5 -66t46.5 -56
q57 44 116.5 89t122.5 85h275v-23q-51 -43 -108 -97.5t-109 -109t-92 -98.5h-447z" />
    <glyph glyph-name="ncaron" unicode="&#x148;" horiz-adv-x="1274" 
d="M23 0l239 1133h309l-12 -158h8q37 64 82 103t101.5 57t128.5 18q106 0 171.5 -44t96.5 -117t31 -161q0 -56 -7 -115.5t-18 -113.5l-127 -602h-387l129 618q6 26 12 66.5t6 75.5q0 43 -22 64.5t-53 21.5q-38 0 -72.5 -31.5t-63 -96t-49.5 -165.5l-116 -553h-387zM565 1241
q-20 45 -51 101t-64.5 110t-64.5 94v23h266q23 -19 52 -52t57.5 -66t46.5 -56q57 44 116.5 89t122.5 85h275v-23q-51 -43 -108 -97.5t-109 -109t-92 -98.5h-447z" />
    <glyph glyph-name="napostrophe" unicode="&#x149;" horiz-adv-x="1444" 
d="M193 0l239 1133h309l-12 -158h8q37 64 82 103t101.5 57t128.5 18q106 0 171.5 -44t96.5 -117t31 -161q0 -56 -7 -115.5t-18 -113.5l-127 -602h-387l129 618q6 26 12 66.5t6 75.5q0 43 -22 64.5t-53 21.5q-38 0 -72.5 -31.5t-63 -96t-49.5 -165.5l-116 -553h-387zM-62 961
q34 81 68 170t65 175t56 156h348l8 -22q-30 -70 -72 -152t-89.5 -166t-94.5 -161h-289z" />
    <glyph glyph-name="Eng" unicode="&#x14a;" horiz-adv-x="1618" 
d="M745 -461q-52 0 -108.5 8t-104.5 21v307q38 -9 81 -17t110 -8q52 0 100.5 15t85 50t52.5 93l-386 1020h-8q-1 -20 -6 -68.5t-13 -110.5t-17.5 -125.5t-20.5 -113.5l-129 -610h-348l309 1462h430l326 -872h8q5 44 16 107.5t23.5 129.5t23.5 117l111 518h348l-309 -1462
q-33 -155 -100 -257.5t-182 -153t-292 -50.5z" />
    <glyph glyph-name="eng" unicode="&#x14b;" horiz-adv-x="1274" 
d="M551 -492q-54 0 -113 8.5t-94 18.5v303q37 -12 62 -15t51 -3q41 0 76.5 14.5t61 47t36.5 85.5l137 651q6 26 12 66.5t6 75.5q0 43 -22 64.5t-53 21.5q-39 0 -73.5 -32t-62.5 -96.5t-49 -164.5l-116 -553h-387l239 1133h309l-12 -158h8q37 64 82 103t101.5 57t128.5 18
q106 0 171.5 -44t96.5 -117t31 -161q0 -56 -7 -115.5t-18 -113.5l-147 -696q-21 -102 -73.5 -193t-145 -148t-236.5 -57z" />
    <glyph glyph-name="Omacron" unicode="&#x14c;" horiz-adv-x="1509" 
d="M666 -20q-187 0 -311.5 70t-187.5 196.5t-63 296.5q0 114 21 227t64 218.5t108 195.5t153 157.5t199.5 105.5t247.5 38q270 0 409.5 -154t139.5 -409q0 -114 -20.5 -227.5t-62 -219t-105.5 -195.5t-150.5 -157.5t-196.5 -105t-245 -37.5zM700 303q49 0 94 22t84.5 62.5
t71 97t54.5 125t35 146.5t12 162q0 113 -48 178t-139 65q-55 0 -103 -25t-88.5 -69t-72.5 -103t-54.5 -128t-34 -143t-11.5 -148q0 -79 22.5 -133t67 -81.5t110.5 -27.5zM606 1571l51 236h666l-49 -236h-668z" />
    <glyph glyph-name="omacron" unicode="&#x14d;" 
d="M520 -20q-139 0 -236.5 51t-148.5 148.5t-51 236.5q0 116 26 224.5t78 201.5t129 163t178.5 109t227.5 39q139 0 236.5 -51t148.5 -148.5t51 -236.5q0 -116 -26 -224.5t-78 -201.5t-129 -163t-178.5 -109t-227.5 -39zM563 270q34 0 64.5 26t55.5 71.5t43 104t28 124.5
t10 133q0 44 -10.5 73.5t-29.5 44.5t-46 15q-34 0 -64.5 -26t-55 -71t-42.5 -103.5t-27.5 -125t-9.5 -133.5q0 -66 22 -99.5t62 -33.5zM406 1241l51 236h666l-49 -236h-668z" />
    <glyph glyph-name="Obreve" unicode="&#x14e;" horiz-adv-x="1509" 
d="M666 -20q-187 0 -311.5 70t-187.5 196.5t-63 296.5q0 114 21 227t64 218.5t108 195.5t153 157.5t199.5 105.5t247.5 38q270 0 409.5 -154t139.5 -409q0 -114 -20.5 -227.5t-62 -219t-105.5 -195.5t-150.5 -157.5t-196.5 -105t-245 -37.5zM700 303q49 0 94 22t84.5 62.5
t71 97t54.5 125t35 146.5t12 162q0 113 -48 178t-139 65q-55 0 -103 -25t-88.5 -69t-72.5 -103t-54.5 -128t-34 -143t-11.5 -148q0 -79 22.5 -133t67 -81.5t110.5 -27.5zM946 1571q-114 0 -193.5 39t-121 110t-41.5 166q0 19 2.5 34t5.5 22h217q0 -43 20.5 -71.5t57.5 -43
t86 -14.5q65 0 120 24.5t81 104.5h221q-31 -181 -139 -276t-316 -95z" />
    <glyph glyph-name="obreve" unicode="&#x14f;" 
d="M520 -20q-139 0 -236.5 51t-148.5 148.5t-51 236.5q0 116 26 224.5t78 201.5t129 163t178.5 109t227.5 39q139 0 236.5 -51t148.5 -148.5t51 -236.5q0 -116 -26 -224.5t-78 -201.5t-129 -163t-178.5 -109t-227.5 -39zM563 270q34 0 64.5 26t55.5 71.5t43 104t28 124.5
t10 133q0 44 -10.5 73.5t-29.5 44.5t-46 15q-34 0 -64.5 -26t-55 -71t-42.5 -103.5t-27.5 -125t-9.5 -133.5q0 -66 22 -99.5t62 -33.5zM747 1241q-114 0 -193.5 39t-121 110t-41.5 166q0 19 2.5 34t5.5 22h217q0 -43 20.5 -71.5t57.5 -43t86 -14.5q65 0 120 24.5t81 104.5
h221q-31 -181 -139 -276t-316 -95z" />
    <glyph glyph-name="Ohungarumlaut" unicode="&#x150;" horiz-adv-x="1509" 
d="M666 -20q-187 0 -311.5 70t-187.5 196.5t-63 296.5q0 114 21 227t64 218.5t108 195.5t153 157.5t199.5 105.5t247.5 38q270 0 409.5 -154t139.5 -409q0 -114 -20.5 -227.5t-62 -219t-105.5 -195.5t-150.5 -157.5t-196.5 -105t-245 -37.5zM700 303q49 0 94 22t84.5 62.5
t71 97t54.5 125t35 146.5t12 162q0 113 -48 178t-139 65q-55 0 -103 -25t-88.5 -69t-72.5 -103t-54.5 -128t-34 -143t-11.5 -148q0 -79 22.5 -133t67 -81.5t110.5 -27.5zM1073 1571v29q29 39 68 91.5t77 107t62 100.5h373v-21q-16 -27 -61 -67.5t-103.5 -85.5t-115.5 -86
t-97 -68h-203zM610 1571v29q32 39 72.5 91.5t79.5 107t66 100.5h370v-21q-16 -27 -62.5 -67.5t-106.5 -85.5t-118.5 -86t-97.5 -68h-203z" />
    <glyph glyph-name="ohungarumlaut" unicode="&#x151;" 
d="M520 -20q-139 0 -236.5 51t-148.5 148.5t-51 236.5q0 116 26 224.5t78 201.5t129 163t178.5 109t227.5 39q139 0 236.5 -51t148.5 -148.5t51 -236.5q0 -116 -26 -224.5t-78 -201.5t-129 -163t-178.5 -109t-227.5 -39zM563 270q34 0 64.5 26t55.5 71.5t43 104t28 124.5
t10 133q0 44 -10.5 73.5t-29.5 44.5t-46 15q-34 0 -64.5 -26t-55 -71t-42.5 -103.5t-27.5 -125t-9.5 -133.5q0 -66 22 -99.5t62 -33.5zM874 1241v29q29 39 68 91.5t77 107t62 100.5h373v-21q-16 -27 -61 -67.5t-103.5 -85.5t-115.5 -86t-97 -68h-203zM411 1241v29
q32 39 72.5 91.5t79.5 107t66 100.5h370v-21q-16 -27 -62.5 -67.5t-106.5 -85.5t-118.5 -86t-97.5 -68h-203z" />
    <glyph glyph-name="OE" unicode="&#x152;" horiz-adv-x="1909" 
d="M647 -20q-178 0 -299 69.5t-182.5 193t-61.5 285.5q0 127 27.5 261t86.5 258t152.5 223t226 157t306.5 58q50 0 99.5 -6.5t91.5 -16.5h874l-67 -319h-478l-47 -225h445l-72 -322h-444l-58 -272h477l-65 -324h-815q-46 -9 -96 -14.5t-101 -5.5zM682 309q43 0 90 10t90 31
l162 762q-28 26 -68.5 37.5t-85.5 11.5q-60 0 -115 -33t-101.5 -93t-81 -140t-53.5 -174t-19 -195q0 -74 21.5 -122.5t62.5 -71.5t98 -23z" />
    <glyph glyph-name="oe" unicode="&#x153;" horiz-adv-x="1802" 
d="M520 -20q-208 0 -322 113.5t-114 322.5q0 116 26 224.5t76.5 201.5t125 163t172 109t216.5 39q97 0 165.5 -32.5t111.5 -92.5q68 59 160 92t213 33q191 0 299 -86t108 -229q0 -94 -36 -170.5t-110 -131.5t-189 -84.5t-273 -29.5h-59v-8v-11q0 -73 41 -109t122 -36
q86 0 163 26t165 72v-274q-91 -46 -187.5 -74t-244.5 -28q-69 0 -124.5 12.5t-97.5 37.5t-73 62q-60 -54 -143 -83t-191 -29zM563 270q34 0 64.5 26t55.5 71.5t43 104t28 124.5t10 133q0 66 -23 99.5t-63 33.5q-34 0 -64.5 -26t-55 -71t-42.5 -103.5t-27.5 -125t-9.5 -133.5
q0 -66 22 -99.5t62 -33.5zM1128 664h29q87 0 138.5 23t73.5 58t22 70q0 32 -20.5 54t-63.5 22q-45 0 -83 -35t-63 -87.5t-33 -104.5z" />
    <glyph glyph-name="Racute" unicode="&#x154;" horiz-adv-x="1331" 
d="M33 0l309 1462h387q252 0 386 -100t134 -301q0 -134 -44 -223.5t-109 -143.5t-129 -82l264 -612h-426l-195 532h-73l-113 -532h-391zM600 829h51q39 0 76 11.5t66.5 36t47 64t17.5 95.5q0 53 -30 90t-105 37h-53zM667 1571v23q48 39 98.5 91t98.5 108.5t86 105.5h438v-15
q-22 -27 -74.5 -69.5t-118 -89t-130.5 -87.5t-113 -67h-285z" />
    <glyph glyph-name="racute" unicode="&#x155;" horiz-adv-x="895" 
d="M23 0l239 1133h309l-18 -189h8q47 80 96 125.5t108.5 64.5t135.5 19q22 0 46.5 -2.5t33.5 -5.5l-84 -383q-22 9 -54 15.5t-69 6.5q-45 0 -84.5 -14.5t-72 -47t-58 -88t-43.5 -136.5l-106 -498h-387zM440 1241v23q48 39 98.5 91t98.5 108.5t86 105.5h438v-15
q-22 -27 -74.5 -69.5t-118 -89t-130.5 -87.5t-113 -67h-285z" />
    <glyph glyph-name="uni0156" unicode="&#x156;" horiz-adv-x="1331" 
d="M33 0l309 1462h387q252 0 386 -100t134 -301q0 -134 -44 -223.5t-109 -143.5t-129 -82l264 -612h-426l-195 532h-73l-113 -532h-391zM600 829h51q39 0 76 11.5t66.5 36t47 64t17.5 95.5q0 53 -30 90t-105 37h-53zM268 -453v27q18 44 38 97.5t39 106.5t32 97h362v-20
q-32 -54 -69 -106t-78 -102t-86 -100h-238z" />
    <glyph glyph-name="uni0157" unicode="&#x157;" horiz-adv-x="895" 
d="M23 0l239 1133h309l-18 -189h8q47 80 96 125.5t108.5 64.5t135.5 19q22 0 46.5 -2.5t33.5 -5.5l-84 -383q-22 9 -54 15.5t-69 6.5q-45 0 -84.5 -14.5t-72 -47t-58 -88t-43.5 -136.5l-106 -498h-387zM-71 -453v27q18 44 38 97.5t39 106.5t32 97h362v-20q-32 -54 -69 -106
t-78 -102t-86 -100h-238z" />
    <glyph glyph-name="Rcaron" unicode="&#x158;" horiz-adv-x="1331" 
d="M33 0l309 1462h387q252 0 386 -100t134 -301q0 -134 -44 -223.5t-109 -143.5t-129 -82l264 -612h-426l-195 532h-73l-113 -532h-391zM600 829h51q39 0 76 11.5t66.5 36t47 64t17.5 95.5q0 53 -30 90t-105 37h-53zM643 1571q-20 45 -51 101t-64.5 110t-64.5 94v23h266
q23 -19 52 -52t57.5 -66t46.5 -56q57 44 116.5 89t122.5 85h275v-23q-51 -43 -108 -97.5t-109 -109t-92 -98.5h-447z" />
    <glyph glyph-name="rcaron" unicode="&#x159;" horiz-adv-x="895" 
d="M23 0l239 1133h309l-18 -189h8q47 80 96 125.5t108.5 64.5t135.5 19q22 0 46.5 -2.5t33.5 -5.5l-84 -383q-22 9 -54 15.5t-69 6.5q-45 0 -84.5 -14.5t-72 -47t-58 -88t-43.5 -136.5l-106 -498h-387zM416 1241q-20 45 -51 101t-64.5 110t-64.5 94v23h266q23 -19 52 -52
t57.5 -66t46.5 -56q57 44 116.5 89t122.5 85h275v-23q-51 -43 -108 -97.5t-109 -109t-92 -98.5h-447z" />
    <glyph glyph-name="Sacute" unicode="&#x15a;" horiz-adv-x="1122" 
d="M420 -20q-109 0 -207.5 25t-169.5 71v350q80 -49 188.5 -87t200.5 -38q37 0 65 8t47 23t28.5 37.5t9.5 50.5q0 37 -22 69t-59.5 63.5t-82.5 68.5q-67 55 -117.5 115t-78 131.5t-27.5 160.5q0 99 37 182t105.5 144.5t164 95t211.5 33.5q118 0 228.5 -28t201.5 -79
l-135 -297q-70 35 -146.5 61.5t-144.5 26.5q-42 0 -68 -10.5t-40 -27t-19.5 -35.5t-5.5 -37q0 -31 13.5 -59.5t48.5 -63t99 -82.5q81 -60 132.5 -122t75.5 -130.5t24 -150.5q0 -109 -37 -196t-108 -148t-174.5 -93t-237.5 -32zM555 1571v23q48 39 98.5 91t98.5 108.5
t86 105.5h438v-15q-22 -27 -74.5 -69.5t-118 -89t-130.5 -87.5t-113 -67h-285z" />
    <glyph glyph-name="sacute" unicode="&#x15b;" horiz-adv-x="1028" 
d="M387 -20q-113 0 -201.5 16t-154.5 47v311q92 -50 171 -70t160 -20q24 0 56 4.5t56 19.5t24 46q0 23 -10.5 41.5t-43.5 42t-102 61.5q-70 39 -115 85t-66.5 102.5t-21.5 128.5q0 107 50 187.5t153.5 125.5t261.5 45q111 0 204 -26.5t179 -79.5l-121 -252
q-56 37 -127.5 65.5t-130.5 28.5q-35 0 -55.5 -17t-20.5 -51q0 -19 13.5 -35t43.5 -32.5t77 -40.5q77 -38 126.5 -86t74 -106t24.5 -128q0 -140 -62 -231.5t-175 -136.5t-267 -45zM413 1241v23q48 39 98.5 91t98.5 108.5t86 105.5h438v-15q-22 -27 -74.5 -69.5t-118 -89
t-130.5 -87.5t-113 -67h-285z" />
    <glyph glyph-name="Scircumflex" unicode="&#x15c;" horiz-adv-x="1122" 
d="M420 -20q-109 0 -207.5 25t-169.5 71v350q80 -49 188.5 -87t200.5 -38q37 0 65 8t47 23t28.5 37.5t9.5 50.5q0 37 -22 69t-59.5 63.5t-82.5 68.5q-67 55 -117.5 115t-78 131.5t-27.5 160.5q0 99 37 182t105.5 144.5t164 95t211.5 33.5q118 0 228.5 -28t201.5 -79
l-135 -297q-70 35 -146.5 61.5t-144.5 26.5q-42 0 -68 -10.5t-40 -27t-19.5 -35.5t-5.5 -37q0 -31 13.5 -59.5t48.5 -63t99 -82.5q81 -60 132.5 -122t75.5 -130.5t24 -150.5q0 -109 -37 -196t-108 -148t-174.5 -93t-237.5 -32zM272 1571v23q48 43 104.5 97.5t111 109
t94.5 98.5h446q21 -45 51.5 -101t64.5 -110t64 -94v-23h-266q-22 20 -51.5 52.5t-57.5 66t-47 55.5q-56 -44 -116 -89t-123 -85h-275z" />
    <glyph glyph-name="scircumflex" unicode="&#x15d;" horiz-adv-x="1028" 
d="M387 -20q-113 0 -201.5 16t-154.5 47v311q92 -50 171 -70t160 -20q24 0 56 4.5t56 19.5t24 46q0 23 -10.5 41.5t-43.5 42t-102 61.5q-70 39 -115 85t-66.5 102.5t-21.5 128.5q0 107 50 187.5t153.5 125.5t261.5 45q111 0 204 -26.5t179 -79.5l-121 -252
q-56 37 -127.5 65.5t-130.5 28.5q-35 0 -55.5 -17t-20.5 -51q0 -19 13.5 -35t43.5 -32.5t77 -40.5q77 -38 126.5 -86t74 -106t24.5 -128q0 -140 -62 -231.5t-175 -136.5t-267 -45zM131 1241v23q48 43 104.5 97.5t111 109t94.5 98.5h446q21 -45 51.5 -101t64.5 -110t64 -94
v-23h-266q-22 20 -51.5 52.5t-57.5 66t-47 55.5q-56 -44 -116 -89t-123 -85h-275z" />
    <glyph glyph-name="Scedilla" unicode="&#x15e;" horiz-adv-x="1122" 
d="M420 -20q-109 0 -207.5 25t-169.5 71v350q80 -49 188.5 -87t200.5 -38q37 0 65 8t47 23t28.5 37.5t9.5 50.5q0 37 -22 69t-59.5 63.5t-82.5 68.5q-67 55 -117.5 115t-78 131.5t-27.5 160.5q0 99 37 182t105.5 144.5t164 95t211.5 33.5q118 0 228.5 -28t201.5 -79
l-135 -297q-70 35 -146.5 61.5t-144.5 26.5q-42 0 -68 -10.5t-40 -27t-19.5 -35.5t-5.5 -37q0 -31 13.5 -59.5t48.5 -63t99 -82.5q81 -60 132.5 -122t75.5 -130.5t24 -150.5q0 -109 -37 -196t-108 -148t-174.5 -93t-237.5 -32zM350 -492q-61 0 -108 8t-84 21v205
q34 -10 83.5 -18.5t67.5 -8.5q22 0 37 5t23 15.5t8 28.5q0 28 -26.5 55t-118.5 46l75 135h205l-24 -41q78 -16 128 -61t50 -134q0 -80 -37 -137.5t-107.5 -88t-171.5 -30.5z" />
    <glyph glyph-name="scedilla" unicode="&#x15f;" horiz-adv-x="1028" 
d="M387 -20q-113 0 -201.5 16t-154.5 47v311q92 -50 171 -70t160 -20q24 0 56 4.5t56 19.5t24 46q0 23 -10.5 41.5t-43.5 42t-102 61.5q-70 39 -115 85t-66.5 102.5t-21.5 128.5q0 107 50 187.5t153.5 125.5t261.5 45q111 0 204 -26.5t179 -79.5l-121 -252
q-56 37 -127.5 65.5t-130.5 28.5q-35 0 -55.5 -17t-20.5 -51q0 -19 13.5 -35t43.5 -32.5t77 -40.5q77 -38 126.5 -86t74 -106t24.5 -128q0 -140 -62 -231.5t-175 -136.5t-267 -45zM307 -492q-61 0 -108 8t-84 21v205q34 -10 83.5 -18.5t67.5 -8.5q22 0 37 5t23 15.5t8 28.5
q0 28 -26.5 55t-118.5 46l75 135h205l-24 -41q78 -16 128 -61t50 -134q0 -80 -37 -137.5t-107.5 -88t-171.5 -30.5z" />
    <glyph glyph-name="Scaron" unicode="&#x160;" horiz-adv-x="1122" 
d="M420 -20q-109 0 -207.5 25t-169.5 71v350q80 -49 188.5 -87t200.5 -38q37 0 65 8t47 23t28.5 37.5t9.5 50.5q0 37 -22 69t-59.5 63.5t-82.5 68.5q-67 55 -117.5 115t-78 131.5t-27.5 160.5q0 99 37 182t105.5 144.5t164 95t211.5 33.5q118 0 228.5 -28t201.5 -79
l-135 -297q-70 35 -146.5 61.5t-144.5 26.5q-42 0 -68 -10.5t-40 -27t-19.5 -35.5t-5.5 -37q0 -31 13.5 -59.5t48.5 -63t99 -82.5q81 -60 132.5 -122t75.5 -130.5t24 -150.5q0 -109 -37 -196t-108 -148t-174.5 -93t-237.5 -32zM530 1571q-20 45 -51 101t-64.5 110t-64.5 94
v23h266q23 -19 52 -52t57.5 -66t46.5 -56q57 44 116.5 89t122.5 85h275v-23q-51 -43 -108 -97.5t-109 -109t-92 -98.5h-447z" />
    <glyph glyph-name="scaron" unicode="&#x161;" horiz-adv-x="1028" 
d="M387 -20q-113 0 -201.5 16t-154.5 47v311q92 -50 171 -70t160 -20q24 0 56 4.5t56 19.5t24 46q0 23 -10.5 41.5t-43.5 42t-102 61.5q-70 39 -115 85t-66.5 102.5t-21.5 128.5q0 107 50 187.5t153.5 125.5t261.5 45q111 0 204 -26.5t179 -79.5l-121 -252
q-56 37 -127.5 65.5t-130.5 28.5q-35 0 -55.5 -17t-20.5 -51q0 -19 13.5 -35t43.5 -32.5t77 -40.5q77 -38 126.5 -86t74 -106t24.5 -128q0 -140 -62 -231.5t-175 -136.5t-267 -45zM389 1241q-20 45 -51 101t-64.5 110t-64.5 94v23h266q23 -19 52 -52t57.5 -66t46.5 -56
q57 44 116.5 89t122.5 85h275v-23q-51 -43 -108 -97.5t-109 -109t-92 -98.5h-447z" />
    <glyph glyph-name="uni0162" unicode="&#x162;" horiz-adv-x="1130" 
d="M236 0l237 1139h-317l69 323h1028l-71 -323h-318l-237 -1139h-391zM358 -492q-61 0 -108 8t-84 21v205q34 -10 83.5 -18.5t67.5 -8.5q22 0 37 5t23 15.5t8 28.5q0 28 -26.5 55t-118.5 46l75 135h205l-24 -41q78 -16 128 -61t50 -134q0 -80 -37 -137.5t-107.5 -88
t-171.5 -30.5z" />
    <glyph glyph-name="uni0163" unicode="&#x163;" horiz-adv-x="936" 
d="M410 -20q-148 0 -224.5 63.5t-76.5 208.5q0 41 7.5 94t16.5 94l84 402h-154l41 190l218 88l137 240h258l-49 -227h288l-63 -291h-289l-84 -383q-6 -29 -11 -58.5t-5 -46.5q0 -34 17.5 -48.5t45.5 -14.5q38 0 86 13.5t97 33.5v-291q-63 -31 -146.5 -49t-193.5 -18z
M319 -492q-61 0 -108 8t-84 21v205q34 -10 83.5 -18.5t67.5 -8.5q22 0 37 5t23 15.5t8 28.5q0 28 -26.5 55t-118.5 46l75 135h205l-24 -41q78 -16 128 -61t50 -134q0 -80 -37 -137.5t-107.5 -88t-171.5 -30.5z" />
    <glyph glyph-name="Tcaron" unicode="&#x164;" horiz-adv-x="1130" 
d="M236 0l237 1139h-317l69 323h1028l-71 -323h-318l-237 -1139h-391zM551 1571q-20 45 -51 101t-64.5 110t-64.5 94v23h266q23 -19 52 -52t57.5 -66t46.5 -56q57 44 116.5 89t122.5 85h275v-23q-51 -43 -108 -97.5t-109 -109t-92 -98.5h-447z" />
    <glyph glyph-name="tcaron" unicode="&#x165;" horiz-adv-x="936" 
d="M410 -20q-148 0 -224.5 63.5t-76.5 208.5q0 41 7.5 94t16.5 94l84 402h-154l41 190l218 88l137 240h258l-49 -227h288l-63 -291h-289l-84 -383q-6 -29 -11 -58.5t-5 -46.5q0 -34 17.5 -48.5t45.5 -14.5q38 0 86 13.5t97 33.5v-291q-63 -31 -146.5 -49t-193.5 -18z
M784 1229v26q18 44 38 97.5t39.5 106.5t33.5 97h362v-20q-33 -54 -70 -104t-78 -99.5t-87 -103.5h-238z" />
    <glyph glyph-name="Tbar" unicode="&#x166;" horiz-adv-x="1130" 
d="M236 0l112 543h-205l68 319h205l57 277h-317l69 323h1028l-71 -323h-318l-57 -277h207l-70 -319h-205l-112 -543h-391z" />
    <glyph glyph-name="tbar" unicode="&#x167;" horiz-adv-x="936" 
d="M414 -20q-148 0 -230 56.5t-82 201.5q0 29 4.5 64t10.5 67l14 73h-108l51 242h108l35 156h-154l41 192l218 88l135 238h258l-47 -225h288l-63 -293h-289l-35 -156h248l-51 -242h-250l-2 -14q-6 -29 -10 -51t-4 -39q0 -34 17.5 -41.5t45.5 -7.5q31 0 82 11.5t100 31.5
v-287q-62 -31 -141.5 -48t-189.5 -17z" />
    <glyph glyph-name="Utilde" unicode="&#x168;" horiz-adv-x="1436" 
d="M610 -20q-152 0 -261 54.5t-166.5 150.5t-57.5 218q0 31 3 67.5t9 68.5l199 923h391l-195 -913q-6 -29 -10 -59t-4 -56q0 -60 33 -93.5t96 -33.5q59 0 100.5 26t71 83.5t49.5 152.5l191 893h391l-199 -932q-37 -178 -113 -300.5t-204 -186t-324 -63.5zM491 1567
q23 124 67 199t106.5 109t140.5 34q44 0 81 -15t71 -34t67 -34t67 -15q35 0 65.5 24.5t49.5 75.5h190q-25 -126 -70 -201t-108 -108t-143 -33q-48 0 -88.5 15t-75.5 34t-68 34t-67 15q-31 0 -60.5 -27t-35.5 -73h-189z" />
    <glyph glyph-name="utilde" unicode="&#x169;" horiz-adv-x="1274" 
d="M395 -20q-105 0 -171 44t-97 117t-31 160q0 57 7 116.5t18 112.5l127 603h387l-129 -617q-6 -26 -12.5 -66t-6.5 -75q0 -43 22.5 -64.5t53.5 -21.5q34 0 68.5 31t65 96t51.5 166l116 551h387l-239 -1133h-310l13 158h-8q-37 -63 -82 -102.5t-101.5 -57.5t-128.5 -18z
M350 1237q23 124 67 199t106.5 109t140.5 34q44 0 81 -15t71 -34t67 -34t67 -15q35 0 65.5 24.5t49.5 75.5h190q-25 -126 -70 -201t-108 -108t-143 -33q-48 0 -88.5 15t-75.5 34t-68 34t-67 15q-31 0 -60.5 -27t-35.5 -73h-189z" />
    <glyph glyph-name="Umacron" unicode="&#x16a;" horiz-adv-x="1436" 
d="M610 -20q-152 0 -261 54.5t-166.5 150.5t-57.5 218q0 31 3 67.5t9 68.5l199 923h391l-195 -913q-6 -29 -10 -59t-4 -56q0 -60 33 -93.5t96 -33.5q59 0 100.5 26t71 83.5t49.5 152.5l191 893h391l-199 -932q-37 -178 -113 -300.5t-204 -186t-324 -63.5zM559 1571l51 236
h666l-49 -236h-668z" />
    <glyph glyph-name="umacron" unicode="&#x16b;" horiz-adv-x="1274" 
d="M395 -20q-105 0 -171 44t-97 117t-31 160q0 57 7 116.5t18 112.5l127 603h387l-129 -617q-6 -26 -12.5 -66t-6.5 -75q0 -43 22.5 -64.5t53.5 -21.5q34 0 68.5 31t65 96t51.5 166l116 551h387l-239 -1133h-310l13 158h-8q-37 -63 -82 -102.5t-101.5 -57.5t-128.5 -18z
M418 1241l51 236h666l-49 -236h-668z" />
    <glyph glyph-name="Ubreve" unicode="&#x16c;" horiz-adv-x="1436" 
d="M610 -20q-152 0 -261 54.5t-166.5 150.5t-57.5 218q0 31 3 67.5t9 68.5l199 923h391l-195 -913q-6 -29 -10 -59t-4 -56q0 -60 33 -93.5t96 -33.5q59 0 100.5 26t71 83.5t49.5 152.5l191 893h391l-199 -932q-37 -178 -113 -300.5t-204 -186t-324 -63.5zM899 1571
q-114 0 -193.5 39t-121 110t-41.5 166q0 19 2.5 34t5.5 22h217q0 -43 20.5 -71.5t57.5 -43t86 -14.5q65 0 120 24.5t81 104.5h221q-31 -181 -139 -276t-316 -95z" />
    <glyph glyph-name="ubreve" unicode="&#x16d;" horiz-adv-x="1274" 
d="M395 -20q-105 0 -171 44t-97 117t-31 160q0 57 7 116.5t18 112.5l127 603h387l-129 -617q-6 -26 -12.5 -66t-6.5 -75q0 -43 22.5 -64.5t53.5 -21.5q34 0 68.5 31t65 96t51.5 166l116 551h387l-239 -1133h-310l13 158h-8q-37 -63 -82 -102.5t-101.5 -57.5t-128.5 -18z
M757 1241q-114 0 -193.5 39t-121 110t-41.5 166q0 19 2.5 34t5.5 22h217q0 -43 20.5 -71.5t57.5 -43t86 -14.5q65 0 120 24.5t81 104.5h221q-31 -181 -139 -276t-316 -95z" />
    <glyph glyph-name="Uring" unicode="&#x16e;" horiz-adv-x="1436" 
d="M610 -20q-152 0 -261 54.5t-166.5 150.5t-57.5 218q0 31 3 67.5t9 68.5l199 923h391l-195 -913q-6 -29 -10 -59t-4 -56q0 -60 33 -93.5t96 -33.5q59 0 100.5 26t71 83.5t49.5 152.5l191 893h391l-199 -932q-37 -178 -113 -300.5t-204 -186t-324 -63.5zM922 1567
q-118 0 -193 67.5t-75 184.5q0 119 75 186.5t193 67.5q112 0 190 -67.5t78 -184.5q0 -118 -77 -186t-191 -68zM922 1735q35 0 61.5 23.5t26.5 60.5q0 38 -26.5 62t-61.5 24t-61.5 -24t-26.5 -62q0 -37 23.5 -60.5t64.5 -23.5z" />
    <glyph glyph-name="uring" unicode="&#x16f;" horiz-adv-x="1274" 
d="M395 -20q-105 0 -171 44t-97 117t-31 160q0 57 7 116.5t18 112.5l127 603h387l-129 -617q-6 -26 -12.5 -66t-6.5 -75q0 -43 22.5 -64.5t53.5 -21.5q34 0 68.5 31t65 96t51.5 166l116 551h387l-239 -1133h-310l13 158h-8q-37 -63 -82 -102.5t-101.5 -57.5t-128.5 -18z
M780 1237q-118 0 -193 67.5t-75 184.5q0 119 75 186.5t193 67.5q112 0 190 -67.5t78 -184.5q0 -118 -77 -186t-191 -68zM780 1405q35 0 61.5 23.5t26.5 60.5q0 38 -26.5 62t-61.5 24t-61.5 -24t-26.5 -62q0 -37 23.5 -60.5t64.5 -23.5z" />
    <glyph glyph-name="Uhungarumlaut" unicode="&#x170;" horiz-adv-x="1436" 
d="M610 -20q-152 0 -261 54.5t-166.5 150.5t-57.5 218q0 31 3 67.5t9 68.5l199 923h391l-195 -913q-6 -29 -10 -59t-4 -56q0 -60 33 -93.5t96 -33.5q59 0 100.5 26t71 83.5t49.5 152.5l191 893h391l-199 -932q-37 -178 -113 -300.5t-204 -186t-324 -63.5zM1026 1571v29
q29 39 68 91.5t77 107t62 100.5h373v-21q-16 -27 -61 -67.5t-103.5 -85.5t-115.5 -86t-97 -68h-203zM563 1571v29q32 39 72.5 91.5t79.5 107t66 100.5h370v-21q-16 -27 -62.5 -67.5t-106.5 -85.5t-118.5 -86t-97.5 -68h-203z" />
    <glyph glyph-name="uhungarumlaut" unicode="&#x171;" horiz-adv-x="1274" 
d="M395 -20q-105 0 -171 44t-97 117t-31 160q0 57 7 116.5t18 112.5l127 603h387l-129 -617q-6 -26 -12.5 -66t-6.5 -75q0 -43 22.5 -64.5t53.5 -21.5q34 0 68.5 31t65 96t51.5 166l116 551h387l-239 -1133h-310l13 158h-8q-37 -63 -82 -102.5t-101.5 -57.5t-128.5 -18z
M884 1241v29q29 39 68 91.5t77 107t62 100.5h373v-21q-16 -27 -61 -67.5t-103.5 -85.5t-115.5 -86t-97 -68h-203zM421 1241v29q32 39 72.5 91.5t79.5 107t66 100.5h370v-21q-16 -27 -62.5 -67.5t-106.5 -85.5t-118.5 -86t-97.5 -68h-203z" />
    <glyph glyph-name="Uogonek" unicode="&#x172;" horiz-adv-x="1436" 
d="M610 -20q-152 0 -261 54.5t-166.5 150.5t-57.5 218q0 31 3 67.5t9 68.5l199 923h391l-195 -913q-6 -29 -10 -59t-4 -56q0 -60 33 -93.5t96 -33.5q59 0 100.5 26t71 83.5t49.5 152.5l191 893h391l-199 -932q-37 -178 -113 -300.5t-204 -186t-324 -63.5zM584 -524
q-121 0 -185.5 63t-64.5 152q0 69 28 123t77 99.5t112 86.5h252q-53 -44 -96.5 -83t-69 -78.5t-25.5 -84.5q0 -19 14 -35t39 -16q32 0 59 7t58 18v-222q-44 -13 -88.5 -21.5t-109.5 -8.5z" />
    <glyph glyph-name="uogonek" unicode="&#x173;" horiz-adv-x="1274" 
d="M395 -20q-105 0 -171 44t-97 117t-31 160q0 57 7 116.5t18 112.5l127 603h387l-129 -617q-6 -26 -12.5 -66t-6.5 -75q0 -43 22.5 -64.5t53.5 -21.5q34 0 68.5 31t65 96t51.5 166l116 551h387l-239 -1133h-310l13 158h-8q-37 -63 -82 -102.5t-101.5 -57.5t-128.5 -18z
M725 -524q-121 0 -185.5 63t-64.5 152q0 69 28 123t77 99.5t112 86.5h252q-53 -44 -96.5 -83t-69 -78.5t-25.5 -84.5q0 -19 14 -35t39 -16q32 0 59 7t58 18v-222q-44 -13 -88.5 -21.5t-109.5 -8.5z" />
    <glyph glyph-name="Wcircumflex" unicode="&#x174;" horiz-adv-x="1915" 
d="M201 0l-49 1462h370l-10 -733q-1 -88 -5.5 -182t-12.5 -162h8q21 68 54 150t65 155l335 772h336v-792q0 -51 -2 -140t-8 -161h8q16 53 39 123t48.5 141.5t47.5 128.5l277 700h387l-635 -1462h-461v561q0 53 1.5 109t4.5 113t7 112h-9q-31 -95 -65 -185.5t-72 -179.5
l-225 -530h-434zM655 1571v23q48 43 104.5 97.5t111 109t94.5 98.5h446q21 -45 51.5 -101t64.5 -110t64 -94v-23h-266q-22 20 -51.5 52.5t-57.5 66t-47 55.5q-56 -44 -116 -89t-123 -85h-275z" />
    <glyph glyph-name="wcircumflex" unicode="&#x175;" horiz-adv-x="1686" 
d="M168 0l-66 1133h365v-553q0 -55 -3.5 -112.5t-8.5 -105.5h8q8 33 18 66.5t20.5 66t20.5 60.5l217 578h408l-29 -558q-1 -30 -3.5 -87.5t-10.5 -125.5h8q13 41 24.5 77t24 70.5t27.5 72.5l227 551h385l-538 -1133h-422l14 449q2 52 5.5 117.5t8.5 132t11 120.5h-9
q-14 -56 -33.5 -117.5t-39 -118.5t-35.5 -98l-187 -485h-407zM469 1241v23q48 43 104.5 97.5t111 109t94.5 98.5h446q21 -45 51.5 -101t64.5 -110t64 -94v-23h-266q-22 20 -51.5 52.5t-57.5 66t-47 55.5q-56 -44 -116 -89t-123 -85h-275z" />
    <glyph glyph-name="Ycircumflex" unicode="&#x176;" horiz-adv-x="1237" 
d="M281 0l120 567l-237 895h403l90 -542l312 542h436l-612 -895l-121 -567h-391zM297 1571v23q48 43 104.5 97.5t111 109t94.5 98.5h446q21 -45 51.5 -101t64.5 -110t64 -94v-23h-266q-22 20 -51.5 52.5t-57.5 66t-47 55.5q-56 -44 -116 -89t-123 -85h-275z" />
    <glyph glyph-name="ycircumflex" unicode="&#x177;" horiz-adv-x="1114" 
d="M25 -492q-58 0 -95 5.5t-59 11.5v307q19 -4 47 -8t62 -4q89 0 143.5 37.5t97.5 113.5l23 41l-162 1121h389l39 -521q3 -34 3.5 -66.5t0 -63t-1.5 -60.5h8q10 31 22 66.5t25 69.5t23 58l223 517h416l-670 -1276q-61 -118 -136 -195.5t-172 -115.5t-226 -38zM180 1241v23
q48 43 104.5 97.5t111 109t94.5 98.5h446q21 -45 51.5 -101t64.5 -110t64 -94v-23h-266q-22 20 -51.5 52.5t-57.5 66t-47 55.5q-56 -44 -116 -89t-123 -85h-275z" />
    <glyph glyph-name="Ydieresis" unicode="&#x178;" horiz-adv-x="1237" 
d="M281 0l120 567l-237 895h403l90 -542l312 542h436l-612 -895l-121 -567h-391zM1036 1587q-73 0 -121.5 26t-48.5 101q0 99 53 143t148 44q62 0 115 -23.5t53 -101.5q0 -85 -43 -137t-156 -52zM549 1587q-73 0 -121.5 26t-48.5 101q0 99 53 143t148 44q41 0 80 -9.5
t64.5 -36.5t25.5 -79q0 -85 -44.5 -137t-156.5 -52z" />
    <glyph glyph-name="Zacute" unicode="&#x179;" horiz-adv-x="1104" 
d="M-92 0l47 242l690 901h-479l67 319h986l-52 -245l-700 -898h543l-68 -319h-1034zM571 1571v23q48 39 98.5 91t98.5 108.5t86 105.5h438v-15q-22 -27 -74.5 -69.5t-118 -89t-130.5 -87.5t-113 -67h-285z" />
    <glyph glyph-name="zacute" unicode="&#x17a;" horiz-adv-x="993" 
d="M-41 0l43 221l502 613h-348l67 299h811l-53 -242l-496 -592h383l-65 -299h-844zM440 1241v23q48 39 98.5 91t98.5 108.5t86 105.5h438v-15q-22 -27 -74.5 -69.5t-118 -89t-130.5 -87.5t-113 -67h-285z" />
    <glyph glyph-name="Zdotaccent" unicode="&#x17b;" horiz-adv-x="1104" 
d="M-92 0l47 242l690 901h-479l67 319h986l-52 -245l-700 -898h543l-68 -319h-1034zM781 1571q-82 0 -136.5 29.5t-54.5 111.5q0 111 60 160t167 49q47 0 90.5 -11.5t72 -41.5t28.5 -88q0 -92 -49.5 -150.5t-177.5 -58.5z" />
    <glyph glyph-name="zdotaccent" unicode="&#x17c;" horiz-adv-x="993" 
d="M-41 0l43 221l502 613h-348l67 299h811l-53 -242l-496 -592h383l-65 -299h-844zM650 1241q-82 0 -136.5 29.5t-54.5 111.5q0 111 60 160t167 49q47 0 90.5 -11.5t72 -41.5t28.5 -88q0 -92 -49.5 -150.5t-177.5 -58.5z" />
    <glyph glyph-name="Zcaron" unicode="&#x17d;" horiz-adv-x="1104" 
d="M-92 0l47 242l690 901h-479l67 319h986l-52 -245l-700 -898h543l-68 -319h-1034zM547 1571q-20 45 -51 101t-64.5 110t-64.5 94v23h266q23 -19 52 -52t57.5 -66t46.5 -56q57 44 116.5 89t122.5 85h275v-23q-51 -43 -108 -97.5t-109 -109t-92 -98.5h-447z" />
    <glyph glyph-name="zcaron" unicode="&#x17e;" horiz-adv-x="993" 
d="M-41 0l43 221l502 613h-348l67 299h811l-53 -242l-496 -592h383l-65 -299h-844zM416 1241q-20 45 -51 101t-64.5 110t-64.5 94v23h266q23 -19 52 -52t57.5 -66t46.5 -56q57 44 116.5 89t122.5 85h275v-23q-51 -43 -108 -97.5t-109 -109t-92 -98.5h-447z" />
    <glyph glyph-name="longs" unicode="&#x17f;" horiz-adv-x="752" 
d="M-37 -492q-54 0 -113 8.5t-94 18.5v303q28 -7 58.5 -12.5t58.5 -5.5q74 0 112 30.5t52 94.5l272 1257q28 128 83.5 208.5t140 118.5t198.5 38q80 0 155.5 -16t127.5 -42l-107 -284q-29 14 -59 22t-62 8q-25 0 -46 -11.5t-36 -34t-22 -54.5l-272 -1272q-24 -108 -76 -193
t-142 -133.5t-229 -48.5z" />
    <glyph glyph-name="florin" unicode="&#x192;" horiz-adv-x="1188" 
d="M154 -492q-54 0 -113 8.5t-94 18.5v307q37 -12 63 -15t53 -3q60 0 106.5 28t59.5 97l166 788h-151l39 203l178 90l20 88q31 133 90 213t146 116t203 36q81 0 143.5 -14.5t122.5 -43.5l-105 -282q-29 14 -58.5 23.5t-70.5 9.5q-40 0 -60 -19.5t-26 -44.5l-18 -78h209
l-66 -297h-207l-182 -854q-19 -94 -69 -180t-142 -140.5t-237 -54.5z" />
    <glyph glyph-name="Ohorn" unicode="&#x1a0;" horiz-adv-x="1645" 
d="M666 -20q-187 0 -311.5 70t-187.5 196.5t-63 296.5q0 114 21 227t64 218.5t108 195.5t153 157.5t199.5 105.5t247.5 38q154 0 266.5 -52.5t179.5 -146.5q25 32 62.5 102.5t52.5 167.5h379l12 -26q-63 -193 -171.5 -303.5t-243.5 -163.5q6 -34 9 -69t3 -72
q0 -114 -20.5 -227.5t-62 -219t-105.5 -195.5t-150.5 -157.5t-196.5 -105t-245 -37.5zM700 303q49 0 94 22t84.5 62.5t71 97t54.5 125t35 146.5t12 162q0 113 -48 178t-139 65q-55 0 -103 -25t-88.5 -69t-72.5 -103t-54.5 -128t-34 -143t-11.5 -148q0 -79 22.5 -133
t67 -81.5t110.5 -27.5z" />
    <glyph glyph-name="ohorn" unicode="&#x1a1;" horiz-adv-x="1448" 
d="M520 -20q-139 0 -236.5 51t-148.5 148.5t-51 236.5q0 116 26 224.5t78 201.5t129 163t178.5 109t227.5 39q117 0 205 -37t143 -106q52 21 84 68.5t51 107t29 114.5h364l13 -24q-35 -124 -89.5 -218t-143 -160t-224.5 -107q2 -19 3 -37.5t1 -36.5q0 -116 -26 -224.5
t-78 -201.5t-129 -163t-178.5 -109t-227.5 -39zM563 270q34 0 64.5 26t55.5 71.5t43 104t28 124.5t10 133q0 44 -10.5 73.5t-29.5 44.5t-46 15q-34 0 -64.5 -26t-55 -71t-42.5 -103.5t-27.5 -125t-9.5 -133.5q0 -66 22 -99.5t62 -33.5z" />
    <glyph glyph-name="Uhorn" unicode="&#x1af;" horiz-adv-x="1659" 
d="M575 -20q-142 0 -242.5 57.5t-154 155t-53.5 217.5q0 31 3 64t9 65l199 923h391l-195 -913q-6 -29 -10 -59t-4 -56q0 -60 29 -93.5t92 -33.5q59 0 102.5 26t75 83.5t51.5 152.5l191 893h391l-37 -176q56 21 89 58t50 90.5t23 121.5h379l12 -26q-31 -88 -77 -171.5
t-115.5 -151t-170 -109t-241.5 -45.5l-111 -523q-37 -178 -120 -300.5t-219.5 -186t-336.5 -63.5z" />
    <glyph glyph-name="uhorn" unicode="&#x1b0;" horiz-adv-x="1573" 
d="M395 -20q-105 0 -171 44t-97 117t-31 160q0 57 7 116.5t18 112.5l127 603h387l-129 -617q-6 -26 -12.5 -66t-6.5 -75q0 -43 22.5 -64.5t53.5 -21.5q34 0 68.5 31t65 96t51.5 166l116 551h387l-22 -101q57 18 87 52t45.5 87.5t27.5 126.5h380l13 -26q-31 -88 -76.5 -171.5
t-115 -151t-170 -108.5t-240.5 -46l-168 -795h-310l13 158h-8q-37 -63 -82 -102.5t-101.5 -57.5t-128.5 -18z" />
    <glyph glyph-name="uni01EA" unicode="&#x1ea;" horiz-adv-x="1509" 
d="M666 -20q-187 0 -311.5 70t-187.5 196.5t-63 296.5q0 114 21 227t64 218.5t108 195.5t153 157.5t199.5 105.5t247.5 38q270 0 409.5 -154t139.5 -409q0 -114 -20.5 -227.5t-62 -219t-105.5 -195.5t-150.5 -157.5t-196.5 -105t-245 -37.5zM700 303q49 0 94 22t84.5 62.5
t71 97t54.5 125t35 146.5t12 162q0 113 -48 178t-139 65q-55 0 -103 -25t-88.5 -69t-72.5 -103t-54.5 -128t-34 -143t-11.5 -148q0 -79 22.5 -133t67 -81.5t110.5 -27.5zM611 -524q-121 0 -185.5 63t-64.5 152q0 69 28 123t77 99.5t112 86.5h252q-53 -44 -96.5 -83
t-69 -78.5t-25.5 -84.5q0 -19 14 -35t39 -16q32 0 59 7t58 18v-222q-44 -13 -88.5 -21.5t-109.5 -8.5z" />
    <glyph glyph-name="uni01EB" unicode="&#x1eb;" 
d="M520 -20q-139 0 -236.5 51t-148.5 148.5t-51 236.5q0 116 26 224.5t78 201.5t129 163t178.5 109t227.5 39q139 0 236.5 -51t148.5 -148.5t51 -236.5q0 -116 -26 -224.5t-78 -201.5t-129 -163t-178.5 -109t-227.5 -39zM563 270q34 0 64.5 26t55.5 71.5t43 104t28 124.5
t10 133q0 44 -10.5 73.5t-29.5 44.5t-46 15q-34 0 -64.5 -26t-55 -71t-42.5 -103.5t-27.5 -125t-9.5 -133.5q0 -66 22 -99.5t62 -33.5zM447 -524q-121 0 -185.5 63t-64.5 152q0 69 28 123t77 99.5t112 86.5h252q-53 -44 -96.5 -83t-69 -78.5t-25.5 -84.5q0 -19 14 -35
t39 -16q32 0 59 7t58 18v-222q-44 -13 -88.5 -21.5t-109.5 -8.5z" />
    <glyph glyph-name="uni01EC" unicode="&#x1ec;" horiz-adv-x="1509" 
d="M666 -20q-187 0 -311.5 70t-187.5 196.5t-63 296.5q0 114 21 227t64 218.5t108 195.5t153 157.5t199.5 105.5t247.5 38q270 0 409.5 -154t139.5 -409q0 -114 -20.5 -227.5t-62 -219t-105.5 -195.5t-150.5 -157.5t-196.5 -105t-245 -37.5zM700 303q49 0 94 22t84.5 62.5
t71 97t54.5 125t35 146.5t12 162q0 113 -48 178t-139 65q-55 0 -103 -25t-88.5 -69t-72.5 -103t-54.5 -128t-34 -143t-11.5 -148q0 -79 22.5 -133t67 -81.5t110.5 -27.5zM606 1571l51 236h666l-49 -236h-668zM611 -524q-121 0 -185.5 63t-64.5 152q0 69 28 123t77 99.5
t112 86.5h252q-53 -44 -96.5 -83t-69 -78.5t-25.5 -84.5q0 -19 14 -35t39 -16q32 0 59 7t58 18v-222q-44 -13 -88.5 -21.5t-109.5 -8.5z" />
    <glyph glyph-name="uni01ED" unicode="&#x1ed;" 
d="M520 -20q-139 0 -236.5 51t-148.5 148.5t-51 236.5q0 116 26 224.5t78 201.5t129 163t178.5 109t227.5 39q139 0 236.5 -51t148.5 -148.5t51 -236.5q0 -116 -26 -224.5t-78 -201.5t-129 -163t-178.5 -109t-227.5 -39zM563 270q34 0 64.5 26t55.5 71.5t43 104t28 124.5
t10 133q0 44 -10.5 73.5t-29.5 44.5t-46 15q-34 0 -64.5 -26t-55 -71t-42.5 -103.5t-27.5 -125t-9.5 -133.5q0 -66 22 -99.5t62 -33.5zM406 1241l51 236h666l-49 -236h-668zM447 -524q-121 0 -185.5 63t-64.5 152q0 69 28 123t77 99.5t112 86.5h252q-53 -44 -96.5 -83
t-69 -78.5t-25.5 -84.5q0 -19 14 -35t39 -16q32 0 59 7t58 18v-222q-44 -13 -88.5 -21.5t-109.5 -8.5z" />
    <glyph glyph-name="uni01F0" unicode="&#x1f0;" horiz-adv-x="666" 
d="M-57 -492q-54 0 -113 8.5t-94 18.5v303q37 -12 62 -15t50 -3q41 0 76.5 14.5t61.5 47t37 85.5l247 1166h387l-260 -1227q-21 -102 -73.5 -193t-145 -148t-235.5 -57zM244 1241q-20 45 -51 101t-64.5 110t-64.5 94v23h266q23 -19 52 -52t57.5 -66t46.5 -56q57 44 116.5 89
t122.5 85h275v-23q-51 -43 -108 -97.5t-109 -109t-92 -98.5h-447z" />
    <glyph glyph-name="Aringacute" unicode="&#x1fa;" horiz-adv-x="1384" 
d="M-121 0l744 1397q-7 20 -10 42.5t-3 47.5q0 119 75.5 186.5t193.5 67.5q112 0 190 -67.5t78 -184.5q0 -44 -17.5 -87.5t-42.5 -66.5l162 -1335h-381l-18 274h-440l-125 -274h-406zM553 586h285l-27 305q-1 46 -3.5 100t-2.5 111h-10q-13 -34 -27.5 -72t-22.5 -53z
M877 1403q35 0 62.5 23.5t27.5 60.5q0 38 -26.5 62t-61.5 24q-36 0 -62 -24t-26 -62q0 -37 22 -60.5t64 -23.5zM762 1792v10q31 22 68 50t72.5 57t60.5 53h426v-8q-50 -39 -114.5 -70t-127 -54t-107.5 -38h-278z" />
    <glyph glyph-name="aringacute" unicode="&#x1fb;" 
d="M406 -20q-87 0 -160.5 41t-117.5 135.5t-44 255.5q0 83 19.5 182t59 197.5t99.5 180.5t141.5 131.5t184.5 49.5q65 0 113.5 -20t85 -55.5t63.5 -84.5h8l53 140h310l-240 -1133h-309l10 123h-8q-30 -42 -67 -74t-85.5 -50.5t-115.5 -18.5zM565 291q44 0 81 40.5
t63.5 104.5t38.5 137q6 31 9 62.5t3 62.5q0 65 -20.5 104.5t-61.5 39.5q-32 0 -61.5 -23.5t-54.5 -64t-43.5 -93t-29 -110.5t-10.5 -117q0 -69 21.5 -106t64.5 -37zM756 1200q-118 0 -193.5 67.5t-75.5 184.5q0 119 75.5 186.5t193.5 67.5q112 0 190 -67.5t78 -184.5
q0 -118 -77.5 -186t-190.5 -68zM756 1368q35 0 61.5 23.5t26.5 60.5q0 38 -26.5 62t-61.5 24t-61.5 -24t-26.5 -62q0 -37 23 -60.5t65 -23.5zM676 1769v11q30 22 71.5 55.5t82 68t63.5 58.5h428v-12q-51 -39 -120 -75t-136 -63.5t-111 -42.5h-278z" />
    <glyph glyph-name="AEacute" unicode="&#x1fc;" horiz-adv-x="1937" 
d="M-125 0l909 1462h1213l-66 -317h-477l-47 -230h444l-71 -317h-445l-57 -276h477l-67 -322h-869l58 274h-418l-170 -274h-414zM662 602h286l113 543h-68zM979 1571v23q48 39 98.5 91t98.5 108.5t86 105.5h438v-15q-22 -27 -74.5 -69.5t-118 -89t-130.5 -87.5t-113 -67
h-285z" />
    <glyph glyph-name="aeacute" unicode="&#x1fd;" horiz-adv-x="1788" 
d="M406 -20q-87 0 -160.5 41t-117.5 135.5t-44 255.5q0 83 19.5 182t59 197.5t99.5 180.5t141.5 131.5t184.5 49.5q65 0 112 -18t83 -53.5t67 -88.5h8l53 140h207v-95q48 47 121 81t158 34q157 0 251.5 -86t94.5 -229q0 -94 -36 -170.5t-110 -131.5t-189 -84.5t-273 -29.5
h-60v-7.5v-8.5q0 -76 41 -112t123 -36q86 0 163 26t165 72v-274q-79 -46 -162.5 -74t-212.5 -28q-91 0 -156 28.5t-106 83.5l-31 -92h-227l10 123h-8q-30 -42 -67 -74t-85.5 -50.5t-115.5 -18.5zM565 291q33 0 62 23.5t53 63.5t41.5 90.5t26.5 104.5q6 31 8 62.5t2 62.5
q0 65 -23.5 104.5t-64.5 39.5q-32 0 -61 -23.5t-52.5 -64t-41 -93t-27 -110.5t-9.5 -117q0 -69 21.5 -106t64.5 -37zM1114 664h29q87 0 138 23t73 58t22 70q0 32 -20 54t-64 22q-45 0 -83 -35t-63 -87.5t-32 -104.5zM835 1241v23q48 39 98.5 91t98.5 108.5t86 105.5h438v-15
q-22 -27 -74.5 -69.5t-118 -89t-130.5 -87.5t-113 -67h-285z" />
    <glyph glyph-name="Oslashacute" unicode="&#x1fe;" horiz-adv-x="1509" 
d="M254 -86l-160 117l117 145q-54 71 -80.5 163.5t-26.5 203.5q0 114 21 227t63.5 218.5t106.5 195.5t150 157.5t194.5 105.5t239.5 38q95 0 173.5 -19t141.5 -53l92 115l156 -119l-99 -125q51 -70 77 -162.5t26 -199.5q0 -114 -21 -227.5t-63 -218.5t-105 -195t-148 -157.5
t-191 -105t-234 -38.5q-98 0 -178.5 17.5t-145.5 51.5zM700 303q51 0 96.5 20t84.5 57.5t70 89t53 114.5t33.5 135.5t11.5 150.5v24v21l-463 -583q23 -14 51 -21.5t63 -7.5zM502 539l465 589q-22 16 -51 24.5t-64 8.5q-51 0 -96.5 -21t-84.5 -60t-70 -92t-53.5 -117
t-34 -135.5t-11.5 -147.5v-24v-25zM766 1571v23q48 39 98.5 91t98.5 108.5t86 105.5h438v-15q-22 -27 -74.5 -69.5t-118 -89t-130.5 -87.5t-113 -67h-285z" />
    <glyph glyph-name="oslashacute" unicode="&#x1ff;" horiz-adv-x="1286" 
d="M193 -111l-127 109l112 131q-44 56 -69 126t-25 161q0 116 27 224.5t80.5 201.5t133 163t184 109t234.5 39q76 0 137 -15.5t113 -41.5l105 121l127 -109l-105 -123q38 -52 60 -118.5t22 -149.5q0 -116 -27 -224.5t-80 -201.5t-132 -163t-182.5 -109t-231.5 -39
q-70 0 -129 13.5t-109 35.5zM590 260q35 0 68 12.5t62 38.5t52 67t39 97.5t23 130.5q0 11 1 22t1 21l-318 -375q16 -7 33 -10.5t39 -3.5zM449 451l335 397q-16 14 -36.5 21.5t-45.5 7.5q-36 0 -70.5 -17t-65 -49.5t-55 -79.5t-40 -108t-20.5 -134q-1 -9 -1.5 -18t-0.5 -20z
M624 1241v23q48 39 98.5 91t98.5 108.5t86 105.5h438v-15q-22 -27 -74.5 -69.5t-118 -89t-130.5 -87.5t-113 -67h-285z" />
    <glyph glyph-name="uni0218" unicode="&#x218;" horiz-adv-x="1122" 
d="M420 -20q-109 0 -207.5 25t-169.5 71v350q80 -49 188.5 -87t200.5 -38q37 0 65 8t47 23t28.5 37.5t9.5 50.5q0 37 -22 69t-59.5 63.5t-82.5 68.5q-67 55 -117.5 115t-78 131.5t-27.5 160.5q0 99 37 182t105.5 144.5t164 95t211.5 33.5q118 0 228.5 -28t201.5 -79
l-135 -297q-70 35 -146.5 61.5t-144.5 26.5q-42 0 -68 -10.5t-40 -27t-19.5 -35.5t-5.5 -37q0 -31 13.5 -59.5t48.5 -63t99 -82.5q81 -60 132.5 -122t75.5 -130.5t24 -150.5q0 -109 -37 -196t-108 -148t-174.5 -93t-237.5 -32zM139 -453v27q18 44 38 97.5t39 106.5t32 97
h362v-20q-32 -54 -69 -106t-78 -102t-86 -100h-238z" />
    <glyph glyph-name="uni0219" unicode="&#x219;" horiz-adv-x="1028" 
d="M387 -20q-113 0 -201.5 16t-154.5 47v311q92 -50 171 -70t160 -20q24 0 56 4.5t56 19.5t24 46q0 23 -10.5 41.5t-43.5 42t-102 61.5q-70 39 -115 85t-66.5 102.5t-21.5 128.5q0 107 50 187.5t153.5 125.5t261.5 45q111 0 204 -26.5t179 -79.5l-121 -252
q-56 37 -127.5 65.5t-130.5 28.5q-35 0 -55.5 -17t-20.5 -51q0 -19 13.5 -35t43.5 -32.5t77 -40.5q77 -38 126.5 -86t74 -106t24.5 -128q0 -140 -62 -231.5t-175 -136.5t-267 -45zM96 -453v27q18 44 38 97.5t39 106.5t32 97h362v-20q-32 -54 -69 -106t-78 -102t-86 -100
h-238z" />
    <glyph glyph-name="uni021A" unicode="&#x21a;" horiz-adv-x="1130" 
d="M236 0l237 1139h-317l69 323h1028l-71 -323h-318l-237 -1139h-391zM147 -453v27q18 44 38 97.5t39 106.5t32 97h362v-20q-32 -54 -69 -106t-78 -102t-86 -100h-238z" />
    <glyph glyph-name="uni021B" unicode="&#x21b;" horiz-adv-x="936" 
d="M410 -20q-148 0 -224.5 63.5t-76.5 208.5q0 41 7.5 94t16.5 94l84 402h-154l41 190l218 88l137 240h258l-49 -227h288l-63 -291h-289l-84 -383q-6 -29 -11 -58.5t-5 -46.5q0 -34 17.5 -48.5t45.5 -14.5q38 0 86 13.5t97 33.5v-291q-63 -31 -146.5 -49t-193.5 -18z
M108 -453v27q18 44 38 97.5t39 106.5t32 97h362v-20q-32 -54 -69 -106t-78 -102t-86 -100h-238z" />
    <glyph glyph-name="uni0237" unicode="&#x237;" horiz-adv-x="666" 
d="M-57 -492q-54 0 -113 8.5t-94 18.5v303q37 -12 62 -15t50 -3q41 0 76.5 14.5t61.5 47t37 85.5l247 1166h387l-260 -1227q-21 -102 -73.5 -193t-145 -148t-235.5 -57z" />
    <glyph glyph-name="uni0259" unicode="&#x259;" horiz-adv-x="1186" 
d="M451 -20q-190 0 -299 86t-109 229q0 94 36 170.5t110 131.5t189 84.5t273 29.5h60v8.5v7.5q0 75 -41.5 111t-122.5 36q-86 0 -163 -25.5t-165 -72.5v275q91 46 188 74t244 28q144 0 244 -54t152.5 -154.5t52.5 -239.5t-39.5 -269t-120 -233t-202.5 -163t-287 -60z
M494 242q45 0 82.5 35t63 87.5t32.5 104.5h-29q-87 0 -138 -23.5t-73 -58.5t-22 -70q0 -32 20.5 -53.5t63.5 -21.5z" />
    <glyph glyph-name="uni02BC" unicode="&#x2bc;" horiz-adv-x="500" 
d="M94 961q34 81 68 170t65 175t56 156h348l8 -22q-30 -70 -72 -152t-89.5 -166t-94.5 -161h-289z" />
    <glyph glyph-name="circumflex" unicode="&#x2c6;" horiz-adv-x="1104" 
d="M229 1241v23q48 43 104.5 97.5t111 109t94.5 98.5h446q21 -45 51.5 -101t64.5 -110t64 -94v-23h-266q-22 20 -51.5 52.5t-57.5 66t-47 55.5q-56 -44 -116 -89t-123 -85h-275z" />
    <glyph glyph-name="caron" unicode="&#x2c7;" horiz-adv-x="1104" 
d="M475 1241q-20 45 -51 101t-64.5 110t-64.5 94v23h266q23 -19 52 -52t57.5 -66t46.5 -56q57 44 116.5 89t122.5 85h275v-23q-51 -43 -108 -97.5t-109 -109t-92 -98.5h-447z" />
    <glyph glyph-name="macron" unicode="&#x2c9;" horiz-adv-x="831" 
d="M225 1241l51 236h666l-49 -236h-668z" />
    <glyph glyph-name="breve" unicode="&#x2d8;" horiz-adv-x="969" 
d="M653 1241q-114 0 -193.5 39t-121 110t-41.5 166q0 19 2.5 34t5.5 22h217q0 -43 20.5 -71.5t57.5 -43t86 -14.5q65 0 120 24.5t81 104.5h221q-31 -181 -139 -276t-316 -95z" />
    <glyph glyph-name="dotaccent" unicode="&#x2d9;" horiz-adv-x="582" 
d="M453 1241q-82 0 -136.5 29.5t-54.5 111.5q0 111 60 160t167 49q47 0 90.5 -11.5t72 -41.5t28.5 -88q0 -92 -49.5 -150.5t-177.5 -58.5z" />
    <glyph glyph-name="ring" unicode="&#x2da;" horiz-adv-x="713" 
d="M553 1237q-118 0 -193 67.5t-75 184.5q0 119 75 186.5t193 67.5q112 0 190 -67.5t78 -184.5q0 -118 -77 -186t-191 -68zM553 1405q35 0 61.5 23.5t26.5 60.5q0 38 -26.5 62t-61.5 24t-61.5 -24t-26.5 -62q0 -37 23.5 -60.5t64.5 -23.5z" />
    <glyph glyph-name="ogonek" unicode="&#x2db;" horiz-adv-x="657" 
d="M152 -524q-121 0 -185.5 63t-64.5 152q0 69 28 123t77 99.5t112 86.5h252q-53 -44 -96.5 -83t-69 -78.5t-25.5 -84.5q0 -19 14 -35t39 -16q32 0 59 7t58 18v-222q-44 -13 -88.5 -21.5t-109.5 -8.5z" />
    <glyph glyph-name="tilde" unicode="&#x2dc;" horiz-adv-x="997" 
d="M225 1237q23 124 67 199t106.5 109t140.5 34q44 0 81 -15t71 -34t67 -34t67 -15q35 0 65.5 24.5t49.5 75.5h190q-25 -126 -70 -201t-108 -108t-143 -33q-48 0 -88.5 15t-75.5 34t-68 34t-67 15q-31 0 -60.5 -27t-35.5 -73h-189z" />
    <glyph glyph-name="hungarumlaut" unicode="&#x2dd;" horiz-adv-x="1147" 
d="M694 1241v29q29 39 68 91.5t77 107t62 100.5h373v-21q-16 -27 -61 -67.5t-103.5 -85.5t-115.5 -86t-97 -68h-203zM231 1241v29q32 39 72.5 91.5t79.5 107t66 100.5h370v-21q-16 -27 -62.5 -67.5t-106.5 -85.5t-118.5 -86t-97.5 -68h-203z" />
    <glyph glyph-name="uni02F3" unicode="&#x2f3;" horiz-adv-x="682" 
d="M143 -633q-119 0 -192.5 68t-73.5 186q0 117 73.5 185.5t192.5 68.5q113 0 192 -68t79 -184q0 -120 -78.5 -188t-192.5 -68zM143 -463q35 0 59.5 23t24.5 61t-24.5 61t-59.5 23q-37 0 -61.5 -23t-24.5 -61t21.5 -61t64.5 -23z" />
    <glyph glyph-name="gravecomb" unicode="&#x300;" horiz-adv-x="0" 
d="M-635 1241q-45 42 -94.5 94.5t-92 107.5t-67.5 105v21h395q9 -44 21.5 -94.5t31 -103.5t41.5 -105v-25h-235z" />
    <glyph glyph-name="acutecomb" unicode="&#x301;" horiz-adv-x="0" 
d="M-484 1241v23q48 39 98.5 91t98.5 108.5t86 105.5h438v-15q-22 -27 -74.5 -69.5t-118 -89t-130.5 -87.5t-113 -67h-285z" />
    <glyph glyph-name="uni0302" unicode="&#x302;" horiz-adv-x="0" 
d="M-334 1241v23q48 43 104.5 97.5t111 109t94.5 98.5h446q21 -45 51.5 -101t64.5 -110t64 -94v-23h-266q-22 20 -51.5 52.5t-57.5 66t-47 55.5q-56 -44 -116 -89t-123 -85h-275z" />
    <glyph glyph-name="tildecomb" unicode="&#x303;" horiz-adv-x="0" 
d="M-932 1237q23 124 67 199t106.5 109t140.5 34q44 0 81 -15t71 -34t67 -34t67 -15q35 0 65.5 24.5t49.5 75.5h190q-25 -126 -70 -201t-108 -108t-143 -33q-48 0 -88.5 15t-75.5 34t-68 34t-67 15q-31 0 -60.5 -27t-35.5 -73h-189z" />
    <glyph glyph-name="uni0304" unicode="&#x304;" horiz-adv-x="0" 
d="M-199 1241l51 236h666l-49 -236h-668z" />
    <glyph glyph-name="uni0306" unicode="&#x306;" horiz-adv-x="0" 
d="M147 1241q-114 0 -193.5 39t-121 110t-41.5 166q0 19 2.5 34t5.5 22h217q0 -43 20.5 -71.5t57.5 -43t86 -14.5q65 0 120 24.5t81 104.5h221q-31 -181 -139 -276t-316 -95z" />
    <glyph glyph-name="uni0307" unicode="&#x307;" horiz-adv-x="0" 
d="M162 1241q-82 0 -136.5 29.5t-54.5 111.5q0 111 60 160t167 49q47 0 90.5 -11.5t72 -41.5t28.5 -88q0 -92 -49.5 -150.5t-177.5 -58.5z" />
    <glyph glyph-name="uni0308" unicode="&#x308;" horiz-adv-x="0" 
d="M407 1257q-73 0 -121.5 26t-48.5 101q0 99 53 143t148 44q62 0 115 -23.5t53 -101.5q0 -85 -43 -137t-156 -52zM-80 1257q-73 0 -121.5 26t-48.5 101q0 99 53 143t148 44q41 0 80 -9.5t64.5 -36.5t25.5 -79q0 -85 -44.5 -137t-156.5 -52z" />
    <glyph glyph-name="hookabovecomb" unicode="&#x309;" horiz-adv-x="0" 
d="M-561 1227v123q10 4 43.5 11t63.5 27t30 64q0 22 -16.5 37.5t-55.5 15.5q-25 0 -55 -6.5t-72 -21.5v204q39 14 97 23.5t116 9.5q136 0 205.5 -53t69.5 -145q0 -99 -51.5 -154.5t-137.5 -89.5l-26 -45h-211z" />
    <glyph glyph-name="uni030A" unicode="&#x30a;" horiz-adv-x="0" 
d="M203 1237q-118 0 -193 67.5t-75 184.5q0 119 75 186.5t193 67.5q112 0 190 -67.5t78 -184.5q0 -118 -77 -186t-191 -68zM203 1405q35 0 61.5 23.5t26.5 60.5q0 38 -26.5 62t-61.5 24t-61.5 -24t-26.5 -62q0 -37 23.5 -60.5t64.5 -23.5z" />
    <glyph glyph-name="uni030B" unicode="&#x30b;" horiz-adv-x="0" 
d="M200 1241v29q29 39 68 91.5t77 107t62 100.5h373v-21q-16 -27 -61 -67.5t-103.5 -85.5t-115.5 -86t-97 -68h-203zM-263 1241v29q32 39 72.5 91.5t79.5 107t66 100.5h370v-21q-16 -27 -62.5 -67.5t-106.5 -85.5t-118.5 -86t-97.5 -68h-203z" />
    <glyph glyph-name="uni030C" unicode="&#x30c;" horiz-adv-x="0" 
d="M-78 1241q-20 45 -51 101t-64.5 110t-64.5 94v23h266q23 -19 52 -52t57.5 -66t46.5 -56q57 44 116.5 89t122.5 85h275v-23q-51 -43 -108 -97.5t-109 -109t-92 -98.5h-447z" />
    <glyph glyph-name="uni030F" unicode="&#x30f;" horiz-adv-x="0" 
d="M-211 1241q-45 42 -94.5 94.5t-92 107.5t-67.5 105v21h346q9 -44 21.5 -94.5t30.5 -103.5t40 -105v-25h-184zM-614 1241q-44 42 -93 94.5t-92 107.5t-69 105v21h346q8 -44 20.5 -94.5t30.5 -103.5t41 -105v-25h-184z" />
    <glyph glyph-name="uni0312" unicode="&#x312;" horiz-adv-x="0" 
d="M-125 961l-10 22q31 70 72.5 152t89.5 166.5t96 160.5h288q-26 -61 -51.5 -126.5t-49.5 -131.5t-46 -128t-41 -115h-348z" />
    <glyph glyph-name="dotbelowcomb" unicode="&#x323;" horiz-adv-x="0" 
d="M-782 -481q-82 0 -137.5 29t-55.5 114q0 109 60.5 158t166.5 49q47 0 90.5 -11.5t72 -42t28.5 -87.5q0 -92 -49.5 -150.5t-175.5 -58.5z" />
    <glyph glyph-name="uni0326" unicode="&#x326;" horiz-adv-x="0" 
d="M102 -453v27q18 44 38 97.5t39 106.5t32 97h362v-20q-32 -54 -69 -106t-78 -102t-86 -100h-238z" />
    <glyph glyph-name="uni0327" unicode="&#x327;" horiz-adv-x="0" 
d="M-209 -492q-61 0 -108 8t-84 21v205q34 -10 83.5 -18.5t67.5 -8.5q22 0 37 5t23 15.5t8 28.5q0 28 -26.5 55t-118.5 46l75 135h205l-24 -41q78 -16 128 -61t50 -134q0 -80 -37 -137.5t-107.5 -88t-171.5 -30.5z" />
    <glyph glyph-name="uni0328" unicode="&#x328;" horiz-adv-x="0" 
d="M-167 -524q-121 0 -185.5 63t-64.5 152q0 69 28 123t77 99.5t112 86.5h252q-53 -44 -96.5 -83t-69 -78.5t-25.5 -84.5q0 -19 14 -35t39 -16q32 0 59 7t58 18v-222q-44 -13 -88.5 -21.5t-109.5 -8.5z" />
    <glyph glyph-name="tonos" unicode="&#x384;" horiz-adv-x="1122" 
d="M526 1241v25q17 35 36 81t38 96.5t35.5 98.5t28.5 88h348v-24q-28 -45 -56.5 -89t-58.5 -88t-64 -90.5t-75 -97.5h-232z" />
    <glyph glyph-name="dieresistonos" unicode="&#x385;" horiz-adv-x="1122" 
d="M625 1389v20q19 41 38 96.5t35 111.5t25 99h299v-20q-29 -51 -60 -100t-67 -99.5t-82 -107.5h-188zM412 1257q-63 0 -105.5 26t-42.5 101q0 99 46 143t130 44q53 0 100.5 -23.5t47.5 -101.5q0 -85 -39 -137t-137 -52zM1077 1257q-63 0 -105 26t-42 101q0 99 45.5 143
t130.5 44q53 0 100 -23.5t47 -101.5q0 -85 -39 -137t-137 -52z" />
    <glyph glyph-name="Alphatonos" unicode="&#x386;" horiz-adv-x="1458" 
d="M-47 0l744 1462h503l123 -1462h-381l-10 274h-448l-125 -274h-406zM627 586h293l-15 420q-1 49 -2 97t0 91h-6q-15 -46 -32.5 -90t-38.5 -90zM61 1073v25q17 35 36 81t38 96.5t35.5 98.5t28.5 88h348v-24q-28 -45 -56.5 -89t-58.5 -88t-64 -90.5t-75 -97.5h-232z" />
    <glyph glyph-name="anoteleia" unicode="&#x387;" horiz-adv-x="627" 
d="M367 759q-78 0 -126 37t-48 115q0 122 73 177.5t171 55.5q80 0 130 -37.5t50 -117.5q0 -132 -68 -181t-182 -49z" />
    <glyph glyph-name="Epsilontonos" unicode="&#x388;" horiz-adv-x="1438" 
d="M320 0l309 1462h868l-65 -317h-477l-47 -230h444l-72 -317h-444l-57 -276h477l-68 -322h-868zM71 1073v25q17 35 36 81t38 96.5t35.5 98.5t28.5 88h348v-24q-28 -45 -56.5 -89t-58.5 -88t-64 -90.5t-75 -97.5h-232z" />
    <glyph glyph-name="Etatonos" unicode="&#x389;" horiz-adv-x="1749" 
d="M320 0l309 1462h391l-112 -542h348l112 542h392l-310 -1462h-391l125 596h-346l-127 -596h-391zM71 1071v25q17 35 36 81t38 96.5t35.5 98.5t28.5 88h348v-24q-28 -45 -56.5 -89t-58.5 -88t-64 -90.5t-75 -97.5h-232z" />
    <glyph glyph-name="Iotatonos" unicode="&#x38a;" horiz-adv-x="1024" 
d="M334 0l309 1462h391l-309 -1462h-391zM71 1073v25q17 35 36 81t38 96.5t35.5 98.5t28.5 88h348v-24q-28 -45 -56.5 -89t-58.5 -88t-64 -90.5t-75 -97.5h-232z" />
    <glyph glyph-name="Omicrontonos" unicode="&#x38c;" horiz-adv-x="1745" 
d="M902 -20q-187 0 -311.5 70t-187.5 196.5t-63 296.5q0 114 21 227t64 218.5t108 195.5t153 157.5t199.5 105.5t247.5 38q270 0 409.5 -154t139.5 -409q0 -114 -20.5 -227.5t-62 -219t-105.5 -195.5t-150.5 -157.5t-196.5 -105t-245 -37.5zM936 303q49 0 94 22t84.5 62.5
t71 97t54.5 125t35 146.5t12 162q0 113 -48 178t-139 65q-55 0 -103 -25t-88.5 -69t-72.5 -103t-54.5 -128t-34 -143t-11.5 -148q0 -79 22.5 -133t67 -81.5t110.5 -27.5zM71 1073v25q17 35 36 81t38 96.5t35.5 98.5t28.5 88h348v-24q-28 -45 -56.5 -89t-58.5 -88t-64 -90.5
t-75 -97.5h-232z" />
    <glyph glyph-name="Upsilontonos" unicode="&#x38e;" horiz-adv-x="1688" 
d="M732 0l120 567l-237 895h403l90 -542l312 542h436l-612 -895l-121 -567h-391zM92 1073v25q17 35 36 81t38 96.5t35.5 98.5t28.5 88h348v-24q-28 -45 -56.5 -89t-58.5 -88t-64 -90.5t-75 -97.5h-232z" />
    <glyph glyph-name="Omegatonos" unicode="&#x38f;" horiz-adv-x="1862" 
d="M71 1073v25q17 35 36 81t38 96.5t35.5 98.5t28.5 88h348v-24q-28 -45 -56.5 -89t-58.5 -88t-64 -90.5t-75 -97.5h-232zM195 0l68 324h387q-57 36 -112 97.5t-90.5 150.5t-35.5 204q0 134 34 245t99 197.5t157.5 146t209 90t254.5 30.5q199 0 340.5 -67t217 -189.5
t75.5 -288.5q0 -121 -28.5 -220t-83 -176.5t-132.5 -132.5t-178 -87h387l-70 -324h-657l82 371q65 35 117 86t89.5 115.5t57.5 141t20 163.5q0 95 -29.5 158t-86 94.5t-136.5 31.5q-85 0 -145 -29.5t-99 -78.5t-60.5 -109.5t-30.5 -124.5t-9 -121q0 -115 33 -196t94 -131
l-82 -371h-657z" />
    <glyph glyph-name="iotadieresistonos" unicode="&#x390;" horiz-adv-x="817" 
d="M403 -20q-150 0 -233.5 53.5t-83.5 208.5q0 26 6.5 68t13.5 77l164 746h387l-153 -707q-6 -29 -9 -49t-3 -35q0 -23 14 -37t39 -14q35 0 79.5 7t90.5 26v-285q-64 -31 -141 -45t-171 -14zM381 1389v20q19 41 38 96.5t35 111.5t25 99h299v-20q-29 -51 -60 -100t-67 -99.5
t-82 -107.5h-188zM168 1257q-63 0 -105.5 26t-42.5 101q0 99 46 143t130 44q53 0 100.5 -23.5t47.5 -101.5q0 -85 -39 -137t-137 -52zM833 1257q-63 0 -105 26t-42 101q0 99 45.5 143t130.5 44q53 0 100 -23.5t47 -101.5q0 -85 -39 -137t-137 -52z" />
    <glyph glyph-name="Alpha" unicode="&#x391;" horiz-adv-x="1384" 
d="M-121 0l744 1462h503l123 -1462h-381l-10 274h-448l-125 -274h-406zM553 586h293l-15 420q-1 49 -2 97t0 91h-6q-15 -46 -32.5 -90t-38.5 -90z" />
    <glyph glyph-name="Beta" unicode="&#x392;" horiz-adv-x="1298" 
d="M33 0l309 1462h487q157 0 254 -41t142 -113t45 -165q0 -99 -34.5 -173.5t-101 -124.5t-161.5 -79v-8q88 -29 140 -102t52 -177q0 -171 -78.5 -276.5t-211 -154t-295.5 -48.5h-547zM489 305h82q60 0 105 23t70.5 61.5t25.5 85.5q0 69 -33 103t-116 34h-68zM614 901h72
q69 0 107.5 20.5t54.5 56.5t16 83q0 49 -31 75.5t-96 26.5h-63z" />
    <glyph glyph-name="Gamma" unicode="&#x393;" horiz-adv-x="1079" 
d="M33 0l309 1462h862l-67 -319h-471l-242 -1143h-391z" />
    <glyph glyph-name="uni0394" unicode="&#x394;" horiz-adv-x="1356" 
d="M-72 0l45 225l652 1237h483l104 -1237l-49 -225h-1235zM408 311h430l-21 674q0 84 -0.5 117.5t-1 43t0.5 17.5t3 39q-5 -18 -17 -52t-24.5 -66.5t-19.5 -47.5z" />
    <glyph glyph-name="Epsilon" unicode="&#x395;" horiz-adv-x="1151" 
d="M33 0l309 1462h868l-65 -317h-477l-47 -230h444l-72 -317h-444l-57 -276h477l-68 -322h-868z" />
    <glyph glyph-name="Zeta" unicode="&#x396;" horiz-adv-x="1104" 
d="M-92 0l47 242l690 901h-479l67 319h986l-52 -245l-700 -898h543l-68 -319h-1034z" />
    <glyph glyph-name="Eta" unicode="&#x397;" horiz-adv-x="1462" 
d="M33 0l309 1462h391l-112 -542h348l112 542h392l-310 -1462h-391l125 596h-346l-127 -596h-391z" />
    <glyph glyph-name="Theta" unicode="&#x398;" horiz-adv-x="1571" 
d="M711 -20q-205 0 -339.5 71t-201 204.5t-66.5 319.5q0 106 22 213.5t66.5 209.5t111.5 190t156.5 155t203 104.5t249.5 37.5q299 0 446.5 -156.5t147.5 -425.5q0 -109 -22 -219t-66 -213.5t-110 -192t-154.5 -155.5t-199 -104.5t-244.5 -38.5zM723 303q57 0 108 20.5
t94.5 58.5t78 91t58.5 119t37 142.5t13 160.5q0 114 -55.5 190t-165.5 76q-57 0 -108.5 -22.5t-95 -63.5t-78 -96.5t-59 -122t-37.5 -140.5t-13 -151q0 -89 25 -147t74.5 -86.5t123.5 -28.5zM584 586l69 307h387l-69 -307h-387z" />
    <glyph glyph-name="Iota" unicode="&#x399;" horiz-adv-x="723" 
d="M33 0l309 1462h391l-309 -1462h-391z" />
    <glyph glyph-name="Kappa" unicode="&#x39a;" horiz-adv-x="1370" 
d="M33 0l309 1462h391l-135 -624l145 204l320 420h459l-551 -674l270 -788h-438l-174 578l-97 -56l-108 -522h-391z" />
    <glyph glyph-name="Lambda" unicode="&#x39b;" horiz-adv-x="1264" 
d="M-117 0l723 1462h436l107 -1462h-383l-25 711q-3 94 -1.5 200t8.5 176q-19 -62 -45.5 -137.5t-57.5 -144.5l-348 -805h-414z" />
    <glyph glyph-name="Mu" unicode="&#x39c;" horiz-adv-x="1862" 
d="M33 0l309 1462h518v-1038h8l478 1038h526l-313 -1462h-351l117 549q33 153 58 251t41.5 156.5t23.5 92.5h-8l-482 -1049h-370v1049h-8q-16 -103 -31 -195.5t-28.5 -171.5t-26.5 -145l-113 -537h-348z" />
    <glyph glyph-name="Nu" unicode="&#x39d;" horiz-adv-x="1618" 
d="M33 0l309 1462h455l286 -983h9q5 44 14.5 112t21 138t21.5 121l131 612h348l-309 -1462h-455l-289 1028h-8q-1 -20 -6 -68.5t-13 -110.5t-17.5 -125.5t-20.5 -113.5l-129 -610h-348z" />
    <glyph glyph-name="Xi" unicode="&#x39e;" horiz-adv-x="1139" 
d="M-41 0l64 322h970l-65 -322h-969zM162 598l74 317h786l-72 -317h-788zM219 1145l68 317h911l-68 -317h-911z" />
    <glyph glyph-name="Omicron" unicode="&#x39f;" horiz-adv-x="1509" 
d="M666 -20q-187 0 -311.5 70t-187.5 196.5t-63 296.5q0 114 21 227t64 218.5t108 195.5t153 157.5t199.5 105.5t247.5 38q270 0 409.5 -154t139.5 -409q0 -114 -20.5 -227.5t-62 -219t-105.5 -195.5t-150.5 -157.5t-196.5 -105t-245 -37.5zM700 303q49 0 94 22t84.5 62.5
t71 97t54.5 125t35 146.5t12 162q0 113 -48 178t-139 65q-55 0 -103 -25t-88.5 -69t-72.5 -103t-54.5 -128t-34 -143t-11.5 -148q0 -79 22.5 -133t67 -81.5t110.5 -27.5z" />
    <glyph glyph-name="Pi" unicode="&#x3a0;" horiz-adv-x="1462" 
d="M33 0l309 1462h1131l-310 -1462h-391l238 1139h-346l-240 -1139h-391z" />
    <glyph glyph-name="Rho" unicode="&#x3a1;" horiz-adv-x="1276" 
d="M33 0l309 1462h373q194 0 311.5 -58t171 -157.5t53.5 -222.5q0 -131 -46.5 -231.5t-132 -169t-203 -103.5t-259.5 -35h-86l-100 -485h-391zM594 805h63q62 0 107.5 27t70.5 74t25 106q0 50 -31.5 90.5t-103.5 40.5h-59z" />
    <glyph glyph-name="Sigma" unicode="&#x3a3;" horiz-adv-x="1130" 
d="M-61 0l57 281l510 481l-307 424l59 276h944l-67 -319h-488l291 -406l-438 -418h516l-66 -319h-1011z" />
    <glyph glyph-name="Tau" unicode="&#x3a4;" horiz-adv-x="1130" 
d="M236 0l237 1139h-317l69 323h1028l-71 -323h-318l-237 -1139h-391z" />
    <glyph glyph-name="Upsilon" unicode="&#x3a5;" horiz-adv-x="1237" 
d="M281 0l120 567l-237 895h403l90 -542l312 542h436l-612 -895l-121 -567h-391z" />
    <glyph glyph-name="Phi" unicode="&#x3a6;" horiz-adv-x="1733" 
d="M535 -20l49 225q-176 18 -284.5 87.5t-158 171.5t-49.5 214q0 130 42 240.5t130 194t225.5 133t327.5 57.5l37 180h369l-37 -180q171 -17 280 -85.5t161 -170t52 -218.5q0 -140 -43 -252t-132 -192.5t-226.5 -126t-325.5 -53.5l-49 -225h-368zM649 502l105 502
q-63 -3 -114 -23t-87.5 -58t-56 -94t-19.5 -131q0 -47 12.5 -89.5t49.5 -71.5t110 -35zM1018 504q73 2 125 24.5t85.5 62.5t49.5 95t16 121q0 52 -17 94t-54.5 69t-100.5 34z" />
    <glyph glyph-name="Chi" unicode="&#x3a7;" horiz-adv-x="1358" 
d="M-125 0l563 776l-223 686h416l123 -469l309 469h448l-538 -725l262 -737h-432l-146 498l-338 -498h-444z" />
    <glyph glyph-name="Psi" unicode="&#x3a8;" horiz-adv-x="1806" 
d="M584 0l84 397h-9q-149 5 -261.5 50t-175 134t-62.5 224q0 35 5 79t11 72l109 506h379l-107 -510q-6 -28 -11 -56t-5 -56q0 -53 20.5 -79.5t61.5 -35t100 -8.5h12l158 745h369l-156 -745h24q68 0 117 17t82 66.5t53 147.5l109 514h379l-123 -563q-25 -114 -68.5 -204.5
t-120 -155t-200.5 -100.5t-311 -42h-9l-86 -397h-368z" />
    <glyph glyph-name="uni03A9" unicode="&#x3a9;" horiz-adv-x="1583" 
d="M-84 0l68 324h387q-57 36 -112 97.5t-90.5 150.5t-35.5 204q0 134 34 245t99 197.5t157.5 146t209 90t254.5 30.5q199 0 340.5 -67t217 -189.5t75.5 -288.5q0 -121 -28.5 -220t-83 -176.5t-132.5 -132.5t-178 -87h387l-70 -324h-657l82 371q65 35 117 86t89.5 115.5
t57.5 141t20 163.5q0 95 -29.5 158t-86 94.5t-136.5 31.5q-85 0 -145 -29.5t-99 -78.5t-60.5 -109.5t-30.5 -124.5t-9 -121q0 -115 33 -196t94 -131l-82 -371h-657z" />
    <glyph glyph-name="Iotadieresis" unicode="&#x3aa;" horiz-adv-x="723" 
d="M33 0l309 1462h391l-309 -1462h-391zM827 1587q-73 0 -121.5 26t-48.5 101q0 99 53 143t148 44q62 0 115 -23.5t53 -101.5q0 -85 -43 -137t-156 -52zM340 1587q-73 0 -121.5 26t-48.5 101q0 99 53 143t148 44q41 0 80 -9.5t64.5 -36.5t25.5 -79q0 -85 -44.5 -137
t-156.5 -52z" />
    <glyph glyph-name="Upsilondieresis" unicode="&#x3ab;" horiz-adv-x="1237" 
d="M281 0l120 567l-237 895h403l90 -542l312 542h436l-612 -895l-121 -567h-391zM1036 1587q-73 0 -121.5 26t-48.5 101q0 99 53 143t148 44q62 0 115 -23.5t53 -101.5q0 -85 -43 -137t-156 -52zM549 1587q-73 0 -121.5 26t-48.5 101q0 99 53 143t148 44q41 0 80 -9.5
t64.5 -36.5t25.5 -79q0 -85 -44.5 -137t-156.5 -52z" />
    <glyph glyph-name="alphatonos" unicode="&#x3ac;" horiz-adv-x="1290" 
d="M420 -20q-164 0 -250 113t-86 319q0 80 17.5 178.5t55 197t97 181.5t143.5 133.5t195 50.5q115 0 171 -51.5t87 -114.5h8q10 23 24.5 49.5t33 52t38.5 44.5h336q-38 -59 -72.5 -137t-61 -159.5t-42.5 -152.5l-53 -238q-6 -24 -10 -50t-4 -46q0 -32 17 -46.5t46 -14.5
q17 0 36.5 4.5t29.5 7.5v-289q-29 -12 -81.5 -22t-117.5 -10q-67 0 -121.5 16t-94 50.5t-63.5 90.5h-14q-25 -35 -60 -71.5t-84 -61t-120 -24.5zM563 291q37 0 67.5 28.5t54 76.5t38.5 104q14 52 21.5 108t7.5 105q0 68 -20 98.5t-54 30.5q-40 0 -72 -26t-55.5 -69.5
t-39.5 -97t-24 -109.5t-8 -106q0 -70 23 -106.5t61 -36.5zM624 1241v25q17 35 36 81t38 96.5t35.5 98.5t28.5 88h348v-24q-28 -45 -56.5 -89t-58.5 -88t-64 -90.5t-75 -97.5h-232z" />
    <glyph glyph-name="epsilontonos" unicode="&#x3ad;" horiz-adv-x="1141" 
d="M532 -20q-146 0 -256.5 38.5t-172.5 112t-62 176.5q0 83 36 142t111.5 96.5t192.5 54.5v8q-82 29 -131 84.5t-49 143.5q0 96 59.5 167.5t175 110.5t283.5 39q141 0 248.5 -24.5t201.5 -67.5l-114 -275q-70 39 -156.5 61.5t-153.5 22.5q-85 0 -130.5 -18t-45.5 -61
q0 -34 39.5 -55t147.5 -21h143l-53 -254h-172q-74 0 -126 -11t-79 -31.5t-27 -51.5q0 -36 41.5 -66.5t149.5 -30.5q119 0 197 27.5t139 56.5v-297q-76 -37 -182 -57t-255 -20zM598 1241v25q17 35 36 81t38 96.5t35.5 98.5t28.5 88h348v-24q-28 -45 -56.5 -89t-58.5 -88
t-64 -90.5t-75 -97.5h-232z" />
    <glyph glyph-name="etatonos" unicode="&#x3ae;" horiz-adv-x="1274" 
d="M539 -492l229 1110q6 26 12 66.5t6 75.5q0 43 -22 64.5t-53 21.5q-49 0 -81.5 -26t-56 -89.5t-47.5 -177.5l-116 -553h-387l239 1133h309l-12 -158h8q37 64 82 103t101.5 57t128.5 18q106 0 171.5 -44t96.5 -117t31 -161q0 -56 -7 -115.5t-18 -113.5l-227 -1094h-387z
M630 1241v25q17 35 36 81t38 96.5t35.5 98.5t28.5 88h348v-24q-28 -45 -56.5 -89t-58.5 -88t-64 -90.5t-75 -97.5h-232z" />
    <glyph glyph-name="iotatonos" unicode="&#x3af;" horiz-adv-x="817" 
d="M403 -20q-150 0 -233.5 53.5t-83.5 208.5q0 26 6.5 68t13.5 77l164 746h387l-153 -707q-6 -29 -9 -49t-3 -35q0 -23 14 -37t39 -14q35 0 79.5 7t90.5 26v-285q-64 -31 -141 -45t-171 -14zM325 1241v25q17 35 36 81t38 96.5t35.5 98.5t28.5 88h348v-24q-28 -45 -56.5 -89
t-58.5 -88t-64 -90.5t-75 -97.5h-232z" />
    <glyph glyph-name="upsilondieresistonos" unicode="&#x3b0;" horiz-adv-x="1278" 
d="M535 -20q-232 0 -335.5 107t-103.5 284q0 34 5 69.5t10 69.5l133 623h385l-135 -641q-7 -31 -9 -54t-2 -43q0 -57 24 -80.5t68 -23.5q45 0 82 24t66 71t50.5 117.5t35 164.5t20.5 210t7 255h381q0 -210 -17.5 -388.5t-60.5 -320t-120.5 -240.5t-196 -151.5t-287.5 -52.5z
M654 1389v20q19 41 38 96.5t35 111.5t25 99h299v-20q-29 -51 -60 -100t-67 -99.5t-82 -107.5h-188zM441 1257q-63 0 -105.5 26t-42.5 101q0 99 46 143t130 44q53 0 100.5 -23.5t47.5 -101.5q0 -85 -39 -137t-137 -52zM1106 1257q-63 0 -105 26t-42 101q0 99 45.5 143
t130.5 44q53 0 100 -23.5t47 -101.5q0 -85 -39 -137t-137 -52z" />
    <glyph glyph-name="alpha" unicode="&#x3b1;" horiz-adv-x="1290" 
d="M420 -20q-164 0 -250 113t-86 319q0 80 17.5 178.5t55 197t97 181.5t143.5 133.5t195 50.5q115 0 171 -51.5t87 -114.5h8q10 23 24.5 49.5t33 52t38.5 44.5h336q-38 -59 -72.5 -137t-61 -159.5t-42.5 -152.5l-53 -238q-6 -24 -10 -50t-4 -46q0 -32 17 -46.5t46 -14.5
q17 0 36.5 4.5t29.5 7.5v-289q-29 -12 -81.5 -22t-117.5 -10q-67 0 -121.5 16t-94 50.5t-63.5 90.5h-14q-25 -35 -60 -71.5t-84 -61t-120 -24.5zM563 291q37 0 67.5 28.5t54 76.5t38.5 104q14 52 21.5 108t7.5 105q0 68 -20 98.5t-54 30.5q-40 0 -72 -26t-55.5 -69.5
t-39.5 -97t-24 -109.5t-8 -106q0 -70 23 -106.5t61 -36.5z" />
    <glyph glyph-name="beta" unicode="&#x3b2;" horiz-adv-x="1323" 
d="M-78 -492l320 1530q39 188 114.5 304.5t189.5 170.5t267 54t257.5 -42.5t158 -125t53.5 -201.5q0 -110 -45 -194.5t-125.5 -135t-187.5 -59.5q122 -19 200 -111.5t78 -232.5q0 -100 -28.5 -187.5t-90.5 -154.5t-161.5 -105t-241.5 -38q-92 0 -155 17.5t-103 45.5
l-113 -535h-387zM637 291q38 0 70.5 14t56 39.5t36.5 60.5t13 76q0 89 -44 135t-118 46h-14l61 290h31q37 0 68 14.5t54 40.5t35.5 62t12.5 78q0 72 -33.5 94.5t-62.5 22.5q-33 0 -63 -14.5t-55.5 -59.5t-45.5 -137l-152 -713q26 -22 66.5 -35.5t83.5 -13.5z" />
    <glyph glyph-name="gamma" unicode="&#x3b3;" horiz-adv-x="1120" 
d="M45 -492q18 84 42 168t58 168.5t80 171.5l-131 1117h377l21 -422q3 -65 3.5 -94t0.5 -46.5t-1 -48t-1 -98.5h8q20 60 54.5 137t74.5 162l194 410h414l-528 -971q-80 -146 -131 -260t-81.5 -208.5t-49.5 -185.5h-404z" />
    <glyph glyph-name="delta" unicode="&#x3b4;" horiz-adv-x="1225" 
d="M522 -20q-163 0 -266 51.5t-151 142t-48 207.5q0 136 53.5 240.5t151.5 179.5t230 121q-49 47 -89.5 120t-40.5 168q0 124 68 203t181 116.5t247 37.5q142 0 245.5 -27t203.5 -84l-154 -276q-85 55 -164 79.5t-135 24.5q-63 0 -86 -25.5t-23 -54.5q0 -26 13 -51t48 -60
t99 -92q76 -65 124 -133t70.5 -142t22.5 -157q0 -128 -38.5 -236t-114 -187t-188 -122.5t-259.5 -43.5zM547 270q36 0 69.5 20.5t59.5 58.5t41.5 90t15.5 114q0 66 -26 115.5t-58 74.5q-45 -22 -82.5 -55t-64.5 -75.5t-41.5 -92.5t-14.5 -106q0 -67 26 -105.5t75 -38.5z" />
    <glyph glyph-name="epsilon" unicode="&#x3b5;" horiz-adv-x="1141" 
d="M532 -20q-146 0 -256.5 38.5t-172.5 112t-62 176.5q0 83 36 142t111.5 96.5t192.5 54.5v8q-82 29 -131 84.5t-49 143.5q0 96 59.5 167.5t175 110.5t283.5 39q141 0 248.5 -24.5t201.5 -67.5l-114 -275q-70 39 -156.5 61.5t-153.5 22.5q-85 0 -130.5 -18t-45.5 -61
q0 -34 39.5 -55t147.5 -21h143l-53 -254h-172q-74 0 -126 -11t-79 -31.5t-27 -51.5q0 -36 41.5 -66.5t149.5 -30.5q119 0 197 27.5t139 56.5v-297q-76 -37 -182 -57t-255 -20z" />
    <glyph glyph-name="zeta" unicode="&#x3b6;" horiz-adv-x="979" 
d="M299 -379q58 53 102.5 102t70.5 93t26 80q0 58 -44 88.5t-145 87.5q-92 51 -145 111.5t-75.5 131.5t-22.5 154q0 99 35.5 201.5t107 206t179 206.5t251.5 203q-32 -7 -81.5 -9.5t-86.5 -2.5h-215l63 282h861l-47 -213q-230 -169 -365.5 -293.5t-201.5 -217.5t-86.5 -166
t-20.5 -138q0 -38 17 -70.5t56.5 -63.5t106.5 -66q84 -43 143 -93.5t90 -110.5t31 -134q0 -73 -24 -135t-67.5 -119t-100.5 -115h-412z" />
    <glyph glyph-name="eta" unicode="&#x3b7;" horiz-adv-x="1274" 
d="M539 -492l229 1110q6 26 12 66.5t6 75.5q0 43 -22 64.5t-53 21.5q-49 0 -81.5 -26t-56 -89.5t-47.5 -177.5l-116 -553h-387l239 1133h309l-12 -158h8q37 64 82 103t101.5 57t128.5 18q106 0 171.5 -44t96.5 -117t31 -161q0 -56 -7 -115.5t-18 -113.5l-227 -1094h-387z
" />
    <glyph glyph-name="theta" unicode="&#x3b8;" horiz-adv-x="1253" 
d="M530 -20q-149 0 -245.5 57.5t-142.5 162t-46 244.5q0 104 18 236.5t50.5 262.5t75.5 226q43 99 99 175t126 128.5t155.5 79.5t186.5 27q140 0 231 -61t135 -168t44 -246q0 -116 -18.5 -250.5t-54.5 -266t-87 -239.5q-39 -83 -90 -150.5t-115 -116.5t-144 -75t-178 -26z
M551 262q37 0 70 34.5t61 91t51 124t39 133.5h-285q-12 -78 -18 -145t-6 -107q0 -60 22 -95.5t66 -35.5zM547 928h284q8 60 13.5 119t5.5 114q0 68 -21.5 101.5t-62.5 33.5q-28 0 -55 -20.5t-54.5 -64.5t-54.5 -114t-55 -169z" />
    <glyph glyph-name="iota" unicode="&#x3b9;" horiz-adv-x="817" 
d="M403 -20q-150 0 -233.5 53.5t-83.5 208.5q0 26 6.5 68t13.5 77l164 746h387l-153 -707q-6 -29 -9 -49t-3 -35q0 -23 14 -37t39 -14q35 0 79.5 7t90.5 26v-285q-64 -31 -141 -45t-171 -14z" />
    <glyph glyph-name="kappa" unicode="&#x3ba;" horiz-adv-x="1264" 
d="M23 0l237 1133h387l-51 -240q-12 -55 -30.5 -113.5t-35.5 -101.5h9l385 455h446l-487 -512l274 -621h-438l-139 391l-101 -53l-69 -338h-387z" />
    <glyph glyph-name="lambda" unicode="&#x3bb;" horiz-adv-x="1237" 
d="M922 -20q-100 0 -162.5 38.5t-97 110t-52.5 170.5l-16 94q-6 38 -10 93.5t-4 84.5q-3 -4 -16.5 -36.5t-29.5 -71.5t-27 -66.5t-9 -23.5l-191 -373h-418l596 1051l-4 53q-7 95 -41.5 134.5t-79.5 39.5q-24 0 -51 -4.5t-49 -9.5l-47 278q54 14 112.5 20.5t123.5 6.5
q122 0 205 -44t132 -132t68 -219l92 -613q17 -111 35.5 -169.5t44 -79.5t61.5 -21q16 0 29.5 2t38.5 8v-285q-40 -15 -93.5 -25.5t-139.5 -10.5z" />
    <glyph glyph-name="uni03BC" unicode="&#x3bc;" horiz-adv-x="1288" 
d="M-81 -492l344 1625h387l-129 -617q-6 -26 -12 -66t-6 -75q0 -43 22.5 -64.5t53.5 -21.5q49 0 81 26t56 89.5t47 177.5l117 551h387l-240 -1133h-289l6 123h-8q-22 -48 -51 -79.5t-64 -47.5t-75 -16q-51 0 -83.5 18.5t-47.5 58.5h-8q-4 -53 -11 -102t-16 -98t-21 -103
l-53 -246h-387z" />
    <glyph glyph-name="nu" unicode="&#x3bd;" horiz-adv-x="1184" 
d="M238 0l-142 1133h379l45 -619q3 -51 4.5 -97t-0.5 -95q80 116 135 236t93 260.5t65 314.5h400q-32 -204 -103 -399.5t-193 -379.5t-307 -354h-376z" />
    <glyph glyph-name="xi" unicode="&#x3be;" horiz-adv-x="1006" 
d="M301 -379q62 55 106 104t67.5 93t23.5 82q0 43 -46 80.5t-165 101.5q-79 43 -127.5 94t-71 114t-22.5 142q0 105 37 180.5t101.5 125.5t147.5 77v8q-58 32 -100.5 81.5t-42.5 131.5q0 39 13.5 77t43 72t76 60t111.5 41q-49 -6 -97 -9t-92 -3h-74l64 282h850l-57 -270h-46
q-73 0 -135.5 -8.5t-112.5 -25t-85.5 -41.5t-54.5 -58.5t-19 -75.5q0 -79 56.5 -102t137.5 -23h107l-64 -290h-55q-124 0 -193.5 -19t-97.5 -53t-28 -80q0 -39 17.5 -66t57 -53t105.5 -63q85 -46 144.5 -94.5t90.5 -108t31 -139.5q0 -62 -20 -121t-61.5 -118.5
t-108.5 -125.5h-412z" />
    <glyph glyph-name="omicron" unicode="&#x3bf;" 
d="M520 -20q-139 0 -236.5 51t-148.5 148.5t-51 236.5q0 116 26 224.5t78 201.5t129 163t178.5 109t227.5 39q139 0 236.5 -51t148.5 -148.5t51 -236.5q0 -116 -26 -224.5t-78 -201.5t-129 -163t-178.5 -109t-227.5 -39zM563 270q34 0 64.5 26t55.5 71.5t43 104t28 124.5
t10 133q0 44 -10.5 73.5t-29.5 44.5t-46 15q-34 0 -64.5 -26t-55 -71t-42.5 -103.5t-27.5 -125t-9.5 -133.5q0 -66 22 -99.5t62 -33.5z" />
    <glyph glyph-name="pi" unicode="&#x3c0;" horiz-adv-x="1620" 
d="M1114 -20q-139 0 -220 58.5t-81 213.5q0 34 5.5 83.5t15.5 90.5l86 416h-205l-180 -842h-388l181 842h-250l39 209l196 82h1311l-57 -291h-260l-86 -393q-5 -23 -9 -50t-4 -47q0 -34 19 -47.5t45 -13.5q37 0 81 10.5t93 30.5v-287q-63 -31 -149 -48t-183 -17z" />
    <glyph glyph-name="rho" unicode="&#x3c1;" horiz-adv-x="1253" 
d="M-76 -492l223 1082q36 173 100 299.5t180.5 195t309.5 68.5q140 0 236 -59.5t146 -161.5t50 -230q0 -125 -22.5 -235t-66 -199.5t-106.5 -153.5t-144 -99t-179 -35q-85 0 -142.5 34.5t-82.5 87.5q-7 -66 -23 -148t-34 -173l-58 -273h-387zM586 291q49 0 83 38.5
t55.5 96.5t33 118t16 105.5t4.5 57.5q0 61 -17.5 98t-58.5 37q-33 0 -62.5 -19t-56 -77t-51.5 -175l-43 -209q14 -38 40 -54.5t57 -16.5z" />
    <glyph glyph-name="uni03C2" unicode="&#x3c2;" horiz-adv-x="1020" 
d="M283 -379q62 55 105.5 107t67 99t23.5 85q0 24 -10 47t-47 51.5t-117 71.5q-79 43 -127.5 94t-71 114t-22.5 142q0 126 27.5 236t79.5 199t126.5 153t168.5 98.5t204 34.5q119 0 204.5 -22t162.5 -62l-123 -283q-51 23 -105 41.5t-120 18.5q-48 0 -86 -24t-65.5 -63.5
t-46 -85.5t-27.5 -90.5t-9 -78.5q0 -47 21.5 -74t61.5 -48.5t97 -53.5q85 -46 135.5 -94.5t72.5 -108t22 -139.5q0 -62 -20 -121t-62 -118.5t-109 -125.5h-411z" />
    <glyph glyph-name="sigma" unicode="&#x3c3;" horiz-adv-x="1305" 
d="M547 -20q-212 0 -337.5 111t-125.5 325q0 134 31 246.5t91.5 199.5t150 147.5t206 92t258.5 31.5h572l-66 -291h-262q38 -48 63 -113.5t25 -146.5q0 -83 -21.5 -168.5t-66.5 -163t-116.5 -138.5t-171 -96.5t-230.5 -35.5zM586 270q37 0 66 20t50.5 57t35.5 88t21 113
t7 132q0 56 -6 95t-17 67h-18q-51 0 -96 -29t-78.5 -83t-52.5 -130t-19 -170q0 -89 34.5 -124.5t72.5 -35.5z" />
    <glyph glyph-name="tau" unicode="&#x3c4;" horiz-adv-x="1069" 
d="M543 -20q-140 0 -220.5 58.5t-80.5 213.5q0 34 5.5 83.5t14.5 90.5l92 416h-288l40 209l187 82h797l-64 -291h-291l-84 -393q-4 -23 -9 -50t-5 -47q0 -34 19 -47.5t44 -13.5q38 0 81.5 10.5t92.5 30.5v-287q-62 -31 -148 -48t-183 -17z" />
    <glyph glyph-name="upsilon" unicode="&#x3c5;" horiz-adv-x="1278" 
d="M535 -20q-232 0 -335.5 107t-103.5 284q0 34 5 69.5t10 69.5l133 623h385l-135 -641q-7 -31 -9 -54t-2 -43q0 -57 24 -80.5t68 -23.5q45 0 82 24t66 71t50.5 117.5t35 164.5t20.5 210t7 255h381q0 -210 -17.5 -388.5t-60.5 -320t-120.5 -240.5t-196 -151.5t-287.5 -52.5z
" />
    <glyph glyph-name="phi" unicode="&#x3c6;" horiz-adv-x="1724" 
d="M438 -492l97 476q-149 23 -249.5 91t-151 174.5t-50.5 242.5q0 128 37.5 245t112 221t184.5 193l241 -227q-64 -60 -105 -129t-60 -143t-19 -152q0 -57 13.5 -103.5t40 -78t65.5 -44.5l94 453q43 204 157 315t335 111q216 0 338 -121t122 -342q0 -125 -33.5 -232
t-96.5 -192.5t-153 -146.5t-203 -95.5t-247 -39.5l-96 -476h-373zM967 274q58 12 104 42.5t79.5 74.5t55.5 97.5t32.5 112t10.5 116.5q0 59 -19.5 102t-66.5 43q-37 0 -63 -33.5t-41 -105.5z" />
    <glyph glyph-name="chi" unicode="&#x3c7;" horiz-adv-x="1186" 
d="M-303 -492l663 928l-53 283q-13 77 -39.5 100t-64.5 23q-22 0 -36.5 -3.5t-39.5 -11.5l-61 279q49 22 121 34.5t139 12.5q140 0 215 -67.5t106 -233.5l17 -88l223 369h438l-567 -781l73 -442q10 -57 34.5 -73.5t56.5 -16.5q15 0 42.5 3t73.5 13v-291
q-53 -16 -111.5 -26.5t-135.5 -10.5q-86 0 -148.5 28.5t-101.5 97.5t-58 192l-28 199l-320 -517h-438z" />
    <glyph glyph-name="psi" unicode="&#x3c8;" horiz-adv-x="1774" 
d="M479 -492l96 472q-233 20 -356 114.5t-123 249.5q0 34 5.5 77t13.5 77l133 635h385l-135 -641q-7 -31 -9 -54t-2 -45q0 -55 50 -77t102 -25l266 1265h373l-266 -1265q90 15 150 70.5t96 140t54 188t23.5 217.5t5.5 226h373q0 -209 -20.5 -384t-71 -312.5t-137.5 -235.5
t-219 -154t-318 -67l-96 -472h-373z" />
    <glyph glyph-name="omega" unicode="&#x3c9;" horiz-adv-x="1763" 
d="M434 -20q-176 0 -272 108t-96 315q0 108 26.5 224t81 242t137.5 264h398q-76 -107 -134 -232.5t-91 -250t-33 -230.5q0 -60 15.5 -99.5t72.5 -39.5q53 0 82 55.5t57 179.5l61 289h377l-63 -289q-6 -29 -11.5 -57t-8.5 -53t-3 -46q0 -35 13 -57t59 -22q44 0 78.5 34
t59.5 93t41 134t24 158.5t8 165.5q0 79 -7.5 142.5t-23.5 124.5h397q8 -60 13.5 -116.5t5.5 -139.5q0 -176 -24 -319t-71.5 -251t-118 -180.5t-162.5 -109.5t-206 -37q-91 0 -153.5 22.5t-99.5 67t-52 108.5q-52 -84 -135.5 -141t-241.5 -57z" />
    <glyph glyph-name="iotadieresis" unicode="&#x3ca;" horiz-adv-x="817" 
d="M403 -20q-150 0 -233.5 53.5t-83.5 208.5q0 26 6.5 68t13.5 77l164 746h387l-153 -707q-6 -29 -9 -49t-3 -35q0 -23 14 -37t39 -14q35 0 79.5 7t90.5 26v-285q-64 -31 -141 -45t-171 -14zM743 1257q-73 0 -121.5 26t-48.5 101q0 99 53 143t148 44q62 0 115 -23.5
t53 -101.5q0 -85 -43 -137t-156 -52zM256 1257q-73 0 -121.5 26t-48.5 101q0 99 53 143t148 44q41 0 80 -9.5t64.5 -36.5t25.5 -79q0 -85 -44.5 -137t-156.5 -52z" />
    <glyph glyph-name="upsilondieresis" unicode="&#x3cb;" horiz-adv-x="1278" 
d="M535 -20q-232 0 -335.5 107t-103.5 284q0 34 5 69.5t10 69.5l133 623h385l-135 -641q-7 -31 -9 -54t-2 -43q0 -57 24 -80.5t68 -23.5q45 0 82 24t66 71t50.5 117.5t35 164.5t20.5 210t7 255h381q0 -210 -17.5 -388.5t-60.5 -320t-120.5 -240.5t-196 -151.5t-287.5 -52.5z
M1016 1257q-73 0 -121.5 26t-48.5 101q0 99 53 143t148 44q62 0 115 -23.5t53 -101.5q0 -85 -43 -137t-156 -52zM529 1257q-73 0 -121.5 26t-48.5 101q0 99 53 143t148 44q41 0 80 -9.5t64.5 -36.5t25.5 -79q0 -85 -44.5 -137t-156.5 -52z" />
    <glyph glyph-name="omicrontonos" unicode="&#x3cc;" 
d="M520 -20q-139 0 -236.5 51t-148.5 148.5t-51 236.5q0 116 26 224.5t78 201.5t129 163t178.5 109t227.5 39q139 0 236.5 -51t148.5 -148.5t51 -236.5q0 -116 -26 -224.5t-78 -201.5t-129 -163t-178.5 -109t-227.5 -39zM563 270q34 0 64.5 26t55.5 71.5t43 104t28 124.5
t10 133q0 44 -10.5 73.5t-29.5 44.5t-46 15q-34 0 -64.5 -26t-55 -71t-42.5 -103.5t-27.5 -125t-9.5 -133.5q0 -66 22 -99.5t62 -33.5zM592 1241v25q17 35 36 81t38 96.5t35.5 98.5t28.5 88h348v-24q-28 -45 -56.5 -89t-58.5 -88t-64 -90.5t-75 -97.5h-232z" />
    <glyph glyph-name="upsilontonos" unicode="&#x3cd;" horiz-adv-x="1278" 
d="M535 -20q-232 0 -335.5 107t-103.5 284q0 34 5 69.5t10 69.5l133 623h385l-135 -641q-7 -31 -9 -54t-2 -43q0 -57 24 -80.5t68 -23.5q45 0 82 24t66 71t50.5 117.5t35 164.5t20.5 210t7 255h381q0 -210 -17.5 -388.5t-60.5 -320t-120.5 -240.5t-196 -151.5t-287.5 -52.5z
M598 1241v25q17 35 36 81t38 96.5t35.5 98.5t28.5 88h348v-24q-28 -45 -56.5 -89t-58.5 -88t-64 -90.5t-75 -97.5h-232z" />
    <glyph glyph-name="omegatonos" unicode="&#x3ce;" horiz-adv-x="1763" 
d="M434 -20q-176 0 -272 108t-96 315q0 108 26.5 224t81 242t137.5 264h398q-76 -107 -134 -232.5t-91 -250t-33 -230.5q0 -60 15.5 -99.5t72.5 -39.5q53 0 82 55.5t57 179.5l61 289h377l-63 -289q-6 -29 -11.5 -57t-8.5 -53t-3 -46q0 -35 13 -57t59 -22q44 0 78.5 34
t59.5 93t41 134t24 158.5t8 165.5q0 79 -7.5 142.5t-23.5 124.5h397q8 -60 13.5 -116.5t5.5 -139.5q0 -176 -24 -319t-71.5 -251t-118 -180.5t-162.5 -109.5t-206 -37q-91 0 -153.5 22.5t-99.5 67t-52 108.5q-52 -84 -135.5 -141t-241.5 -57zM850 1241v25q17 35 36 81
t38 96.5t35.5 98.5t28.5 88h348v-24q-28 -45 -56.5 -89t-58.5 -88t-64 -90.5t-75 -97.5h-232z" />
    <glyph glyph-name="uni03D1" unicode="&#x3d1;" horiz-adv-x="1542" 
d="M635 -20q-151 0 -243.5 46t-134.5 116.5t-42 144.5q0 32 5 61t9 53q5 20 8 38.5t3 33.5q0 23 -6.5 35t-26.5 12t-40 -12t-36 -23v258q38 23 101.5 48.5t166.5 25.5q102 0 153.5 -54t51.5 -132q0 -31 -6 -70l-12 -78q-6 -34 -11.5 -64.5t-5.5 -51.5q0 -40 27 -68.5
t84 -28.5q44 0 82.5 19.5t71 56.5t58 89.5t42.5 118.5t24 144q-175 16 -291.5 82.5t-174.5 163.5t-58 201q0 141 64.5 237t177.5 144.5t258 48.5q173 0 274.5 -72t145 -191t43.5 -261q0 -14 -1 -30t-1 -26h151l-63 -290h-133q-25 -122 -62.5 -231t-93.5 -199.5
t-134.5 -156.5t-183 -102t-241.5 -36zM1004 995q3 20 4.5 52.5t1.5 54.5q0 92 -26 137t-71 45q-31 0 -53 -14t-33.5 -42t-11.5 -71q0 -39 20 -74t61.5 -58.5t107.5 -29.5z" />
    <glyph glyph-name="uni03D2" unicode="&#x3d2;" horiz-adv-x="1278" 
d="M281 0l120 567l-237 895h403l88 -532q27 51 56.5 102.5t61.5 102.5t66.5 99t71.5 91q65 75 134 112.5t161 37.5q65 0 108.5 -8.5t94.5 -26.5l-70 -297q-6 5 -28 12.5t-51 7.5q-34 0 -63.5 -18t-49.5 -41q-35 -43 -75.5 -98t-85.5 -122t-93.5 -146t-99.5 -171l-121 -567
h-391z" />
    <glyph glyph-name="uni03D6" unicode="&#x3d6;" horiz-adv-x="2079" 
d="M545 -20q-177 0 -273 108t-96 315q0 72 12 143t36 144t61 152h-207l39 209l196 82h1770l-58 -291h-217q2 -17 3 -33t1 -33q0 -146 -24.5 -269.5t-72 -221t-117 -165.5t-158.5 -104t-197 -36q-136 0 -220 46t-101 152q-52 -84 -135.5 -141t-241.5 -57zM649 281
q36 0 60.5 24t42.5 76t36 135l23 109h377l-25 -109q-6 -29 -11 -57t-8 -53t-3 -46q0 -35 12.5 -57t58.5 -22q50 1 86.5 27t61 72t39.5 106.5t21.5 129.5t6.5 142q0 21 -1 42.5t-3 41.5h-751q-35 -72 -60 -144t-38 -142t-13 -136q0 -60 15.5 -99.5t72.5 -39.5z" />
    <glyph glyph-name="uni0400" unicode="&#x400;" horiz-adv-x="1151" 
d="M33 0l309 1462h868l-65 -317h-477l-47 -230h444l-72 -317h-444l-57 -276h477l-68 -322h-868zM758 1571q-45 42 -94.5 94.5t-92 107.5t-67.5 105v21h395q9 -44 21.5 -94.5t31 -103.5t41.5 -105v-25h-235z" />
    <glyph glyph-name="uni0401" unicode="&#x401;" horiz-adv-x="1151" 
d="M33 0l309 1462h868l-65 -317h-477l-47 -230h444l-72 -317h-444l-57 -276h477l-68 -322h-868zM1063 1587q-73 0 -121.5 26t-48.5 101q0 99 53 143t148 44q62 0 115 -23.5t53 -101.5q0 -85 -43 -137t-156 -52zM576 1587q-73 0 -121.5 26t-48.5 101q0 99 53 143t148 44
q41 0 80 -9.5t64.5 -36.5t25.5 -79q0 -85 -44.5 -137t-156.5 -52z" />
    <glyph glyph-name="uni0402" unicode="&#x402;" horiz-adv-x="1595" 
d="M1016 -20q-57 0 -124.5 13t-109.5 38v293q32 -16 68.5 -24.5t75.5 -8.5q40 0 65.5 11.5t40.5 37.5t23 70l10 53q5 22 7.5 44t2.5 36q0 32 -16 62t-84 30h-217l-131 -635h-391l237 1139h-317l69 323h1028l-71 -323h-318l-39 -181h252q194 0 290.5 -90t96.5 -219
q0 -43 -4.5 -84t-13.5 -88l-23 -115q-29 -150 -79 -233t-129.5 -116t-198.5 -33z" />
    <glyph glyph-name="uni0403" unicode="&#x403;" horiz-adv-x="1079" 
d="M33 0l309 1462h862l-67 -319h-471l-242 -1143h-391zM600 1571v23q48 39 98.5 91t98.5 108.5t86 105.5h438v-15q-22 -27 -74.5 -69.5t-118 -89t-130.5 -87.5t-113 -67h-285z" />
    <glyph glyph-name="uni0404" unicode="&#x404;" horiz-adv-x="1290" 
d="M645 -20q-183 0 -303 71.5t-179 199.5t-59 298q0 131 28 264t87 253.5t151 215t219 149t292 54.5q146 0 263 -29.5t220 -91.5l-150 -315q-93 55 -171 82.5t-162 27.5q-55 0 -102.5 -19t-87.5 -54t-72 -83t-56 -106h473l-67 -311h-469v-16.5v-16.5q0 -86 24.5 -141.5
t68.5 -82t101 -26.5q62 0 117.5 9.5t120 29.5t153.5 51v-323q-72 -32 -144 -52t-146 -29t-150 -9z" />
    <glyph glyph-name="uni0405" unicode="&#x405;" horiz-adv-x="1122" 
d="M420 -20q-109 0 -207.5 25t-169.5 71v350q80 -49 188.5 -87t200.5 -38q37 0 65 8t47 23t28.5 37.5t9.5 50.5q0 37 -22 69t-59.5 63.5t-82.5 68.5q-67 55 -117.5 115t-78 131.5t-27.5 160.5q0 99 37 182t105.5 144.5t164 95t211.5 33.5q118 0 228.5 -28t201.5 -79
l-135 -297q-70 35 -146.5 61.5t-144.5 26.5q-42 0 -68 -10.5t-40 -27t-19.5 -35.5t-5.5 -37q0 -31 13.5 -59.5t48.5 -63t99 -82.5q81 -60 132.5 -122t75.5 -130.5t24 -150.5q0 -109 -37 -196t-108 -148t-174.5 -93t-237.5 -32z" />
    <glyph glyph-name="uni0406" unicode="&#x406;" horiz-adv-x="723" 
d="M33 0l309 1462h391l-309 -1462h-391z" />
    <glyph glyph-name="uni0407" unicode="&#x407;" horiz-adv-x="723" 
d="M33 0l309 1462h391l-309 -1462h-391zM827 1587q-73 0 -121.5 26t-48.5 101q0 99 53 143t148 44q62 0 115 -23.5t53 -101.5q0 -85 -43 -137t-156 -52zM340 1587q-73 0 -121.5 26t-48.5 101q0 99 53 143t148 44q41 0 80 -9.5t64.5 -36.5t25.5 -79q0 -85 -44.5 -137
t-156.5 -52z" />
    <glyph glyph-name="uni0408" unicode="&#x408;" horiz-adv-x="764" 
d="M-115 -461q-52 0 -108.5 8t-104.5 21v319q37 -9 79 -16.5t95 -7.5q63 0 110 21t81 76.5t55 156.5l289 1345h391l-299 -1394q-41 -192 -111 -308.5t-185 -168.5t-292 -52z" />
    <glyph glyph-name="uni0409" unicode="&#x409;" horiz-adv-x="1972" 
d="M63 -20q-41 0 -78 6.5t-77 19.5v305q31 -10 52 -15t50 -5q30 0 62.5 11t69.5 59.5t81 158.5q24 60 53.5 149t64.5 207t75.5 264.5t85.5 321.5h954l-113 -542h29q169 0 279.5 -54.5t164.5 -148.5t54 -213q0 -112 -37.5 -204.5t-112 -159.5t-186 -103.5t-260.5 -36.5h-516
l243 1151h-194q-22 -83 -51 -187.5t-59.5 -209t-58 -191t-46.5 -133.5q-69 -172 -140.5 -270t-163.5 -139t-225 -41zM1217 305h77q44 0 78 12.5t57.5 35.5t35.5 56t12 74q0 51 -32.5 91t-98.5 40h-68z" />
    <glyph glyph-name="uni040A" unicode="&#x40a;" horiz-adv-x="1972" 
d="M33 0l309 1462h391l-112 -542h331l115 542h389l-113 -542h29q169 0 279.5 -54.5t164.5 -148.5t54 -213q0 -112 -37.5 -204.5t-112 -159.5t-186 -103.5t-260.5 -36.5h-516l125 596h-332l-127 -596h-391zM1217 305h77q59 0 99.5 21.5t62 61.5t21.5 95q0 51 -32.5 91
t-98.5 40h-68z" />
    <glyph glyph-name="uni040B" unicode="&#x40b;" horiz-adv-x="1571" 
d="M236 0l237 1139h-317l69 323h1028l-71 -323h-318l-39 -181h211q194 0 290.5 -96.5t96.5 -263.5q0 -31 -6 -80.5t-18 -114.5l-78 -403h-391l94 463q5 22 7.5 44t2.5 36q0 32 -16 62t-84 30h-176l-131 -635h-391z" />
    <glyph glyph-name="uni040C" unicode="&#x40c;" horiz-adv-x="1321" 
d="M33 0l309 1462h391l-145 -684l459 684h436l-520 -725l223 -737h-430l-181 719l-151 -719h-391zM698 1571v23q48 39 98.5 91t98.5 108.5t86 105.5h438v-15q-22 -27 -74.5 -69.5t-118 -89t-130.5 -87.5t-113 -67h-285z" />
    <glyph glyph-name="uni040D" unicode="&#x40d;" horiz-adv-x="1628" 
d="M33 0l309 1462h356l-131 -612q-10 -50 -24 -107.5t-30.5 -120t-35.5 -128.5h8l664 968h489l-309 -1462h-356l127 606q11 56 24 114.5t30 125t38 143.5h-8l-662 -989h-489zM977 1571q-45 42 -94.5 94.5t-92 107.5t-67.5 105v21h395q9 -44 21.5 -94.5t31 -103.5t41.5 -105
v-25h-235z" />
    <glyph glyph-name="uni040E" unicode="&#x40e;" horiz-adv-x="1280" 
d="M281 -20q-52 0 -109 8t-104 20v307q37 -9 77.5 -16.5t94.5 -7.5q48 0 80 7t54 22.5t38.5 40t33.5 59.5l-280 1042h399l109 -536q6 -29 12.5 -60t12 -60.5t8.5 -55.5q14 41 31.5 85.5t35.5 84.5l254 542h432l-637 -1132q-68 -121 -141 -198.5t-168.5 -114.5t-232.5 -37z
M820 1571q-143 0 -241.5 37.5t-149 113.5t-50.5 189q0 6 1.5 20t2.5 21h320q-1 -12 -2.5 -26t-1.5 -25q0 -72 43 -103.5t112 -31.5q79 0 129 41.5t70 144.5h332q-19 -106 -81.5 -192.5t-180 -137.5t-303.5 -51z" />
    <glyph glyph-name="uni040F" unicode="&#x40f;" horiz-adv-x="1462" 
d="M309 -457l101 457h-377l309 1462h391l-237 -1138h346l239 1138h392l-310 -1462h-377l-96 -457h-381z" />
    <glyph glyph-name="uni0410" unicode="&#x410;" horiz-adv-x="1384" 
d="M-121 0l744 1462h503l123 -1462h-381l-10 274h-448l-125 -274h-406zM553 586h293l-15 420q-1 49 -2 97t0 91h-6q-15 -46 -32.5 -90t-38.5 -90z" />
    <glyph glyph-name="uni0411" unicode="&#x411;" horiz-adv-x="1247" 
d="M33 0l307 1462h864l-67 -319h-473l-46 -223h29q169 0 279.5 -54.5t164.5 -148.5t54 -213q0 -112 -37.5 -204.5t-112 -159.5t-186 -103.5t-260.5 -36.5h-516zM492 305h77q59 0 99.5 21.5t62 61.5t21.5 95q0 51 -32.5 91t-98.5 40h-68z" />
    <glyph glyph-name="uni0412" unicode="&#x412;" horiz-adv-x="1298" 
d="M33 0l309 1462h487q157 0 254 -41t142 -113t45 -165q0 -99 -34.5 -173.5t-101 -124.5t-161.5 -79v-8q88 -29 140 -102t52 -177q0 -171 -78.5 -276.5t-211 -154t-295.5 -48.5h-547zM489 305h82q60 0 105 23t70.5 61.5t25.5 85.5q0 69 -33 103t-116 34h-68zM614 901h72
q69 0 107.5 20.5t54.5 56.5t16 83q0 49 -31 75.5t-96 26.5h-63z" />
    <glyph glyph-name="uni0413" unicode="&#x413;" horiz-adv-x="1079" 
d="M33 0l309 1462h862l-67 -319h-471l-242 -1143h-391z" />
    <glyph glyph-name="uni0414" unicode="&#x414;" horiz-adv-x="1626" 
d="M-215 -457l162 781h178q66 102 135 228.5t135.5 273t127 307t108.5 329.5h899l-242 -1138h246l-166 -781h-381l98 457h-821l-98 -457h-381zM555 324h342l176 815h-170q-31 -99 -67.5 -200.5t-79.5 -203.5t-93 -205t-108 -206z" />
    <glyph glyph-name="uni0415" unicode="&#x415;" horiz-adv-x="1151" 
d="M33 0l309 1462h868l-65 -317h-477l-47 -230h444l-72 -317h-444l-57 -276h477l-68 -322h-868z" />
    <glyph glyph-name="uni0416" unicode="&#x416;" horiz-adv-x="1911" 
d="M-131 0l528 760l-200 702h409l178 -684l144 684h385l-146 -684l459 684h436l-520 -725l223 -737h-430l-180 719l-151 -719h-386l154 719l-457 -719h-446z" />
    <glyph glyph-name="uni0417" unicode="&#x417;" horiz-adv-x="1260" 
d="M487 -20q-145 0 -271 20.5t-191 58.5v326q83 -46 195 -70t216 -24q58 0 109 6.5t90 25.5t61.5 54t22.5 92q0 85 -72 112t-178 27h-121l68 312h131q103 0 163 16.5t86.5 48t26.5 76.5q0 46 -36 78t-119 32q-86 0 -167.5 -33t-164.5 -91l-141 276q115 71 249.5 115.5
t321.5 44.5q150 0 253.5 -46t157.5 -125.5t54 -178.5q0 -107 -48 -184.5t-132.5 -122t-196.5 -54.5v-8q77 -17 135.5 -58t91.5 -105t33 -152q0 -108 -36.5 -194.5t-113 -148t-195 -94t-282.5 -32.5z" />
    <glyph glyph-name="uni0418" unicode="&#x418;" horiz-adv-x="1628" 
d="M33 0l309 1462h356l-131 -612q-10 -50 -24 -107.5t-30.5 -120t-35.5 -128.5h8l664 968h489l-309 -1462h-356l127 606q11 56 24 114.5t30 125t38 143.5h-8l-662 -989h-489z" />
    <glyph glyph-name="uni0419" unicode="&#x419;" horiz-adv-x="1628" 
d="M33 0l309 1462h356l-131 -612q-10 -50 -24 -107.5t-30.5 -120t-35.5 -128.5h8l664 968h489l-309 -1462h-356l127 606q11 56 24 114.5t30 125t38 143.5h-8l-662 -989h-489zM1022 1571q-143 0 -241.5 37.5t-149 113.5t-50.5 189q0 6 1.5 20t2.5 21h320q-1 -12 -2.5 -26
t-1.5 -25q0 -72 43 -103.5t112 -31.5q79 0 129 41.5t70 144.5h332q-19 -106 -81.5 -192.5t-180 -137.5t-303.5 -51z" />
    <glyph glyph-name="uni041A" unicode="&#x41a;" horiz-adv-x="1321" 
d="M33 0l309 1462h391l-145 -684l459 684h436l-520 -725l223 -737h-430l-181 719l-151 -719h-391z" />
    <glyph glyph-name="uni041B" unicode="&#x41b;" horiz-adv-x="1452" 
d="M63 -20q-41 0 -78 6.5t-77 19.5v305q31 -10 52 -15t50 -5q30 0 62.5 11t69.5 59.5t81 158.5q24 60 53.5 149t64.5 207t75.5 264.5t85.5 321.5h960l-305 -1462h-391l240 1151h-199q-18 -66 -40 -147t-46.5 -166t-48 -164t-44.5 -142.5t-36 -101.5q-69 -172 -140.5 -270
t-163.5 -139t-225 -41z" />
    <glyph glyph-name="uni041C" unicode="&#x41c;" horiz-adv-x="1862" 
d="M33 0l309 1462h518v-1038h8l478 1038h526l-313 -1462h-351l117 549q33 153 58 251t41.5 156.5t23.5 92.5h-8l-482 -1049h-370v1049h-8q-16 -103 -31 -195.5t-28.5 -171.5t-26.5 -145l-113 -537h-348z" />
    <glyph glyph-name="uni041D" unicode="&#x41d;" horiz-adv-x="1462" 
d="M33 0l309 1462h391l-112 -542h348l112 542h392l-310 -1462h-391l125 596h-346l-127 -596h-391z" />
    <glyph glyph-name="uni041E" unicode="&#x41e;" horiz-adv-x="1509" 
d="M666 -20q-187 0 -311.5 70t-187.5 196.5t-63 296.5q0 114 21 227t64 218.5t108 195.5t153 157.5t199.5 105.5t247.5 38q270 0 409.5 -154t139.5 -409q0 -114 -20.5 -227.5t-62 -219t-105.5 -195.5t-150.5 -157.5t-196.5 -105t-245 -37.5zM700 303q49 0 94 22t84.5 62.5
t71 97t54.5 125t35 146.5t12 162q0 113 -48 178t-139 65q-55 0 -103 -25t-88.5 -69t-72.5 -103t-54.5 -128t-34 -143t-11.5 -148q0 -79 22.5 -133t67 -81.5t110.5 -27.5z" />
    <glyph glyph-name="uni041F" unicode="&#x41f;" horiz-adv-x="1462" 
d="M33 0l309 1462h1131l-310 -1462h-391l238 1139h-346l-240 -1139h-391z" />
    <glyph glyph-name="uni0420" unicode="&#x420;" horiz-adv-x="1276" 
d="M33 0l309 1462h373q194 0 311.5 -58t171 -157.5t53.5 -222.5q0 -131 -46.5 -231.5t-132 -169t-203 -103.5t-259.5 -35h-86l-100 -485h-391zM594 805h63q62 0 107.5 27t70.5 74t25 106q0 50 -31.5 90.5t-103.5 40.5h-59z" />
    <glyph glyph-name="uni0421" unicode="&#x421;" horiz-adv-x="1290" 
d="M645 -20q-183 0 -303 71.5t-179 199.5t-59 298q0 131 28 264t87 253.5t151 215t219 149t292 54.5q146 0 262 -34.5t219 -96.5l-148 -305q-93 55 -171 82.5t-162 27.5q-71 0 -130.5 -32t-106 -89t-79 -131.5t-49 -161t-16.5 -176.5q0 -133 56.5 -199.5t160.5 -66.5
q89 0 174 22t194 68v-323q-107 -48 -216.5 -69t-223.5 -21z" />
    <glyph glyph-name="uni0422" unicode="&#x422;" horiz-adv-x="1130" 
d="M236 0l237 1139h-317l69 323h1028l-71 -323h-318l-237 -1139h-391z" />
    <glyph glyph-name="uni0423" unicode="&#x423;" horiz-adv-x="1280" 
d="M281 -20q-52 0 -109 8t-104 20v307q37 -9 77.5 -16.5t94.5 -7.5q48 0 80 7t54 22.5t38.5 40t33.5 59.5l-280 1042h399l109 -536q6 -29 12.5 -60t12 -60.5t8.5 -55.5q14 41 31.5 85.5t35.5 84.5l254 542h432l-637 -1132q-68 -121 -141 -198.5t-168.5 -114.5t-232.5 -37z
" />
    <glyph glyph-name="uni0424" unicode="&#x424;" horiz-adv-x="1733" 
d="M535 -20l49 225q-176 18 -284.5 87.5t-158 171.5t-49.5 214q0 130 42 240.5t130 194t225.5 133t327.5 57.5l37 180h369l-37 -180q171 -17 280 -85.5t161 -170t52 -218.5q0 -140 -43 -252t-132 -192.5t-226.5 -126t-325.5 -53.5l-49 -225h-368zM649 502l105 502
q-63 -3 -114 -23t-87.5 -58t-56 -94t-19.5 -131q0 -47 12.5 -89.5t49.5 -71.5t110 -35zM1018 504q73 2 125 24.5t85.5 62.5t49.5 95t16 121q0 52 -17 94t-54.5 69t-100.5 34z" />
    <glyph glyph-name="uni0425" unicode="&#x425;" horiz-adv-x="1358" 
d="M-125 0l563 776l-223 686h416l123 -469l309 469h448l-538 -725l262 -737h-432l-146 498l-338 -498h-444z" />
    <glyph glyph-name="uni0426" unicode="&#x426;" horiz-adv-x="1565" 
d="M928 -457l100 457h-995l309 1462h391l-241 -1138h348l241 1138h392l-246 -1157h246l-164 -762h-381z" />
    <glyph glyph-name="uni0427" unicode="&#x427;" horiz-adv-x="1425" 
d="M739 0l115 535q-73 -40 -162.5 -62t-183.5 -22q-118 0 -198.5 41.5t-121.5 119.5t-41 187q0 28 3.5 58.5t9.5 64.5l104 540h393l-98 -489q-4 -23 -7 -41t-3 -37q0 -58 37.5 -89.5t97.5 -31.5q54 0 116 19t115 51l129 618h392l-306 -1462h-391z" />
    <glyph glyph-name="uni0428" unicode="&#x428;" horiz-adv-x="2058" 
d="M33 0l303 1462h391l-235 -1138h282l236 1138h385l-236 -1138h283l235 1138h391l-303 -1462h-1732z" />
    <glyph glyph-name="uni0429" unicode="&#x429;" horiz-adv-x="2167" 
d="M1530 -457l100 457h-1597l303 1462h391l-235 -1138h282l236 1138h385l-236 -1138h283l235 1138h391l-239 -1157h246l-164 -762h-381z" />
    <glyph glyph-name="uni042A" unicode="&#x42a;" horiz-adv-x="1446" 
d="M231 0l242 1139h-317l69 323h705l-113 -542h29q169 0 279 -54.5t164 -148.5t54 -213q0 -112 -37 -204.5t-111.5 -159.5t-186 -103.5t-260.5 -36.5h-517zM690 305h78q59 0 99.5 21.5t61.5 61.5t21 95q0 51 -32.5 91t-98.5 40h-67z" />
    <glyph glyph-name="uni042B" unicode="&#x42b;" horiz-adv-x="1931" 
d="M33 0l307 1462h391l-113 -542h29q169 0 279.5 -54.5t164.5 -148.5t54 -213q0 -112 -37.5 -204.5t-112 -159.5t-186 -103.5t-260.5 -36.5h-516zM492 305h77q44 0 78 12.5t57.5 35.5t35.5 56t12 74q0 51 -32.5 91t-98.5 40h-68zM1241 0l309 1462h392l-310 -1462h-391z" />
    <glyph glyph-name="uni042C" unicode="&#x42c;" horiz-adv-x="1247" 
d="M33 0l309 1462h389l-113 -542h29q169 0 279.5 -54.5t164.5 -148.5t54 -213q0 -112 -37.5 -204.5t-112 -159.5t-186 -103.5t-260.5 -36.5h-516zM492 305h77q44 0 78 12.5t57.5 35.5t35.5 56t12 74q0 51 -32.5 91t-98.5 40h-68z" />
    <glyph glyph-name="uni042D" unicode="&#x42d;" horiz-adv-x="1286" 
d="M424 -20q-101 0 -204 18.5t-189 67.5v327q57 -32 124.5 -52t130 -29t105.5 -9q97 0 172 35t129.5 98.5t87.5 149.5h-485l67 311h476v17v16q0 78 -21.5 128.5t-70.5 75.5t-130 25q-72 0 -148 -20t-159 -68l-104 313q91 44 224 72.5t257 28.5q184 0 303.5 -69.5t178.5 -197
t59 -300.5q0 -110 -27 -237.5t-85.5 -251t-152 -225.5t-227 -163t-311.5 -61z" />
    <glyph glyph-name="uni042E" unicode="&#x42e;" horiz-adv-x="2206" 
d="M1362 -20q-186 0 -311 70t-187.5 196.5t-62.5 296.5v27v26h-250l-127 -596h-391l309 1462h391l-112 -542h239q39 117 103 219t155.5 180t209.5 122t265 44q271 0 410 -154t139 -409q0 -114 -20.5 -227.5t-62 -219t-105.5 -195.5t-150.5 -157.5t-196.5 -105t-245 -37.5z
M1397 303q49 0 94 22t84 62.5t70.5 97t54.5 125t35 146.5t12 162q0 113 -48 178t-138 65q-55 0 -103.5 -25t-89 -69t-72.5 -103t-54.5 -128t-34 -143t-11.5 -148q0 -79 22.5 -133t67.5 -81.5t111 -27.5z" />
    <glyph glyph-name="uni042F" unicode="&#x42f;" horiz-adv-x="1329" 
d="M-139 0l504 655q-61 53 -99.5 125t-38.5 189q0 109 38 199.5t112 156t182.5 101.5t249.5 36h532l-311 -1462h-391l115 532h-70l-356 -532h-467zM754 829h61l72 334h-92q-42 0 -74.5 -15t-55.5 -41t-35 -60t-12 -72q0 -77 39 -111.5t97 -34.5z" />
    <glyph glyph-name="uni0430" unicode="&#x430;" 
d="M406 -20q-87 0 -160.5 41t-117.5 135.5t-44 255.5q0 83 19.5 182t59 197.5t99.5 180.5t141.5 131.5t184.5 49.5q65 0 113.5 -20t85 -55.5t63.5 -84.5h8l53 140h310l-240 -1133h-309l10 123h-8q-30 -42 -67 -74t-85.5 -50.5t-115.5 -18.5zM565 291q44 0 81 40.5
t63.5 104.5t38.5 137q6 31 9 62.5t3 62.5q0 65 -20.5 104.5t-61.5 39.5q-32 0 -61.5 -23.5t-54.5 -64t-43.5 -93t-29 -110.5t-10.5 -117q0 -69 21.5 -106t64.5 -37z" />
    <glyph glyph-name="uni0431" unicode="&#x431;" horiz-adv-x="1231" 
d="M530 -20q-132 0 -232 56t-156 171t-56 291q0 117 21 233t62 224.5t101.5 203t139.5 168t176 119.5q64 30 137.5 51t158 35.5t179.5 23t201 13.5l38 -328q-62 -6 -138.5 -13.5t-148 -15.5t-118.5 -16q-116 -19 -187.5 -57.5t-110.5 -97t-60 -138.5h8q50 71 125 112.5
t164 41.5q110 0 178.5 -50.5t100.5 -140t32 -207.5q0 -117 -36.5 -237t-112 -220t-191.5 -161t-275 -61zM557 291q29 0 57.5 19.5t53.5 54.5t44.5 82t30.5 102t11 115q0 52 -15.5 81t-58.5 29q-29 0 -63 -22.5t-64.5 -54t-52.5 -60.5q-8 -28 -15.5 -75.5t-7.5 -84.5
q0 -73 11.5 -113.5t30 -56.5t38.5 -16z" />
    <glyph glyph-name="uni0432" unicode="&#x432;" horiz-adv-x="1239" 
d="M567 -20q-148 0 -256.5 52.5t-167.5 153.5t-59 246q0 114 26.5 220t79 197t131 159.5t181.5 106.5t231 38q129 0 226.5 -38t151.5 -108.5t54 -168.5q0 -86 -37 -139t-94 -82.5t-119 -45.5v-8q79 -16 133 -73.5t54 -149.5q0 -114 -58 -194.5t-176.5 -123t-300.5 -42.5z
M592 242q34 0 60 11.5t41.5 36t15.5 62.5q0 42 -14 69.5t-41.5 40.5t-67.5 13h-113q-1 -18 -2.5 -29.5t-1.5 -37.5q0 -92 34 -129t89 -37zM528 725h115q55 0 84.5 13t41 34.5t11.5 46.5q0 34 -19.5 53t-51.5 19q-38 0 -70.5 -16t-59.5 -52t-51 -98z" />
    <glyph glyph-name="uni0433" unicode="&#x433;" horiz-adv-x="1036" 
d="M432 -20q-107 0 -200 32.5t-150 108t-57 203.5q0 70 22 127.5t70 105.5t126 87t189 71q76 22 112 39.5t47 36.5t11 43q0 23 -20 39t-68 16q-63 0 -129 -23t-125 -55l-92 248q81 44 189 69t218 25q111 0 206 -31.5t152.5 -101t57.5 -184.5q0 -91 -24.5 -157t-77.5 -115
t-139.5 -89.5t-210.5 -79.5q-46 -14 -72 -25t-36.5 -23.5t-10.5 -33.5q0 -22 22 -35.5t80 -13.5q48 0 108 14t119.5 35.5t106.5 42.5v-284q-92 -46 -193.5 -69t-230.5 -23z" />
    <glyph glyph-name="uni0434" unicode="&#x434;" horiz-adv-x="1288" 
d="M549 -20q-155 0 -258.5 54t-155 153.5t-51.5 234.5q0 114 22 211t63.5 174t98.5 131.5t127 83.5t150 29q63 0 116 -24t94 -65t66 -94h8q2 17 2 36.5v29.5q0 180 -56.5 256t-196.5 76q-46 0 -99.5 -12.5t-97.5 -30.5l-76 295q76 24 161 41.5t206 17.5q180 0 303 -73
t185.5 -218.5t62.5 -361.5q0 -112 -14 -225t-45 -219t-82.5 -196.5t-126 -159t-175 -106.5t-231.5 -38zM588 291q32 0 60 18.5t51 52t41 79t32 100t23 114.5q-11 25 -29.5 49t-45.5 40t-65 16q-29 0 -56.5 -15.5t-50 -44.5t-39.5 -71t-26.5 -94.5t-9.5 -114.5
q0 -51 27.5 -90t87.5 -39z" />
    <glyph glyph-name="uni0435" unicode="&#x435;" horiz-adv-x="1186" 
d="M532 -20q-143 0 -243 54t-152.5 154.5t-52.5 239.5t39.5 269t120 233t202.5 163t287 60q191 0 299.5 -86t108.5 -229q0 -94 -36 -170.5t-110.5 -131.5t-189.5 -84.5t-273 -29.5h-59v-7.5v-8.5q0 -76 41 -112t123 -36q86 0 163 26t165 72v-274q-91 -46 -188 -74t-245 -28z
M512 664h29q87 0 138 23t73 58t22 70q0 32 -20 54t-64 22q-45 0 -83 -35t-63 -87.5t-32 -104.5z" />
    <glyph glyph-name="uni0436" unicode="&#x436;" horiz-adv-x="2130" 
d="M139 -20q-46 0 -86 4t-78 10l70 301q19 -3 37.5 -5.5t38.5 -2.5q43 0 80 21t65.5 59t48.5 89t30.5 111.5t10.5 126.5q0 74 -24 111t-74 37q-29 0 -60 -8.5t-65 -22.5v307q37 17 95.5 26t115.5 9q173 0 283 -102.5t110 -323.5v-12v-13h168l94 431h373l-94 -431h149
q29 102 80 185t123.5 142.5t163 91.5t197.5 32q46 0 86 -4t77 -10l-69 -301q-19 3 -37.5 5.5t-38.5 2.5q-43 0 -80 -21t-65.5 -59.5t-48.5 -89.5t-30.5 -111.5t-10.5 -126.5q0 -73 24.5 -110t73.5 -37q29 0 60 8.5t65 22.5v-308q-37 -16 -95.5 -25t-115.5 -9
q-109 0 -198 40.5t-141 137t-52 264.5v9.5v8.5h-174l-95 -440h-372l94 440h-143q-28 -103 -79.5 -188t-124 -145.5t-163.5 -93.5t-199 -33z" />
    <glyph glyph-name="uni0437" unicode="&#x437;" horiz-adv-x="1192" 
d="M459 -20q-140 0 -249 24.5t-177 61.5v294q94 -43 195 -66.5t204 -23.5q52 0 104 7t87.5 27.5t35.5 60.5q0 47 -43.5 73.5t-164.5 26.5h-140l54 246h153q77 0 124.5 9.5t69 28t21.5 46.5q0 35 -23.5 55t-99.5 20q-67 0 -167.5 -21.5t-182.5 -60.5l-84 279
q107 37 228.5 61.5t261.5 24.5q122 0 224.5 -26t165 -88.5t62.5 -174.5q0 -67 -26.5 -119t-82.5 -90t-143 -65v-8q94 -25 140.5 -84.5t46.5 -139.5q0 -112 -64.5 -197.5t-196 -133t-333.5 -47.5z" />
    <glyph glyph-name="uni0438" unicode="&#x438;" horiz-adv-x="1274" 
d="M395 -20q-105 0 -171 44t-97 117t-31 160q0 57 7 116.5t18 112.5l127 603h387l-129 -617q-6 -26 -12.5 -66t-6.5 -75q0 -43 22.5 -64.5t53.5 -21.5q34 0 68.5 31t65 96t51.5 166l116 551h387l-239 -1133h-310l13 158h-8q-37 -63 -82 -102.5t-101.5 -57.5t-128.5 -18z" />
    <glyph glyph-name="uni0439" unicode="&#x439;" horiz-adv-x="1274" 
d="M395 -20q-105 0 -171 44t-97 117t-31 160q0 57 7 116.5t18 112.5l127 603h387l-129 -617q-6 -26 -12.5 -66t-6.5 -75q0 -43 22.5 -64.5t53.5 -21.5q34 0 68.5 31t65 96t51.5 166l116 551h387l-239 -1133h-310l13 158h-8q-37 -63 -82 -102.5t-101.5 -57.5t-128.5 -18z
M760 1241q-143 0 -241.5 37.5t-149 113.5t-50.5 189q0 6 1.5 20t2.5 21h320q-1 -12 -2.5 -26t-1.5 -25q0 -72 43 -103.5t112 -31.5q79 0 129 41.5t70 144.5h332q-19 -106 -81.5 -192.5t-180 -137.5t-303.5 -51z" />
    <glyph glyph-name="uni043A" unicode="&#x43a;" horiz-adv-x="1278" 
d="M23 0l235 1133h387l-108 -521l391 521h440l-444 -570l227 -563h-424l-205 543l-112 -543h-387z" />
    <glyph glyph-name="uni043B" unicode="&#x43b;" horiz-adv-x="1366" 
d="M125 -20q-35 0 -79.5 7.5t-82.5 22.5v301q26 -13 46.5 -16.5t33.5 -3.5q26 0 45.5 14t38 48.5t39.5 93.5t49 149q42 134 90.5 237.5t119 174.5t176 108t261.5 37q145 0 268 -24t199 -56l-221 -1073h-387l178 856q-13 3 -27 4.5t-28 1.5q-59 0 -104 -29.5t-87.5 -118.5
t-95.5 -268q-39 -133 -77 -222.5t-85 -143t-112 -77t-158 -23.5z" />
    <glyph glyph-name="uni043C" unicode="&#x43c;" horiz-adv-x="1767" 
d="M33 0l239 1133h512l47 -740h9l364 740h541l-242 -1133h-364l71 332q39 178 61.5 263.5t28.5 123.5h-8l-346 -719h-362l-47 719h-9q-15 -120 -29.5 -220t-31.5 -175l-72 -324h-362z" />
    <glyph glyph-name="uni043D" unicode="&#x43d;" horiz-adv-x="1284" 
d="M23 0l241 1133h387l-86 -410h221l88 410h388l-240 -1133h-387l92 440h-223l-94 -440h-387z" />
    <glyph glyph-name="uni043E" unicode="&#x43e;" 
d="M520 -20q-139 0 -236.5 51t-148.5 148.5t-51 236.5q0 116 26 224.5t78 201.5t129 163t178.5 109t227.5 39q139 0 236.5 -51t148.5 -148.5t51 -236.5q0 -116 -26 -224.5t-78 -201.5t-129 -163t-178.5 -109t-227.5 -39zM563 270q34 0 64.5 26t55.5 71.5t43 104t28 124.5
t10 133q0 44 -10.5 73.5t-29.5 44.5t-46 15q-34 0 -64.5 -26t-55 -71t-42.5 -103.5t-27.5 -125t-9.5 -133.5q0 -66 22 -99.5t62 -33.5z" />
    <glyph glyph-name="uni043F" unicode="&#x43f;" horiz-adv-x="1274" 
d="M23 0l239 1133h309l-12 -158h8q37 64 82 103t101.5 57t128.5 18q106 0 171.5 -44t96.5 -117t31 -161q0 -56 -7 -115.5t-18 -113.5l-127 -602h-387l129 618q6 26 12 66.5t6 75.5q0 43 -22 64.5t-53 21.5q-38 0 -72.5 -31.5t-63 -96t-49.5 -165.5l-116 -553h-387z" />
    <glyph glyph-name="uni0440" unicode="&#x440;" 
d="M-82 -492l344 1625h309l-12 -127h8q31 48 69 81t85 49.5t104 16.5q102 0 177 -49t116 -142.5t41 -226.5q0 -112 -23 -221.5t-66 -206t-105.5 -170t-141 -115.5t-172.5 -42q-51 0 -93.5 18t-76.5 50.5t-61 76.5h-8q-7 -80 -17.5 -159.5t-38.5 -211.5l-51 -246h-387z
M573 291q32 0 61 23.5t52.5 64t41 92.5t27 110.5t9.5 116.5q0 70 -21.5 107t-64.5 37q-30 0 -55.5 -18t-47 -49t-38.5 -71.5t-28.5 -86.5t-17.5 -92.5t-6 -90.5q0 -64 23.5 -103.5t64.5 -39.5z" />
    <glyph glyph-name="uni0441" unicode="&#x441;" horiz-adv-x="1032" 
d="M506 -20q-115 0 -211 47t-153.5 149t-57.5 266q0 120 27.5 227t79.5 196t126.5 153.5t168.5 99.5t204 35q106 0 193.5 -20t173.5 -60l-123 -287q-51 23 -110.5 41.5t-114.5 18.5q-60 0 -104.5 -37.5t-73.5 -96.5t-43.5 -124.5t-14.5 -120.5q0 -66 15 -104.5t43 -55
t67 -16.5q72 0 139.5 23t143.5 63v-307q-80 -43 -168 -66.5t-207 -23.5z" />
    <glyph glyph-name="uni0442" unicode="&#x442;" horiz-adv-x="1896" 
d="M23 0l239 1133h309l-16 -187h8q40 75 86 120.5t105 66t137 20.5q117 0 180.5 -53.5t89.5 -153.5h8q43 71 95 116.5t114 68t135 22.5q140 0 213.5 -85t73.5 -249q0 -46 -5.5 -98.5t-16.5 -106.5l-125 -614h-387l129 631q5 20 9.5 55t4.5 78q0 40 -19 61t-51 21
q-37 0 -66.5 -19t-53 -57.5t-42.5 -95t-34 -131.5l-111 -543h-387l131 631q5 23 10 59.5t5 61.5q0 50 -20.5 72t-51.5 22q-28 0 -54.5 -13.5t-50 -46.5t-45 -90.5t-41.5 -144.5l-118 -551h-387z" />
    </font>
</defs>
</svg>
